Jeff Hamilton Trio - Live from San Pedro
Жанр: Mainstream Jazz
Носитель: CD
Страна-производитель диска (релиза): США
Год издания: 2018
Издатель (лейбл): Capri Records
Номер по каталогу: 74147-2
Аудиокодек: FLAC (*.flac)
Тип рипа: tracks+.cue
Битрейт аудио: lossless
Продолжительность: 53:55
Источник (релизер): neuros
Наличие сканов в содержимом раздачи: да
Треклист:
01. Sybille's Day (Hamilton) - 4:37
02. Poinciana (Bernier-Simon) - 6:11
03. Hammer's Tones (Robert) - 3:23
04. I Have Dreamed (Hammerstein-Rodgers) - 5:34
05. In Walked Bud (Monk) - 6:34
06. Gina's Groove (Clayton) - 4:36
07. Brush This (Clayton) - 5:35
08. Bennissimo (Hendelman) - 4:38
09. Gary, Indiana (Willson) - 5:51
10. Hoosier Friend (LaBarbera) - 6:56
Состав:
Jeff Hamilton - drums
Tamir Hendelman - piano
Christoph Luty - bass
Recorded at Alvas Showroom, San Pedro, CA on January 8, 2017.

Лог создания рипа

Exact Audio Copy V1.3 from 2. September 2016
EAC extraction logfile from 23. October 2018, 19:42
Jeff Hamilton Trio / Live From San Pedro
Used drive : PLDS DVD-RW DU8A6SH Adapter: 1 ID: 0
Read mode : SecureUtilize accurate stream : YesDefeat audio cache : YesMake use of C2 pointers : No
Read offset correction : 6Overread into Lead-In and Lead-Out : NoFill up missing offset samples with silence : YesDelete leading and trailing silent blocks : NoNull samples used in CRC calculations : YesUsed interface : Native Win32 interface for Win NT & 2000Gap handling : Appended to previous track
Used output format : User Defined EncoderSelected bitrate : 1024 kBit/sQuality : HighAdd ID3 tag : NoCommand line compressor : C:\Program Files (x86)\FLAC Frontend\tools\flac.exeAdditional command line options : -8 -V -T "ARTIST=%artist%" -T "TITLE=%title%" -T "ALBUM=%albumtitle%" -T "DATE=%year%" -T "TRACKNUMBER=%tracknr%" -T "GENRE=%genre%" -T "PERFORMER=%albuminterpret%" -T "COMPOSER=%composer%" %haslyrics%--tag-from-file=LYRICS="%lyricsfile%"%haslyrics% -T "ALBUMARTIST=%albumartist%" -T "DISCNUMBER=%cdnumber%" -T "TOTALDISCS=%totalcds%" -T "TOTALTRACKS=%numtracks%" -T "COMMENT=%comment%" %source% -o %dest%
TOC of the extracted CD
Track | Start | Length | Start sector | End sector --------------------------------------------------------- 1 | 0:00.00 | 4:36.53 | 0 | 20752 2 | 4:36.53 | 6:10.49 | 20753 | 48551 3 | 10:47.27 | 3:23.04 | 48552 | 63780 4 | 14:10.31 | 5:34.14 | 63781 | 88844 5 | 19:44.45 | 6:34.28 | 88845 | 118422 6 | 26:18.73 | 4:35.69 | 118423 | 139116 7 | 30:54.67 | 5:34.49 | 139117 | 164215 8 | 36:29.41 | 4:37.40 | 164216 | 185030 9 | 41:07.06 | 5:51.37 | 185031 | 211392 10 | 46:58.43 | 6:55.72 | 211393 | 242589
Track 1
Filename C:\Users\dwm\Desktop\Torrents\Jeff Hamilton Trio - Live from San Pedro (2018) - CD FLAC\01 - Sybelle's Day.wav
Pre-gap length 0:00:02.00
Peak level 98.8 % Extraction speed 2.2 X Track quality 100.0 % Test CRC 2BEC7AD8 Copy CRC 2BEC7AD8 Accurately ripped (confidence 1) [52D40B86] (AR v2) Copy OK
Track 2
Filename C:\Users\dwm\Desktop\Torrents\Jeff Hamilton Trio - Live from San Pedro (2018) - CD FLAC\02 - Poinciana.wav
Pre-gap length 0:00:01.00
Peak level 98.8 % Extraction speed 2.6 X Track quality 100.0 % Test CRC 96706149 Copy CRC 96706149 Accurately ripped (confidence 1) [F615C27B] (AR v2) Copy OK
Track 3
Filename C:\Users\dwm\Desktop\Torrents\Jeff Hamilton Trio - Live from San Pedro (2018) - CD FLAC\03 - Hammer's Tones.wav
Pre-gap length 0:00:01.00
Peak level 98.8 % Extraction speed 2.7 X Track quality 100.0 % Test CRC 8540D446 Copy CRC 8540D446 Accurately ripped (confidence 1) [C1F1A868] (AR v2) Copy OK
Track 4
Filename C:\Users\dwm\Desktop\Torrents\Jeff Hamilton Trio - Live from San Pedro (2018) - CD FLAC\04 - I Have Dreamed.wav
Pre-gap length 0:00:01.00
Peak level 89.3 % Extraction speed 3.0 X Track quality 100.0 % Test CRC AFA9F842 Copy CRC AFA9F842 Accurately ripped (confidence 1) [819F0F0E] (AR v2) Copy OK
Track 5
Filename C:\Users\dwm\Desktop\Torrents\Jeff Hamilton Trio - Live from San Pedro (2018) - CD FLAC\05 - In Walked Bud.wav
Pre-gap length 0:00:01.00
Peak level 98.8 % Extraction speed 3.0 X Track quality 99.9 % Test CRC 5990FA3F Copy CRC 5990FA3F Accurately ripped (confidence 1) [52CAE781] (AR v2) Copy OK
Track 6
Filename C:\Users\dwm\Desktop\Torrents\Jeff Hamilton Trio - Live from San Pedro (2018) - CD FLAC\06 - Gina's Groove.wav
Pre-gap length 0:00:01.00
Peak level 98.8 % Extraction speed 3.4 X Track quality 100.0 % Test CRC 7EFB1398 Copy CRC 7EFB1398 Accurately ripped (confidence 1) [B91F63B1] (AR v2) Copy OK
Track 7
Filename C:\Users\dwm\Desktop\Torrents\Jeff Hamilton Trio - Live from San Pedro (2018) - CD FLAC\07 - Brush This.wav
Pre-gap length 0:00:01.00
Peak level 98.8 % Extraction speed 3.2 X Track quality 99.9 % Test CRC 3F66CDB8 Copy CRC 3F66CDB8 Accurately ripped (confidence 1) [DAD2E4C9] (AR v2) Copy OK
Track 8
Filename C:\Users\dwm\Desktop\Torrents\Jeff Hamilton Trio - Live from San Pedro (2018) - CD FLAC\08 - Bennissimo.wav
Pre-gap length 0:00:01.00
Peak level 98.8 % Extraction speed 3.3 X Track quality 99.9 % Test CRC 4676EC4F Copy CRC 4676EC4F Accurately ripped (confidence 1) [8FAF8DBC] (AR v2) Copy OK
Track 9
Filename C:\Users\dwm\Desktop\Torrents\Jeff Hamilton Trio - Live from San Pedro (2018) - CD FLAC\09 - Gary, Indiana.wav
Pre-gap length 0:00:01.00
Peak level 98.8 % Extraction speed 4.1 X Track quality 100.0 % Test CRC CBB34DA2 Copy CRC CBB34DA2 Accurately ripped (confidence 1) [45D53D72] (AR v2) Copy OK
Track 10
Filename C:\Users\dwm\Desktop\Torrents\Jeff Hamilton Trio - Live from San Pedro (2018) - CD FLAC\10 - Hoosier Friend.wav
Pre-gap length 0:00:01.00
Peak level 98.8 % Extraction speed 4.4 X Track quality 100.0 % Test CRC 8139135C Copy CRC 8139135C Accurately ripped (confidence 1) [68A0BE82] (AR v2) Copy OK
All tracks accurately ripped
No errors occurred
End of status report
---- CUETools DB Plugin V2.1.6
[CTDB TOCID: 8VBWAlYABh.yHBYRVIO9ehcRhZs-] foundSubmit result: 8VBWAlYABh.yHBYRVIO9ehcRhZs- has been confirmedTrack | CTDB Status 1 | (2/2) Accurately ripped 2 | (2/2) Accurately ripped 3 | (2/2) Accurately ripped 4 | (2/2) Accurately ripped 5 | (2/2) Accurately ripped 6 | (2/2) Accurately ripped 7 | (2/2) Accurately ripped 8 | (2/2) Accurately ripped 9 | (2/2) Accurately ripped 10 | (2/2) Accurately ripped
==== Log checksum 4FAB4956456C22EA5B44D25A14E104A9B72E1F6109C6D5BA45F89C45C3E22132 ====

Содержание индексной карты (.CUE)

REM GENRE JazzREM DATE 2018REM DISCID 950CA20AREM COMMENT "ExactAudioCopy v1.3"PERFORMER "Jeff Hamilton"TITLE "Live from San Pedro"FILE "01 - Sybille's Day.wav" WAVE  TRACK 01 AUDIO    TITLE "Sybille's Day"    PERFORMER "Jeff Hamilton"    INDEX 01 00:00:00  TRACK 02 AUDIO    TITLE "Poinciana"    PERFORMER "Jeff Hamilton"    INDEX 00 04:35:53FILE "02 - Poinciana.wav" WAVE    INDEX 01 00:00:00  TRACK 03 AUDIO    TITLE "Hammer's Tones"    PERFORMER "Jeff Hamilton"    INDEX 00 06:09:49FILE "03 - Hammer's Tones.wav" WAVE    INDEX 01 00:00:00  TRACK 04 AUDIO    TITLE "I Have Dreamed"    PERFORMER "Jeff Hamilton"    INDEX 00 03:22:04FILE "04 - I Have Dreamed.wav" WAVE    INDEX 01 00:00:00  TRACK 05 AUDIO    TITLE "In Walked Bud"    PERFORMER "Jeff Hamilton"    INDEX 00 05:33:14FILE "05 - In Walked Bud.wav" WAVE    INDEX 01 00:00:00  TRACK 06 AUDIO    TITLE "Gina's Groove"    PERFORMER "Jeff Hamilton"    INDEX 00 06:33:28FILE "06 - Gina's Groove.wav" WAVE    INDEX 01 00:00:00  TRACK 07 AUDIO    TITLE "Brush This"    PERFORMER "Jeff Hamilton"    INDEX 00 04:34:69FILE "07 - Brush This.wav" WAVE    INDEX 01 00:00:00  TRACK 08 AUDIO    TITLE "Bennissimo"    PERFORMER "Jeff Hamilton"    INDEX 00 05:33:49FILE "08 - Bennissimo.wav" WAVE    INDEX 01 00:00:00  TRACK 09 AUDIO    TITLE "Gary, Indiana"    PERFORMER "Jeff Hamilton"    INDEX 00 04:36:40FILE "09 - Gary, Indiana.wav" WAVE    INDEX 01 00:00:00  TRACK 10 AUDIO    TITLE "Hoosier Friend"    PERFORMER "Jeff Hamilton"    INDEX 00 05:50:37FILE "10 - Hoosier Friend.wav" WAVE    INDEX 01 00:00:00

Отчет CUETools

[CUETools log; Date: 24.10.2018 20:13:02; Version: 2.1.5][CTDB TOCID: 8VBWAlYABh.yHBYRVIO9ehcRhZs-] found.Track | CTDB Status  1   | (3/3) Accurately ripped  2   | (3/3) Accurately ripped  3   | (3/3) Accurately ripped  4   | (3/3) Accurately ripped  5   | (3/3) Accurately ripped  6   | (3/3) Accurately ripped  7   | (3/3) Accurately ripped  8   | (3/3) Accurately ripped  9   | (3/3) Accurately ripped 10   | (3/3) Accurately ripped[AccurateRip ID: 0013928d-009da888-950ca20a] found.Track   [  CRC   |   V2   ] Status 01     [2404ca2d|52d40b86] (0+1/1) Accurately ripped 02     [fe58fb6e|f615c27b] (0+1/1) Accurately ripped 03     [d15dd9d5|c1f1a868] (0+1/1) Accurately ripped 04     [856efea9|819f0f0e] (0+1/1) Accurately ripped 05     [17e58bd4|52cae781] (0+1/1) Accurately ripped 06     [8519c952|b91f63b1] (0+1/1) Accurately ripped 07     [710b99e7|dad2e4c9] (0+1/1) Accurately ripped 08     [c24d3657|8faf8dbc] (0+1/1) Accurately ripped 09     [e5ea298b|45d53d72] (0+1/1) Accurately ripped 10     [186f3136|68a0be82] (0+1/1) Accurately ripped
Track Peak [ CRC32 ] [W/O NULL] [ LOG ] -- 98,8 [DA0F6D95] [8D06EF40] 01 98,8 [2BEC7AD8] [1C66154C] CRC32 02 98,8 [96706149] [5A1C5687] CRC32 03 98,8 [8540D446] [72DE3A88] CRC32 04 89,3 [AFA9F842] [D6B875B3] CRC32 05 98,8 [5990FA3F] [DBF38FA9] CRC32 06 98,8 [7EFB1398] [B42AC7D1] CRC32 07 98,8 [3F66CDB8] [7908817C] CRC32 08 98,8 [4676EC4F] [92DF3D36] CRC32 09 98,8 [CBB34DA2] [62FB51EA] CRC32 10 98,8 [8139135C] [13028D78] CRC32

Review by Edward Blanco

Together 17 years and counting, the Jeff Hamilton Trio presents another exceptional session of music captured in a one-night live performance at the Alvas Showroom in San Pedro, CA simply titled Live from San Pedro. Along with pianist Tamir Hendelman and bassist Christoph Luty, drummer Hamilton and crew touch on a host of creative compositions including the Monk standard "In Walked Bud," the classic from the Ahmad Jamal songbook, "Poinciana," the Hammerstein/Rodgers ballad, "I Have Dreamed," and "Hoosier Friend," a special chart from fellow drummer and friend, Joe LaBarbera.
The music is light, humble, relaxing as well as sizzling at times beginning with opening "Sybille's Day," a composition penned for the wife of a good friend, this one gets the ball rolling in burning fashion with the leader and pianist assuming assertive phrases in a blazing start to the set. This is followed by one of Hamilton's favorite songs, "Poinciana," which pays tribute to the legendary Jamal trio with a pounding beat inspired by friend John Van Ohlen.
Composed by the late great Swiss saxophonist George Robert, "Hammer's Tones" was first recorded in Europe while on tour with Robert and captures Hamilton on splashy brushes, while "I Have Dreamed" features Luty on the bow on a beautiful soft ballad dedicated to actor Wilford Brimley. Hamilton also includes two John Clayton compositions with "Gina's Groove," and "Brush This," demonstrating the drummer's affinity for the brushes over the sticks at times. Clayton of Course, is the leader's partner with the Clayton-Hamilton Jazz Orchestra.
The music continues to heat up on the steamy Hendelman tune "Bennissimo," featuring the Israeli pianist at his best with a blistering, rumbling drum solo from the leader that makes this track one of the highlights of the live session. The reworked show tune "Gary, Indiana." And the LaBarbera song "Hoosier Friend," closes the show in high gear leaving no doubt that what one has just experienced, is like what Stan Kenton would say, "Artistry in Rhythm."
Arguably, one of the best piano trios in recent times, the Jeff Hamilton Trio provides a special musical treat on Live from San Pedro with three world-class performers displaying their appreciable talents for the world to enjoy once again. Hopefully, there will be much to come in the future.

If you like the topic, please click share to help develop our site.

To download the file disable ad blocking, and reload the page.

disable adblock How to disable ad blocking?

Download by magnet link 345 MB Download Torrent

Login using:

Similar topics



   
Current time is: 21-Mar 06:57 :: All times are UTC + 3