Sandro Roy - Souvenir de Paris
Жанр: Swing, Gypsy
Носитель: CD
Страна-производитель диска (релиза): Германия
Год издания: 2018
Издатель (лейбл): Skip Records GmbH
Номер по каталогу: SKP 9138-2
Аудиокодек: FLAC (*.flac)
Тип рипа: tracks+.cue
Битрейт аудио: lossless
Продолжительность: 73:05
Источник (релизер): PeepingTomPayne
Наличие сканов в содержимом раздачи: нет
Треклист:
01. Let's Face the Music and Dance (Berlin) - 5:09
02. Souvenir de Paris (Roy) - 3:07
03. Waltz for Nicky (Galliano) - 6:16
04. September Second (Petrucciani) - 5:53
05. Paris Violon (Legrand) - 4:44
06. Post Phrasing (Lakatos) - 8:57
07. Dolphin Dance (Hancock) - 5:33
08. Une histoire simple (Reinhardt) - 6:39
09. Tendre reve (Hoffman-Livingston-David) - 3:43
10. Wendy (Grappelli) - 7:37
11. Gipsylogy (Landsberger) - 4:00
12. Sambroy (Landsberger) - 4:32
13. With a Song in My Heart (Rodgers-Hart) - 6:55
Состав:
Sandro Roy, Roby Lakatos - violin
Marcel Loeffler - accordion
Jermaine Landsberger - piano
Eugen Apostolidis - bass
Guido May - drums

Лог создания рипа

Exact Audio Copy V1.3 from 2. September 2016
EAC extraction logfile from 1. August 2018, 13:54
Sandro Roy / Souvenir de Paris
Used drive : hp DVDRW DU8A6SH Adapter: 1 ID: 0
Read mode : SecureUtilize accurate stream : YesDefeat audio cache : YesMake use of C2 pointers : No
Read offset correction : 6Overread into Lead-In and Lead-Out : NoFill up missing offset samples with silence : YesDelete leading and trailing silent blocks : NoNull samples used in CRC calculations : YesUsed interface : Native Win32 interface for Win NT & 2000Gap handling : Appended to previous track
Used output format : User Defined EncoderSelected bitrate : 128 kBit/sQuality : HighAdd ID3 tag : NoCommand line compressor : C:\Program Files (x86)\Exact Audio Copy\Flac\flac.exeAdditional command line options : -8 -e -p -V -T "ARTIST=%artist%" -T "TITLE=%title%" -T "ALBUM=%albumtitle%" -T "DATE=%year%" -T "TRACKNUMBER=%tracknr%" -T "GENRE=%genre%" -T "PERFORMER=%albuminterpret%" -T "COMPOSER=%composer%" %haslyrics%--tag-from-file=LYRICS="%lyricsfile%"%haslyrics% -T "ALBUMARTIST=%albumartist%" -T "DISCNUMBER=%cdnumber%" -T "TOTALDISCS=%totalcds%" -T "TOTALTRACKS=%numtracks%" -T "COMMENT=%comment%" %source% -o %dest%
TOC of the extracted CD
Track | Start | Length | Start sector | End sector --------------------------------------------------------- 1 | 0:00.00 | 5:08.48 | 0 | 23147 2 | 5:08.48 | 3:07.30 | 23148 | 37202 3 | 8:16.03 | 6:15.50 | 37203 | 65377 4 | 14:31.53 | 5:53.21 | 65378 | 91873 5 | 20:24.74 | 4:44.01 | 91874 | 113174 6 | 25:09.00 | 8:57.02 | 113175 | 153451 7 | 34:06.02 | 5:33.35 | 153452 | 178461 8 | 39:39.37 | 6:38.65 | 178462 | 208376 9 | 46:18.27 | 3:43.17 | 208377 | 225118 10 | 50:01.44 | 7:36.50 | 225119 | 259368 11 | 57:38.19 | 4:00.23 | 259369 | 277391 12 | 61:38.42 | 4:32.09 | 277392 | 297800 13 | 66:10.51 | 6:54.38 | 297801 | 328888
Track 1
Filename C:\EAC Rips\Sandro Roy - Souvenir de Paris (2018) [FLAC]\01 - Sandro Roy & Jermaine Landsberger feat. Roby Lakatos - Let's Face the Music and Dance.wav
Pre-gap length 0:00:02.00
Peak level 99.8 % Extraction speed 3.0 X Track quality 100.0 % Test CRC CB94E176 Copy CRC CB94E176 Accurately ripped (confidence 1) [9D285298] (AR v2) Copy OK
Track 2
Filename C:\EAC Rips\Sandro Roy - Souvenir de Paris (2018) [FLAC]\02 - Sandro Roy & Jermaine Landsberger Trio - Souvenir de Paris.wav
Peak level 75.7 % Extraction speed 3.1 X Track quality 100.0 % Test CRC 3F156DEC Copy CRC 3F156DEC Accurately ripped (confidence 1) [B4BAA835] (AR v2) Copy OK
Track 3
Filename C:\EAC Rips\Sandro Roy - Souvenir de Paris (2018) [FLAC]\03 - Sandro Roy & Jermaine Landsberger Trio feat. Marcel Loeffler - Waltz for Nicky.wav
Peak level 100.0 % Extraction speed 3.6 X Track quality 100.0 % Test CRC 59CFF102 Copy CRC 59CFF102 Accurately ripped (confidence 1) [45A46E1C] (AR v2) Copy OK
Track 4
Filename C:\EAC Rips\Sandro Roy - Souvenir de Paris (2018) [FLAC]\04 - Sandro Roy & Jermaine Landsberger Trio - September Second.wav
Peak level 100.0 % Extraction speed 4.0 X Track quality 100.0 % Test CRC F779F170 Copy CRC F779F170 Accurately ripped (confidence 1) [C9289873] (AR v2) Copy OK
Track 5
Filename C:\EAC Rips\Sandro Roy - Souvenir de Paris (2018) [FLAC]\05 - Sandro Roy feat. Marcel Loeffler - Paris Violon.wav
Peak level 99.2 % Extraction speed 4.2 X Track quality 100.0 % Test CRC C1602589 Copy CRC C1602589 Accurately ripped (confidence 1) [8A99C551] (AR v2) Copy OK
Track 6
Filename C:\EAC Rips\Sandro Roy - Souvenir de Paris (2018) [FLAC]\06 - Sandro Roy & Jermaine Landsberger Trio feat. Roby Lakatos & Marcel Loeffler - Post Phrasing.wav
Peak level 99.9 % Extraction speed 4.7 X Track quality 100.0 % Test CRC BAF99BE8 Copy CRC BAF99BE8 Accurately ripped (confidence 1) [A870A248] (AR v2) Copy OK
Track 7
Filename C:\EAC Rips\Sandro Roy - Souvenir de Paris (2018) [FLAC]\07 - Sandro Roy & Jermaine Landsberger Trio - Dolphin Dance.wav
Peak level 99.9 % Extraction speed 4.9 X Track quality 100.0 % Test CRC 1824437A Copy CRC 1824437A Accurately ripped (confidence 1) [A9FE539A] (AR v2) Copy OK
Track 8
Filename C:\EAC Rips\Sandro Roy - Souvenir de Paris (2018) [FLAC]\08 - Sandro Roy & Jermaine Landsberger Trio feat. Paulo Morello - Une histoire simple.wav
Peak level 99.9 % Extraction speed 5.2 X Track quality 100.0 % Test CRC 4A85B473 Copy CRC 4A85B473 Accurately ripped (confidence 1) [DAA6F0CA] (AR v2) Copy OK
Track 9
Filename C:\EAC Rips\Sandro Roy - Souvenir de Paris (2018) [FLAC]\09 - Sandro Roy feat. Marcel Loeffler - Tendre rêve.wav
Peak level 99.4 % Extraction speed 5.1 X Track quality 100.0 % Test CRC 3DFE8D69 Copy CRC 3DFE8D69 Accurately ripped (confidence 1) [005865DD] (AR v2) Copy OK
Track 10
Filename C:\EAC Rips\Sandro Roy - Souvenir de Paris (2018) [FLAC]\10 - Sandro Roy & Jermaine Landsberger Trio - Wendy.wav
Peak level 99.9 % Extraction speed 5.7 X Track quality 100.0 % Test CRC CDE139A2 Copy CRC CDE139A2 Accurately ripped (confidence 1) [8E8EA770] (AR v2) Copy OK
Track 11
Filename C:\EAC Rips\Sandro Roy - Souvenir de Paris (2018) [FLAC]\11 - Sandro Roy & Jermaine Landsberger Trio feat. Roby Lakatos - Gipsylogy.wav
Peak level 99.9 % Extraction speed 5.5 X Track quality 100.0 % Test CRC 5ABC1FCC Copy CRC 5ABC1FCC Accurately ripped (confidence 1) [B1417896] (AR v2) Copy OK
Track 12
Filename C:\EAC Rips\Sandro Roy - Souvenir de Paris (2018) [FLAC]\12 - Sandro Roy & Jermaine Landsberger Trio - Sambroy.wav
Peak level 99.9 % Extraction speed 5.8 X Track quality 100.0 % Test CRC A6B4BD39 Copy CRC A6B4BD39 Accurately ripped (confidence 1) [67F06F36] (AR v2) Copy OK
Track 13
Filename C:\EAC Rips\Sandro Roy - Souvenir de Paris (2018) [FLAC]\13 - Sandro Roy & Jermaine Landsberger Trio - With a Song in My Heart.wav
Peak level 99.9 % Extraction speed 6.2 X Track quality 100.0 % Test CRC 4C32CBA8 Copy CRC 4C32CBA8 Accurately ripped (confidence 1) [25DA59BD] (AR v2) Copy OK
All tracks accurately ripped
No errors occurred
End of status report
---- CUETools DB Plugin V2.1.6
[CTDB TOCID: 7ZeW80LM9NbmsgcDLYofShFfu.I-] foundSubmit result: already submittedTrack | CTDB Status 1 | (3/3) Accurately ripped 2 | (3/3) Accurately ripped 3 | (3/3) Accurately ripped 4 | (3/3) Accurately ripped 5 | (3/3) Accurately ripped 6 | (3/3) Accurately ripped 7 | (3/3) Accurately ripped 8 | (3/3) Accurately ripped 9 | (3/3) Accurately ripped 10 | (3/3) Accurately ripped 11 | (3/3) Accurately ripped 12 | (3/3) Accurately ripped 13 | (3/3) Accurately ripped
==== Log checksum 21D1B976919C520F7275897D9F1891CC5CB377E520123B6567665343DEA58C99 ====

Содержание индексной карты (.CUE)

REM GENRE JazzREM DATE 2018REM DISCID 9F11210DREM COMMENT "ExactAudioCopy v1.3"PERFORMER "Sandro Roy"TITLE "Souvenir de Paris"FILE "01 - Let's Face the Music and Dance.wav" WAVE  TRACK 01 AUDIO    TITLE "Let's Face the Music and Dance"    PERFORMER "Sandro Roy"    ISRC DES291700021    INDEX 01 00:00:00FILE "02 - Souvenir de Paris.wav" WAVE  TRACK 02 AUDIO    TITLE "Souvenir de Paris"    PERFORMER "Sandro Roy"    ISRC DES291700022    INDEX 01 00:00:00FILE "03 - Waltz for Nicky.wav" WAVE  TRACK 03 AUDIO    TITLE "Waltz for Nicky"    PERFORMER "Sandro Roy"    ISRC DES291700023    INDEX 01 00:00:00FILE "04 - September Second.wav" WAVE  TRACK 04 AUDIO    TITLE "September Second"    PERFORMER "Sandro Roy"    ISRC DES291700024    INDEX 01 00:00:00FILE "05 - Paris Violon.wav" WAVE  TRACK 05 AUDIO    TITLE "Paris Violon"    PERFORMER "Sandro Roy"    ISRC DES291700025    INDEX 01 00:00:00FILE "06 - Post Phrasing.wav" WAVE  TRACK 06 AUDIO    TITLE "Post Phrasing"    PERFORMER "Sandro Roy"    ISRC DES291700026    INDEX 01 00:00:00FILE "07 - Dolphin Dance.wav" WAVE  TRACK 07 AUDIO    TITLE "Dolphin Dance"    PERFORMER "Sandro Roy"    ISRC DES291700027    INDEX 01 00:00:00FILE "08 - Une histoire simple.wav" WAVE  TRACK 08 AUDIO    TITLE "Une histoire simple"    PERFORMER "Sandro Roy"    ISRC DES291700028    INDEX 01 00:00:00FILE "09 - Tendre reve.wav" WAVE  TRACK 09 AUDIO    TITLE "Tendre reve"    PERFORMER "Sandro Roy"    ISRC DES291700029    INDEX 01 00:00:00FILE "10 - Wendy.wav" WAVE  TRACK 10 AUDIO    TITLE "Wendy"    PERFORMER "Sandro Roy"    ISRC DES291700030    INDEX 01 00:00:00FILE "11 - Gipsylogy.wav" WAVE  TRACK 11 AUDIO    TITLE "Gipsylogy"    PERFORMER "Sandro Roy"    ISRC DES291700031    INDEX 01 00:00:00FILE "12 - Sambroy.wav" WAVE  TRACK 12 AUDIO    TITLE "Sambroy"    PERFORMER "Sandro Roy"    ISRC DES291700032    INDEX 01 00:00:00FILE "13 - With a Song in My Heart.wav" WAVE  TRACK 13 AUDIO    TITLE "With a Song in My Heart"    PERFORMER "Sandro Roy"    ISRC DES291700033    INDEX 01 00:00:00

Отчет CUETools

[CUETools log; Date: 24.10.2018 19:43:09; Version: 2.1.5][CTDB TOCID: 7ZeW80LM9NbmsgcDLYofShFfu.I-] found.Track | CTDB Status  1   | (6/6) Accurately ripped  2   | (6/6) Accurately ripped  3   | (6/6) Accurately ripped  4   | (6/6) Accurately ripped  5   | (6/6) Accurately ripped  6   | (6/6) Accurately ripped  7   | (6/6) Accurately ripped  8   | (6/6) Accurately ripped  9   | (6/6) Accurately ripped 10   | (6/6) Accurately ripped 11   | (6/6) Accurately ripped 12   | (6/6) Accurately ripped 13   | (6/6) Accurately ripped[AccurateRip ID: 00227ab7-015c91ff-9f11210d] found.Track   [  CRC   |   V2   ] Status 01     [a14fb5b3|9d285298] (0+1/1) Accurately ripped 02     [72b1c9bd|b4baa835] (0+1/1) Accurately ripped 03     [b3b57c19|45a46e1c] (0+1/1) Accurately ripped 04     [a36677fd|c9289873] (0+1/1) Accurately ripped 05     [e1f67471|8a99c551] (0+1/1) Accurately ripped 06     [d4fb135f|a870a248] (0+1/1) Accurately ripped 07     [d8eb3de3|a9fe539a] (0+1/1) Accurately ripped 08     [62f860fd|daa6f0ca] (0+1/1) Accurately ripped 09     [49eea9bb|005865dd] (0+1/1) Accurately ripped 10     [9f5de805|8e8ea770] (0+1/1) Accurately ripped 11     [e14f4783|b1417896] (0+1/1) Accurately ripped 12     [994f0165|67f06f36] (0+1/1) Accurately ripped 13     [0614d009|25da59bd] (0+1/1) Accurately ripped
Track Peak [ CRC32 ] [W/O NULL] [ LOG ] -- 100,0 [FA5F70FA] [9172CF94] 01 99,8 [CB94E176] [106A83C3] CRC32 02 75,6 [3F156DEC] [BBCCFB17] CRC32 03 100,0 [59CFF102] [C075D046] CRC32 04 100,0 [F779F170] [E48DD909] CRC32 05 99,2 [C1602589] [ACBC7947] CRC32 06 99,9 [BAF99BE8] [ADD0A560] CRC32 07 99,9 [1824437A] [F5859B62] CRC32 08 99,9 [4A85B473] [A9FD093D] CRC32 09 99,4 [3DFE8D69] [9E3D7BD8] CRC32 10 99,9 [CDE139A2] [FF056724] CRC32 11 99,9 [5ABC1FCC] [83FF2C65] CRC32 12 99,9 [A6B4BD39] [AC421D65] CRC32 13 99,9 [4C32CBA8] [74E7A1F2] CRC32

Об альбоме (сборнике)

The print media wasted no time upon release of his debut album, “Where I Come From”. The German news weekly Der Spiegel: “Fabulous start for a mega-talent.” NEUE MUSIKZEITUNG, a trade magazine for the music biz, voted it Debut of the Month, and “Münchner Konzertgesellschaft”, a non-profit association famed for promoting classical music and now Jazz as well, awarded him its Jazz Incentive Prize. Numerous appearances, for instance at the Rheingau Musik Festival or at ‘hot’ Jazz clubs throughout Germany, had audiences thundering for more.
Two years later this young violinist is now returning with a project devoted to France as its thematic focus: amazingly mature and conceptually coherent in the choice of content, yet sparkling with facets that surprise again and again. “Souvenir De Paris”, the title track, one of his own compositions and a very poetic dedication to the city that, in his opinion, “has inspired so many musicians,” readily demonstrates that the lyrical tone of this young man from a small city in southern Germany has ripened to global sophistication. It seems only natural that the great French musicians and composers such as Michel Legrand, Babik Reinhardt and Stephane Grappelli have inspired him. Yet interestingly enough, it’s the younger Jazz generation that spurs him on to thrillingly new interpretations, musicians like Michel Petrucciani and Richard Galliano.
For this album he chose the members of the Jermaine Landsberger Trio as accompanists. Landsberger, who like Roy stems from a Sinti family, supports the violin player with a number of arrangements and distinguishes himself via solo work on the piano as the perfect counterpart to Sandro Roy’s playing. Very special highlights are set by two more guest artists with established ‘names’ in French-speaking regions: Marcel Loeffler, a blind accordion-player who can be heard together with Sandro Roy as a duo on the French classics “Tendre Reve” and “Paris Violon”, and together with the trio on the Richard Galliano composition entitled “Waltz For Nicky”. Such tracks are followed by breathtaking moments playing with Roby Lakatos, a highly esteemed violinist in classical circles, where dizzyingly divine dialogs arise on Irving Berlin’s “Let’s Face The Music And Dance” and “Gipsylogy”.
“Souvenir De Paris” underscores Sandro Roy’s rare gift for picking and choosing from sources in classical music and Jazz in a remarkable way, for allowing his music to become a stand-alone cosmos marked by virtuoso performance, and all that on what may very well be the most difficult instrument of all, the violin.

If you like the topic, please click share to help develop our site.

To download the file disable ad blocking, and reload the page.

disable adblock How to disable ad blocking?

Download by magnet link 445 MB Download Torrent

Login using:

Similar topics



   
Current time is: 24-Mar 16:00 :: All times are UTC + 3