Nazareth / 'Snaz (2006 Japan remaster AIRAC 1274/75)
Жанр: hard rock
Носитель: 2CD
Страна-производитель диска (релиза): Japan
Год издания: 1981
Издатель (лейбл): Archive
Номер по каталогу: AIRAC 1274/75
Страна исполнителя (группы): UK
Аудиокодек: FLAC (*.flac)
Тип рипа: image+.cue
Битрейт аудио: lossless
Продолжительность: 95:15
Источник (релизер): own cd
Наличие сканов в содержимом раздачи: да
Треклист:

CD1 49:00

1-3 Telegram 6:33
1. «Pt 1 On Your Way» Agnew, Charlton, McCafferty, Sweet
2. «Pt 2 So You Want to Be a Rock 'n' Roll Star» Chris Hillman, Roger McGuinn
3. «Pt 3 Sound Check» Agnew, Charlton, McCafferty, Sweet
4. «Razamanaz» 4:23 Manny Charlton, Dan McCafferty, Pete Agnew, Darrell Sweet
5. «I Want to (Do Everything for You)» Joe Tex 5:16
6. «This Flight Tonight» Joni Mitchell 3:46
7. «Beggars Day» Nils Lofgren 3:37
8. «Every Young Man's Dream» Sweet 3:54
9. «Heart's Grown Cold» Zal Cleminson 5:51
10. «Java Blues» Emmett Grogan, Rick Danko 5:06
11. «Cocaine» J.J. Cale 5:04
12. «Big Boy» Cleminson 5:19

Лог создания рипа

X Lossless Decoder version 20160920 (149.2)
XLD extraction logfile from 2018-10-24 14:25:55 +0300
Nazareth / Snaz [Disc 1]
Used drive : OPTIARC DVD RW AD-5630A (revision 2CH9)Media type : Pressed CD
Ripper mode : XLD Secure RipperDisable audio cache : OK for the drive with a cache less than 1375KiBMake use of C2 pointers : NORead offset correction : 48Max retry count : 20Gap status : Analyzed, Appended
TOC of the extracted CD Track | Start | Length | Start sector | End sector --------------------------------------------------------- 1 | 00:00:00 | 03:19:32 | 0 | 14956 2 | 03:19:32 | 00:25:64 | 14957 | 16895 3 | 03:45:21 | 02:47:28 | 16896 | 29448 4 | 06:32:49 | 04:23:40 | 29449 | 49213 5 | 10:56:14 | 05:16:25 | 49214 | 72938 6 | 16:12:39 | 03:46:17 | 72939 | 89905 7 | 19:58:56 | 03:40:70 | 89906 | 106475 8 | 23:39:51 | 03:50:30 | 106476 | 123755 9 | 27:30:06 | 05:51:65 | 123756 | 150145 10 | 33:21:71 | 05:06:36 | 150146 | 173131 11 | 38:28:32 | 05:04:08 | 173132 | 195939 12 | 43:32:40 | 05:14:27 | 195940 | 219516
AccurateRip Summary (DiscID: 0012f4d8-00b872a2-780b6e0c) Track 01 : OK (v1, confidence 1/2) Track 02 : OK (v1, confidence 1/2) Track 03 : OK (v1, confidence 1/2) Track 04 : OK (v1, confidence 1/2) Track 05 : OK (v1, confidence 1/2) Track 06 : OK (v1, confidence 1/2) Track 07 : OK (v1, confidence 1/2) Track 08 : OK (v1, confidence 1/2) Track 09 : OK (v1, confidence 1/2) Track 10 : OK (v1, confidence 1/2) Track 11 : OK (v1, confidence 1/2) Track 12 : OK (v1, confidence 1/2) ->All tracks accurately ripped.
All Tracks Filename : /Users/dima/Documents/Snaz [Disc 1].flac Album gain : -6.81 dB Peak : 0.966766 CRC32 hash (test run) : C646CC87 CRC32 hash : C646CC87 CRC32 hash (skip zero) : D7FA9CBA Statistics Read error : 0 Jitter error (maybe fixed) : 0 Retry sector count : 0 Damaged sector count : 0
Track 01 Pre-gap length : 00:02:00
Track gain : -6.54 dB Peak : 0.966461 CRC32 hash (test run) : 4CB85100 CRC32 hash : 4CB85100 CRC32 hash (skip zero) : A26F5792 AccurateRip v1 signature : 76B06B87 AccurateRip v2 signature : AD280760 ->Accurately ripped (v1, confidence 1/2) Statistics Read error : 0 Jitter error (maybe fixed) : 0 Retry sector count : 0 Damaged sector count : 0
Track 02
Track gain : -6.60 dB Peak : 0.936096 CRC32 hash (test run) : 5C9E919B CRC32 hash : 5C9E919B CRC32 hash (skip zero) : 8652F720 AccurateRip v1 signature : 348AA17D AccurateRip v2 signature : 975F310E ->Accurately ripped (v1, confidence 1/2) Statistics Read error : 0 Jitter error (maybe fixed) : 0 Retry sector count : 0 Damaged sector count : 0
Track 03
Track gain : -7.07 dB Peak : 0.966431 CRC32 hash (test run) : DED3CA89 CRC32 hash : DED3CA89 CRC32 hash (skip zero) : 6267F954 AccurateRip v1 signature : DEFB16BF AccurateRip v2 signature : C74AC7C2 ->Accurately ripped (v1, confidence 1/2) Statistics Read error : 0 Jitter error (maybe fixed) : 0 Retry sector count : 0 Damaged sector count : 0
Track 04
Track gain : -7.43 dB Peak : 0.966492 CRC32 hash (test run) : F10FD1FB CRC32 hash : F10FD1FB CRC32 hash (skip zero) : 85076BE4 AccurateRip v1 signature : C09F49D4 AccurateRip v2 signature : 6EFA8166 ->Accurately ripped (v1, confidence 1/2) Statistics Read error : 0 Jitter error (maybe fixed) : 0 Retry sector count : 0 Damaged sector count : 0
Track 05
Track gain : -6.61 dB Peak : 0.966461 CRC32 hash (test run) : 66A83A38 CRC32 hash : 66A83A38 CRC32 hash (skip zero) : 047F9F68 AccurateRip v1 signature : F208AD5C AccurateRip v2 signature : A162D6DD ->Accurately ripped (v1, confidence 1/2) Statistics Read error : 0 Jitter error (maybe fixed) : 0 Retry sector count : 0 Damaged sector count : 0
Track 06
Track gain : -6.59 dB Peak : 0.966095 CRC32 hash (test run) : 1FA26E43 CRC32 hash : 1FA26E43 CRC32 hash (skip zero) : CAA90D8E AccurateRip v1 signature : A1517046 AccurateRip v2 signature : 3B7FA3A8 ->Accurately ripped (v1, confidence 1/2) Statistics Read error : 0 Jitter error (maybe fixed) : 0 Retry sector count : 0 Damaged sector count : 0
Track 07
Track gain : -6.35 dB Peak : 0.966034 CRC32 hash (test run) : 0DAB5DAC CRC32 hash : 0DAB5DAC CRC32 hash (skip zero) : 43EBB0A6 AccurateRip v1 signature : A2C19599 AccurateRip v2 signature : 0790F934 ->Accurately ripped (v1, confidence 1/2) Statistics Read error : 0 Jitter error (maybe fixed) : 0 Retry sector count : 0 Damaged sector count : 0
Track 08
Track gain : -6.30 dB Peak : 0.966492 CRC32 hash (test run) : 93BA2B95 CRC32 hash : 93BA2B95 CRC32 hash (skip zero) : EF358EE1 AccurateRip v1 signature : 197618C8 AccurateRip v2 signature : FED6A7E9 ->Accurately ripped (v1, confidence 1/2) Statistics Read error : 0 Jitter error (maybe fixed) : 0 Retry sector count : 0 Damaged sector count : 0
Track 09
Track gain : -5.58 dB Peak : 0.966492 CRC32 hash (test run) : A97F13D5 CRC32 hash : A97F13D5 CRC32 hash (skip zero) : 6DE1809F AccurateRip v1 signature : BDE80E24 AccurateRip v2 signature : 3F385C3F ->Accurately ripped (v1, confidence 1/2) Statistics Read error : 0 Jitter error (maybe fixed) : 0 Retry sector count : 0 Damaged sector count : 0
Track 10
Track gain : -6.92 dB Peak : 0.966522 CRC32 hash (test run) : 62398550 CRC32 hash : 62398550 CRC32 hash (skip zero) : 84E166B8 AccurateRip v1 signature : AE8BDA6F AccurateRip v2 signature : AB44221C ->Accurately ripped (v1, confidence 1/2) Statistics Read error : 0 Jitter error (maybe fixed) : 0 Retry sector count : 0 Damaged sector count : 0
Track 11
Track gain : -6.68 dB Peak : 0.966766 CRC32 hash (test run) : 77C40478 CRC32 hash : 77C40478 CRC32 hash (skip zero) : F895A712 AccurateRip v1 signature : B18D4567 AccurateRip v2 signature : D3EF42AE ->Accurately ripped (v1, confidence 1/2) Statistics Read error : 0 Jitter error (maybe fixed) : 0 Retry sector count : 0 Damaged sector count : 0
Track 12
Track gain : -7.55 dB Peak : 0.966553 CRC32 hash (test run) : 66964AA3 CRC32 hash : 66964AA3 CRC32 hash (skip zero) : E2EB9319 AccurateRip v1 signature : 8CF86C74 AccurateRip v2 signature : D10361A7 ->Accurately ripped (v1, confidence 1/2) Statistics Read error : 0 Jitter error (maybe fixed) : 0 Retry sector count : 0 Damaged sector count : 0
No errors occurred
End of status report

Содержание индексной карты (.CUE)

TITLE "Snaz [Disc 1]"PERFORMER "Nazareth"REM GENRE "Rock"REM DATE "1981"REM DISCNUMBER 1REM TOTALDISCS 2REM DISCID 780B6E0CREM REPLAYGAIN_ALBUM_GAIN -6.81 dBREM REPLAYGAIN_ALBUM_PEAK 0.966766FILE "Snaz [Disc 1].flac" WAVE  TRACK 01 AUDIO    TITLE "Telegram : Part 1 - On Your Way"    ISRC GBCBR0402383    REM REPLAYGAIN_TRACK_GAIN -6.54 dB    REM REPLAYGAIN_TRACK_PEAK 0.966461    INDEX 01 00:00:00  TRACK 02 AUDIO    TITLE "Part 2 - So You Wanna Be A Rock 'n' Roll Star"    ISRC GBCBR0402383    REM REPLAYGAIN_TRACK_GAIN -6.60 dB    REM REPLAYGAIN_TRACK_PEAK 0.936096    INDEX 01 03:19:32  TRACK 03 AUDIO    TITLE "Part 3 - Sound Check"    ISRC GBCBR0402383    REM REPLAYGAIN_TRACK_GAIN -7.07 dB    REM REPLAYGAIN_TRACK_PEAK 0.966431    INDEX 01 03:45:21  TRACK 04 AUDIO    TITLE "Razamanaz"    ISRC GBCBR0402384    REM REPLAYGAIN_TRACK_GAIN -7.43 dB    REM REPLAYGAIN_TRACK_PEAK 0.966492    INDEX 01 06:32:49  TRACK 05 AUDIO    TITLE "I Want To Do Everthing For You"    ISRC GBCBR0402385    REM REPLAYGAIN_TRACK_GAIN -6.61 dB    REM REPLAYGAIN_TRACK_PEAK 0.966461    INDEX 01 10:56:14  TRACK 06 AUDIO    TITLE "This Flight Tonight"    ISRC GBCBR0402386    REM REPLAYGAIN_TRACK_GAIN -6.59 dB    REM REPLAYGAIN_TRACK_PEAK 0.966095    INDEX 01 16:12:39  TRACK 07 AUDIO    TITLE "Beggar's Day"    ISRC GBCBR0402387    REM REPLAYGAIN_TRACK_GAIN -6.35 dB    REM REPLAYGAIN_TRACK_PEAK 0.966034    INDEX 01 19:58:56  TRACK 08 AUDIO    TITLE "Every Young Man's Dream"    ISRC GBCBR0402388    REM REPLAYGAIN_TRACK_GAIN -6.30 dB    REM REPLAYGAIN_TRACK_PEAK 0.966492    INDEX 01 23:39:51  TRACK 09 AUDIO    TITLE "Heart's Grown Cold"    ISRC GBCBR0402389    REM REPLAYGAIN_TRACK_GAIN -5.58 dB    REM REPLAYGAIN_TRACK_PEAK 0.966492    INDEX 01 27:30:06  TRACK 10 AUDIO    TITLE "Java Blues"    ISRC GBCBR0402390    REM REPLAYGAIN_TRACK_GAIN -6.92 dB    REM REPLAYGAIN_TRACK_PEAK 0.966522    INDEX 01 33:21:71  TRACK 11 AUDIO    TITLE "Cocaine"    ISRC GBCBR0402391    REM REPLAYGAIN_TRACK_GAIN -6.68 dB    REM REPLAYGAIN_TRACK_PEAK 0.966766    INDEX 01 38:28:32  TRACK 12 AUDIO    TITLE "Big Boy"    ISRC GBCBR0402392    REM REPLAYGAIN_TRACK_GAIN -7.55 dB    REM REPLAYGAIN_TRACK_PEAK 0.966553    INDEX 01 43:32:40

CD2 47:00

1. «Holiday» 3:40 Manny Charlton, Dan McCafferty, Pete Agnew, Darrell Sweet
2. «Dressed to Kill» 3:55 Manny Charlton, Dan McCafferty, Pete Agnew, Darrell Sweet
3. «Hair Of The Dog» 6:07 Manny Charlton, Dan McCafferty, Pete Agnew, Darrell Sweet
4. «Expect No Mercy» 4:37 Manny Charlton, Dan McCafferty, Pete Agnew, Darrell Sweet
5. «Shapes of Things» Jim McCarty, Keith Relf, Paul Samwell-Smith 4:31
6. «Let Me Be Your Leader» Charlton 6:22
7. «Love Hurts» Boudleaux Bryant 4:44
8. «Tush» Frank Beard, Billy Gibbons, Dusty Hill 3:59
9. «Juicy Lucy (Studio Track)» 4:17 Manny Charlton, Dan McCafferty, Pete Agnew, Darrell Sweet
10. «Morning Dew (1981 Studio Version)» Bonnie Dobson, Tim Rose 3:55
songs Manny Charlton, Dan McCafferty, Pete Agnew, Darrell Sweet

Лог создания рипа

X Lossless Decoder version 20160920 (149.2)
XLD extraction logfile from 2018-10-24 14:49:06 +0300
Nazareth / Snaz [Disc 2]
Used drive : OPTIARC DVD RW AD-5630A (revision 2CH9)Media type : Pressed CD
Ripper mode : XLD Secure RipperDisable audio cache : OK for the drive with a cache less than 1375KiBMake use of C2 pointers : NORead offset correction : 48Max retry count : 20Gap status : Analyzed, Appended
TOC of the extracted CD Track | Start | Length | Start sector | End sector --------------------------------------------------------- 1 | 00:00:00 | 03:38:71 | 0 | 16420 2 | 03:38:71 | 03:55:19 | 16421 | 34064 3 | 07:34:15 | 06:07:07 | 34065 | 61596 4 | 13:41:22 | 04:31:09 | 61597 | 81930 5 | 18:12:31 | 06:22:30 | 81931 | 110610 6 | 24:34:61 | 04:44:61 | 110611 | 131971 7 | 29:19:47 | 03:59:72 | 131972 | 149968 8 | 33:19:44 | 04:59:31 | 149969 | 172424 9 | 38:19:00 | 04:16:45 | 172425 | 191669 10 | 42:35:45 | 03:58:57 | 191670 | 209576
AccurateRip Summary (DiscID: 0011b42e-008eb3ef-6d0aea0a) Track 01 : OK (v1, confidence 1/2) Track 02 : OK (v1, confidence 1/2) Track 03 : OK (v1, confidence 1/2) Track 04 : OK (v1, confidence 1/2) Track 05 : OK (v1, confidence 1/2) Track 06 : OK (v1, confidence 1/2) Track 07 : OK (v1, confidence 1/2) Track 08 : OK (v1, confidence 1/2) Track 09 : OK (v1, confidence 1/2) Track 10 : OK (v1, confidence 1/2) ->All tracks accurately ripped.
All Tracks Filename : /Users/dima/Documents/Snaz [Disc 2].flac Album gain : -6.65 dB Peak : 0.966675 CRC32 hash (test run) : 92571C4E CRC32 hash : 92571C4E CRC32 hash (skip zero) : E951F7B1 Statistics Read error : 0 Jitter error (maybe fixed) : 0 Retry sector count : 0 Damaged sector count : 0
Track 01 Pre-gap length : 00:02:00
Track gain : -7.45 dB Peak : 0.966492 CRC32 hash (test run) : AE9CFE08 CRC32 hash : AE9CFE08 CRC32 hash (skip zero) : 8F14FF54 AccurateRip v1 signature : 9E9D7190 AccurateRip v2 signature : 7B316648 ->Accurately ripped (v1, confidence 1/2) Statistics Read error : 0 Jitter error (maybe fixed) : 0 Retry sector count : 0 Damaged sector count : 0
Track 02
Track gain : -6.57 dB Peak : 0.966522 CRC32 hash (test run) : 974521F4 CRC32 hash : 974521F4 CRC32 hash (skip zero) : 5B98F12B AccurateRip v1 signature : 71EF2CF9 AccurateRip v2 signature : BCAE0620 ->Accurately ripped (v1, confidence 1/2) Statistics Read error : 0 Jitter error (maybe fixed) : 0 Retry sector count : 0 Damaged sector count : 0
Track 03
Track gain : -6.87 dB Peak : 0.966553 CRC32 hash (test run) : 8EC1697C CRC32 hash : 8EC1697C CRC32 hash (skip zero) : 73FE1FA3 AccurateRip v1 signature : A1826301 AccurateRip v2 signature : 1301540A ->Accurately ripped (v1, confidence 1/2) Statistics Read error : 0 Jitter error (maybe fixed) : 0 Retry sector count : 0 Damaged sector count : 0
Track 04
Track gain : -6.80 dB Peak : 0.966675 CRC32 hash (test run) : 07E21716 CRC32 hash : 07E21716 CRC32 hash (skip zero) : B06E56E8 AccurateRip v1 signature : B6D103CE AccurateRip v2 signature : 1278DF45 ->Accurately ripped (v1, confidence 1/2) Statistics Read error : 0 Jitter error (maybe fixed) : 0 Retry sector count : 0 Damaged sector count : 0
Track 05
Track gain : -6.57 dB Peak : 0.966583 CRC32 hash (test run) : 32E66E17 CRC32 hash : 32E66E17 CRC32 hash (skip zero) : 8A5B1CD1 AccurateRip v1 signature : 3C3478F2 AccurateRip v2 signature : 60DE2AF5 ->Accurately ripped (v1, confidence 1/2) Statistics Read error : 0 Jitter error (maybe fixed) : 0 Retry sector count : 0 Damaged sector count : 0
Track 06
Track gain : -6.28 dB Peak : 0.966400 CRC32 hash (test run) : 838D926B CRC32 hash : 838D926B CRC32 hash (skip zero) : 6F3CF729 AccurateRip v1 signature : 96B113B1 AccurateRip v2 signature : 915DBCAB ->Accurately ripped (v1, confidence 1/2) Statistics Read error : 0 Jitter error (maybe fixed) : 0 Retry sector count : 0 Damaged sector count : 0
Track 07
Track gain : -6.36 dB Peak : 0.966522 CRC32 hash (test run) : D32856DA CRC32 hash : D32856DA CRC32 hash (skip zero) : 343EA991 AccurateRip v1 signature : 7678286E AccurateRip v2 signature : 3AFE09BB ->Accurately ripped (v1, confidence 1/2) Statistics Read error : 0 Jitter error (maybe fixed) : 0 Retry sector count : 0 Damaged sector count : 0
Track 08
Track gain : -6.74 dB Peak : 0.966461 CRC32 hash (test run) : 684C0FA4 CRC32 hash : 684C0FA4 CRC32 hash (skip zero) : 424C2DA9 AccurateRip v1 signature : C0A2A8C9 AccurateRip v2 signature : 7FF5FC51 ->Accurately ripped (v1, confidence 1/2) Statistics Read error : 0 Jitter error (maybe fixed) : 0 Retry sector count : 0 Damaged sector count : 0
Track 09 Pre-gap length : 00:05:01
Track gain : -4.97 dB Peak : 0.966583 CRC32 hash (test run) : 260612E5 CRC32 hash : 260612E5 CRC32 hash (skip zero) : 873212D7 AccurateRip v1 signature : 1726B66A AccurateRip v2 signature : F04AD816 ->Accurately ripped (v1, confidence 1/2) Statistics Read error : 0 Jitter error (maybe fixed) : 0 Retry sector count : 0 Damaged sector count : 0
Track 10
Track gain : -4.91 dB Peak : 0.966248 CRC32 hash (test run) : 7CA383F8 CRC32 hash : 7CA383F8 CRC32 hash (skip zero) : C0B2AD2F AccurateRip v1 signature : CF99B10F AccurateRip v2 signature : F09161C1 ->Accurately ripped (v1, confidence 1/2) Statistics Read error : 0 Jitter error (maybe fixed) : 0 Retry sector count : 0 Damaged sector count : 0
No errors occurred
End of status report

Содержание индексной карты (.CUE)

TITLE "Snaz [Disc 2]"PERFORMER "Nazareth"REM GENRE "Rock"REM DATE "1981"REM DISCNUMBER 2REM TOTALDISCS 2REM DISCID 6D0AEA0AREM REPLAYGAIN_ALBUM_GAIN -6.65 dBREM REPLAYGAIN_ALBUM_PEAK 0.966675FILE "Snaz [Disc 2].flac" WAVE  TRACK 01 AUDIO    TITLE "Holiday"    ISRC GBCBR0402393    REM REPLAYGAIN_TRACK_GAIN -7.45 dB    REM REPLAYGAIN_TRACK_PEAK 0.966492    INDEX 01 00:00:00  TRACK 02 AUDIO    TITLE "Dressed To Kill"    ISRC GBCBR0402394    REM REPLAYGAIN_TRACK_GAIN -6.57 dB    REM REPLAYGAIN_TRACK_PEAK 0.966522    INDEX 01 03:38:71  TRACK 03 AUDIO    TITLE "Hair Of The Dog"    ISRC GBCBR0402395    REM REPLAYGAIN_TRACK_GAIN -6.87 dB    REM REPLAYGAIN_TRACK_PEAK 0.966553    INDEX 01 07:34:15  TRACK 04 AUDIO    TITLE "Expect No Mercy"    ISRC GBCBR0402396    REM REPLAYGAIN_TRACK_GAIN -6.80 dB    REM REPLAYGAIN_TRACK_PEAK 0.966675    INDEX 01 13:41:22  TRACK 05 AUDIO    TITLE "Shapes Of Things"    ISRC GBCBR0402397    REM REPLAYGAIN_TRACK_GAIN -6.57 dB    REM REPLAYGAIN_TRACK_PEAK 0.966583    INDEX 01 18:12:31  TRACK 06 AUDIO    TITLE "Let Me Be Your Leader"    ISRC GBCBR0402398    REM REPLAYGAIN_TRACK_GAIN -6.28 dB    REM REPLAYGAIN_TRACK_PEAK 0.966400    INDEX 01 24:34:61  TRACK 07 AUDIO    TITLE "Love Hurts"    ISRC GBCBR0402399    REM REPLAYGAIN_TRACK_GAIN -6.36 dB    REM REPLAYGAIN_TRACK_PEAK 0.966522    INDEX 01 29:19:47  TRACK 08 AUDIO    TITLE "Tush"    ISRC GBCBR0402400    REM REPLAYGAIN_TRACK_GAIN -6.74 dB    REM REPLAYGAIN_TRACK_PEAK 0.966461    INDEX 01 33:19:44  TRACK 09 AUDIO    TITLE "Juicy Lucy (Studio Track From Original Snaz Release)"    ISRC GBCBR0402401    REM REPLAYGAIN_TRACK_GAIN -4.97 dB    REM REPLAYGAIN_TRACK_PEAK 0.966583    INDEX 00 38:13:74    INDEX 01 38:19:00  TRACK 10 AUDIO    TITLE "Morning Dew (1981 Studio Version From Original Snaz Release)"    ISRC GBCBR0402402    REM REPLAYGAIN_TRACK_GAIN -4.91 dB    REM REPLAYGAIN_TRACK_PEAK 0.966248    INDEX 01 42:35:45

Об исполнителе (группе)

Nazareth — шотландская рок-группа, созданная в 1968 году

Об альбоме (сборнике)

Snaz — двойной концертный альбом британской группы Nazareth, вышедший в конце 1981 года. Полное название диска — It’s Naz: на лицевой стороне пластинки изображена лишь часть надписи «'SNAZ», что почти всегда ошибочно указывают, как название альбома.
Альбом представляет собой запись концерта в «Пасифик Колизиум» в Ванкувере в мае 1981, состоявшегося в рамках гастрольного тура по Северной Америке. На плёнку было записано ещё несколько концертов того тура, но этот по мнению группы был самым лучшим.
В 2005 году альбом под номером 430 был включён в список 500 величайших рок- и металлических альбомов всех времён журнала Rock Hard

Состав

Dan McCafferty - vocals
Manny Charlton - guitar
Billy Rankin - guitar, backing vocals
John Locke - keyboards
Pete Agnew - bass guitar, backing vocals
Darrell Sweet - drums, backing vocals

If you like the topic, please click share to help develop our site.

To download the file disable ad blocking, and reload the page.

disable adblock How to disable ad blocking?

Download by magnet link 973 MB Download Torrent

Login using:

Similar topics



   
Current time is: 20-May 00:22 :: All times are UTC + 3