Bijou

Sans Pitié





• Жанр: Classic Rock
• Носитель: WEB
• Год издания: 2018
• Издатель: Aztec musique
• Страна: France
• Аудиокодек: FLAC (*.flac)
• Тип рипа: tracks
• Продолжительность: 00:37:49
• Источник (спасибо): NBMus
• WEB релиз: ссылка
• Наличие сканов: front

01 - Danse Avec Moi (00:04:26)
02 - C'Est Un Animal (00:03:06)
03 - (Je Connais) Ton Numero De Telephone (00:02:47)
04 - Quand Un Amour Prend Fin (00:02:50)
05 - Au Nom De L'Amour (00:04:09)
06 - Descente Aux Enferts (00:03:47)
07 - Sans Pitie (00:03:49)
08 - Harley Davidson (00:03:06)
09 - C'Est Encore L'Automne (00:03:27)
10 - Comme Tu Es Belle (00:03:08)
11 - Betty Jane Rose (00:03:12)

-
-

• Замер динамического диапазона •

foobar2000 1.3.9 / Замер динамического диапазона (DR) 1.1.1Дата отчёта:  2018-10-22 15:21:38
--------------------------------------------------------------------------------Анализ: Bijou / Sans Pitié--------------------------------------------------------------------------------
DR Пики RMS Продолжительность трека--------------------------------------------------------------------------------DR10 -0.02 дБ -11.56 дБ 4:26 01-Danse Avec MoiDR12 -0.08 дБ -13.03 дБ 3:06 02-C'Est Un AnimalDR10 0.00 дБ -10.98 дБ 2:48 03-(Je Connais) Ton Numero De TelephoneDR11 -0.09 дБ -12.51 дБ 2:51 04-Quand Un Amour Prend FinDR11 -0.02 дБ -12.20 дБ 4:09 05-Au Nom De L'AmourDR11 0.00 дБ -12.81 дБ 3:47 06-Descente Aux EnfertsDR10 -0.10 дБ -12.28 дБ 3:49 07-Sans PitieDR10 0.00 дБ -11.81 дБ 3:06 08-Harley DavidsonDR10 -0.03 дБ -11.87 дБ 3:27 09-C'Est Encore L'AutomneDR11 -0.12 дБ -12.70 дБ 3:08 10-Comme Tu Es BelleDR10 0.00 дБ -11.48 дБ 3:13 11-Betty Jane Rose--------------------------------------------------------------------------------
Количество треков: 11Реальные значения DR: DR11
Частота: 44100 ГцКаналов: 2Разрядность: 16Битрейт: 897 кбит/сКодек: FLAC================================================================================
-

• Лог проверки качества •

-----------------------
DON'T MODIFY THIS FILE
-----------------------
PERFORMER: auCDtect Task Manager, ver. 1.5.1RC3 build 1.5.1.4Copyright (c) 2008-2010 y-soft. All rights reservedhttp://y-soft.org
ANALYZER: auCDtect: CD records authenticity detector, version 0.8.2Copyright (c) 2004 Oleg Berngardt. All rights reserved.Copyright (c) 2004 Alexander Djourik. All rights reserved.
FILE: Bijou-11.flac Size: 21998023 Hash: 92D9568F78972644515C9C5425F9A6DB Accuracy: -m0 Conclusion: CDDA 100% Signature: 74F0358F96842F255042579AF425BFCA221F5D38FILE: Bijou-10.flac Size: 20831622 Hash: 8510C1C27A8A763E38979FB2D9E17B27 Accuracy: -m0 Conclusion: CDDA 100% Signature: 204A8718CE91DD3FA5129027989BDA99ED11BB97FILE: Bijou-09.flac Size: 22337871 Hash: 32803E7A10BE1E9E40C47B7EAECD2A40 Accuracy: -m0 Conclusion: CDDA 100% Signature: 61DF6F44DCDE41AC730783A754B059648985D3D8FILE: Bijou-08.flac Size: 21166595 Hash: 41451F869D8345AD1F191C84DB411172 Accuracy: -m0 Conclusion: CDDA 100% Signature: 86FBDB65994C82EE05CF2B0B43EEF65184131737FILE: Bijou-07.flac Size: 24296472 Hash: EDE4773651E6DF595F000E9A81BBFBF4 Accuracy: -m0 Conclusion: CDDA 100% Signature: 1B13C2956F916AE26FF964C9A90F2C966B5D101BFILE: Bijou-06.flac Size: 24440885 Hash: BDA20136C77B981ADE3CAC97D0191ACE Accuracy: -m0 Conclusion: CDDA 100% Signature: 8F45B1053557663997666566E8115332C491A2E3FILE: Bijou-05.flac Size: 27240978 Hash: BDDF7B383142E9E75A49AA69FB1580BB Accuracy: -m0 Conclusion: CDDA 99% Signature: FD2344C4D95329385CFC58611F3599C290DFEA42FILE: Bijou-04.flac Size: 18579555 Hash: 0DE6924CE61D8F63DE4A23BC0AF44805 Accuracy: -m0 Conclusion: CDDA 100% Signature: BD4CAFD88AA169CC7F468D3F2D45264CA7442BEEFILE: Bijou-03.flac Size: 18508925 Hash: D386D9C51510F12C3D8B2E85B26BCE50 Accuracy: -m0 Conclusion: CDDA 100% Signature: E0FE2141EA26993461E1E61E636E5076895E30E2FILE: Bijou-02.flac Size: 19791017 Hash: 14A29149B178A6D858C3CA86043CE378 Accuracy: -m0 Conclusion: CDDA 100% Signature: AB51A597C27A9FD00130690A0B2924DC5EF9248CFILE: Bijou-01.flac Size: 30679437 Hash: A81DDE2B66A9A3A15CE1F06DB3A31D7B Accuracy: -m0 Conclusion: CDDA 100% Signature: 68BABB2E914FB4A66F51BF4BD15A4775F60CD8AA
-

If you like the topic, please click share to help develop our site.

To download the file disable ad blocking, and reload the page.

disable adblock How to disable ad blocking?

Download by magnet link 238 MB Download Torrent

Login using:

Similar topics



   
Current time is: 21-Mar 06:17 :: All times are UTC + 3