- Мумии, застывшие во времени / Mummies. Frozen in Time (2018) DVB - Производство: США, National Geographic
Жанр: Документальный, исследование
Режиссер: Дэвид Шадрак Смит
Описание:
В западных степях Китая одна примечательная находка поставила под вопрос существующую теорию происхождения китайской нации. В болотах северной Европы рабочие, занимавшиеся торфоразработками, наткнулись при раскопках на сотни хорошо сохранившихся мумий со следами страшных увечий. Среди них были обнаружены три прекрасно сохранившихся мумии детей, которых очевидно выбрали в качестве жертвоприношения богам, как это делали древние инки. В тропиках умерших родственников подвешивали в пещерах, чтобы у живущих была возможность навещать их и отдавать им почести. Каждая из этих уникальных и захватывающих историй является вехой в путешествии по истории эволюции человечества и напоминает нам о том, что в своей основе мы созданы из плоти и крови.
Релиз от: Zakol
Продолжительность: 00:42:25
Качество видео: DVB
Перевод: Одноголосый закадровый, профессиональный (Велес)
Субтитры: отсутствуют
Видео: MPEG-2, 720х[email protected], ~3250 Kbps
Аудио#1: MP2, 2 ch, 192 Kbps | Русский (текст читал: С.Воронецкий)
Аудио#2: MP2, 2 ch, 192 Kbps | Английский

Mediainfo:

Общее
Идентификатор : 1 (0x1)
Полное имя : F:\КИНО\Мумии, застывшие... DVB (2018).ts
Формат : MPEG-TS
Размер файла : 1,13 Гбайт
Продолжительность : 42 м. 25 с.
Режим общего битрейта : Переменный
Общий поток : 3828 Кбит/сек
Видео
Идентификатор : 274 (0x112)
Идентификатор меню : 25 (0x19)
Формат : MPEG Video
Версия формата : Version 2
Профиль формата : [email protected]
Настройки формата : CustomMatrix
Параметр BVOP формата : Нет
Параметр матрицы формата : Выборочная
Параметр GOP формата : N=33
Структура изображения : Frame
Идентификатор кодека : 2
Продолжительность : 42 м. 25 с.
Вид битрейта : Переменный
Битрейт : 3251 Кбит/сек
Максимальный битрейт : 3300 Кбит/сек
Ширина : 720 пикселей
Высота : 576 пикселей
Соотношение сторон : 16:9
Частота кадров : 25,000 кадров/сек
Стандарт вещания : PAL
Цветовое пространство : YUV
Субдискретизация насыщенности : 4:2:0
Битовая глубина : 8 бит
Тип развёртки : Чересстрочная
Порядок развёртки : Верхнее поле первое
Метод сжатия : С потерями
Бит/(Пиксели*Кадры) : 0.314
Временной код первого кадра : 00:00:00:00
Оригинал временного кода : Group of pictures header
GOP, открыто/закрыто : Закрыто
Размер потока : 986 Мбайт (85%)
Аудио #1
Идентификатор : 275 (0x113)
Идентификатор меню : 25 (0x19)
Формат : MPEG Audio
Версия формата : Version 1
Профиль формата : Layer 2
Идентификатор кодека : 3
Продолжительность : 42 м. 25 с.
Вид битрейта : Постоянный
Битрейт : 192 Кбит/сек
Каналы : 2 канала
Частота : 48,0 КГц
Частота кадров : 41,667 кадра/сек (1152 SPF)
Метод сжатия : С потерями
Задержка видео : 2 мс.
Размер потока : 58,3 Мбайт (5%)
Язык : Russian
Аудио #2
Идентификатор : 276 (0x114)
Идентификатор меню : 25 (0x19)
Формат : MPEG Audio
Версия формата : Version 1
Профиль формата : Layer 2
Идентификатор кодека : 3
Продолжительность : 42 м. 25 с.
Вид битрейта : Постоянный
Битрейт : 192 Кбит/сек
Каналы : 2 канала
Частота : 48,0 КГц
Частота кадров : 41,667 кадра/сек (1152 SPF)
Метод сжатия : С потерями
Задержка видео : 2 мс.
Размер потока : 58,3 Мбайт (5%)
Язык : English
Скриншоты:
Все одноименные релизы в КлубеВремя раздачи: с 18:00 до 23:00 (до появления первых 3-5 скачавших)

If you like the topic, please click share to help develop our site.

To download the file disable ad blocking, and reload the page.

disable adblock How to disable ad blocking?

Download by magnet link 1.13 GB Download Torrent

Login using:

Similar topics



   
Current time is: 20-May 15:32 :: All times are UTC + 3