Kamaal Williams - The Return
Жанр: Jazz-Funk, Contemporary Jazz, Broken Beat
Носитель: CD
Страна-производитель диска (релиза): Великобритания
Год издания: 2018
Издатель (лейбл): Black Focus Records
Номер по каталогу: BFR001CD
Аудиокодек: FLAC (*.flac)
Тип рипа: tracks+.cue
Битрейт аудио: lossless
Продолжительность: 44:28
Источник (релизер): darealdmt
Наличие сканов в содержимом раздачи: нет
Треклист:
01. Salaam (8:33)
02. Broken Theme (4:28)
03. The Return (1:06)
04. High Roller (3:01)
05. Situations (Live in Milan) (3:00)
06. Catch the Loop (6:55)
07. Rhythm Commission (2:35)
08. Medina (6:58)
09. LDN Shuffle (5:30)
10. Aisha (2:22)
Состав:
Kamaal Williams - Fender Rhodes, synths
Joshua McKenzie - drums
Pete Martin - bass
Mansur Brown - guitar (#9)

Лог создания рипа

Exact Audio Copy V1.3 from 2. September 2016
EAC extraction logfile from 4. June 2018, 23:46
Kamaal Williams / The Return
Used drive : HL-DT-STBD-RE GGW-H20L Adapter: 1 ID: 1
Read mode : SecureUtilize accurate stream : YesDefeat audio cache : YesMake use of C2 pointers : No
Read offset correction : 667Overread into Lead-In and Lead-Out : NoFill up missing offset samples with silence : YesDelete leading and trailing silent blocks : NoNull samples used in CRC calculations : YesUsed interface : Native Win32 interface for Win NT & 2000Gap handling : Appended to previous track
Used output format : User Defined EncoderSelected bitrate : 1024 kBit/sQuality : HighAdd ID3 tag : NoCommand line compressor : C:\Program Files (x86)\Exact Audio Copy\Flac\flac.exeAdditional command line options : -8 -V -T "ARTIST=%artist%" -T "TITLE=%title%" -T "ALBUM=%albumtitle%" -T "DATE=%year%" -T "TRACKNUMBER=%tracknr%" -T "TOTALTRACKS=%numtracks%" -T "GENRE=%genre%" -T "ALBUMARTIST=%albumartist%" -T "ALBUM ARTIST=%albumartist%" -T "COMMENT=EAC Secure Mode, Test & Copy, AccurateRip, FLAC -8" %source%
TOC of the extracted CD
Track | Start | Length | Start sector | End sector --------------------------------------------------------- 1 | 0:00.00 | 8:33.31 | 0 | 38505 2 | 8:33.31 | 4:28.22 | 38506 | 58627 3 | 13:01.53 | 1:06.13 | 58628 | 63590 4 | 14:07.66 | 3:01.01 | 63591 | 77166 5 | 17:08.67 | 3:00.00 | 77167 | 90666 6 | 20:08.67 | 6:54.62 | 90667 | 121778 7 | 27:03.54 | 2:34.72 | 121779 | 133400 8 | 29:38.51 | 6:57.73 | 133401 | 164748 9 | 36:36.49 | 5:29.74 | 164749 | 189497 10 | 42:06.48 | 2:22.18 | 189498 | 200165
Track 1
Filename D:\ptp\Kamaal Williams - The Return (2018){Black Focus - BFR001CD}[FLAC]\01 Salaam.wav
Pre-gap length 0:00:02.00
Peak level 97.7 % Extraction speed 5.1 X Track quality 100.0 % Test CRC 40DC107E Copy CRC 40DC107E Track not present in AccurateRip database Copy OK
Track 2
Filename D:\ptp\Kamaal Williams - The Return (2018){Black Focus - BFR001CD}[FLAC]\02 Broken Theme.wav
Peak level 97.7 % Extraction speed 5.5 X Track quality 100.0 % Test CRC C072B5A5 Copy CRC C072B5A5 Track not present in AccurateRip database Copy OK
Track 3
Filename D:\ptp\Kamaal Williams - The Return (2018){Black Focus - BFR001CD}[FLAC]\03 The Return.wav
Pre-gap length 0:00:01.46
Peak level 83.8 % Extraction speed 4.2 X Track quality 100.0 % Test CRC 7A478F2B Copy CRC 7A478F2B Track not present in AccurateRip database Copy OK
Track 4
Filename D:\ptp\Kamaal Williams - The Return (2018){Black Focus - BFR001CD}[FLAC]\04 High Roller.wav
Peak level 97.8 % Extraction speed 5.6 X Track quality 100.0 % Test CRC A02DAF59 Copy CRC A02DAF59 Track not present in AccurateRip database Copy OK
Track 5
Filename D:\ptp\Kamaal Williams - The Return (2018){Black Focus - BFR001CD}[FLAC]\05 Situations (Live In Milan).wav
Pre-gap length 0:00:02.01
Peak level 94.3 % Extraction speed 5.8 X Track quality 100.0 % Test CRC 486EF3C4 Copy CRC 486EF3C4 Track not present in AccurateRip database Copy OK
Track 6
Filename D:\ptp\Kamaal Williams - The Return (2018){Black Focus - BFR001CD}[FLAC]\06 Catch The Loop.wav
Pre-gap length 0:00:01.46
Peak level 97.8 % Extraction speed 6.9 X Track quality 100.0 % Test CRC B7E0908F Copy CRC B7E0908F Track not present in AccurateRip database Copy OK
Track 7
Filename D:\ptp\Kamaal Williams - The Return (2018){Black Focus - BFR001CD}[FLAC]\07 Rhythm Commission.wav
Pre-gap length 0:00:01.52
Peak level 97.8 % Extraction speed 6.1 X Track quality 100.0 % Test CRC F8C34710 Copy CRC F8C34710 Track not present in AccurateRip database Copy OK
Track 8
Filename D:\ptp\Kamaal Williams - The Return (2018){Black Focus - BFR001CD}[FLAC]\08 Medina.wav
Pre-gap length 0:00:02.48
Peak level 97.8 % Extraction speed 6.8 X Track quality 99.9 % Test CRC 2FE2B184 Copy CRC 2FE2B184 Track not present in AccurateRip database Copy OK
Track 9
Filename D:\ptp\Kamaal Williams - The Return (2018){Black Focus - BFR001CD}[FLAC]\09 LDN Shuffle.wav
Pre-gap length 0:00:03.36
Peak level 97.8 % Extraction speed 6.8 X Track quality 99.9 % Test CRC 6D34FED9 Copy CRC 6D34FED9 Track not present in AccurateRip database Copy OK
Track 10
Filename D:\ptp\Kamaal Williams - The Return (2018){Black Focus - BFR001CD}[FLAC]\10 Aisha.wav
Peak level 64.7 % Extraction speed 7.1 X Track quality 100.0 % Test CRC 069E4448 Copy CRC 069E4448 Track not present in AccurateRip database Copy OK
None of the tracks are present in the AccurateRip database
No errors occurred
End of status report
---- CUETools DB Plugin V2.1.6
[CTDB TOCID: cT2anRPqBnz8Vf_eB9UDtDkOqdg-] foundSubmit result: cT2anRPqBnz8Vf_eB9UDtDkOqdg- has been confirmedTrack | CTDB Status 1 | (3/3) Accurately ripped 2 | (3/3) Accurately ripped 3 | (3/3) Accurately ripped 4 | (3/3) Accurately ripped 5 | (3/3) Accurately ripped 6 | (3/3) Accurately ripped 7 | (3/3) Accurately ripped 8 | (3/3) Accurately ripped 9 | (3/3) Accurately ripped 10 | (3/3) Accurately ripped
==== Log checksum 5CF198895D5E4F052456FB578AFB03F4363B1110C5DB3B02E1234B60205052FC ====

Содержание индексной карты (.CUE)

REM GENRE JazzREM DATE 2018REM DISCID 7F0A6C0AREM COMMENT "ExactAudioCopy v1.3"PERFORMER "Kamaal Williams"TITLE "The Return"FILE "01 - Salaam.wav" WAVE  TRACK 01 AUDIO    TITLE "Salaam"    PERFORMER "Kamaal Williams"    INDEX 01 00:00:00FILE "02 - Broken Theme.wav" WAVE  TRACK 02 AUDIO    TITLE "Broken Theme"    PERFORMER "Kamaal Williams"    INDEX 01 00:00:00  TRACK 03 AUDIO    TITLE "The Return"    PERFORMER "Kamaal Williams"    INDEX 00 04:26:51FILE "03 - The Return.wav" WAVE    INDEX 01 00:00:00FILE "04 - High Roller.wav" WAVE  TRACK 04 AUDIO    TITLE "High Roller"    PERFORMER "Kamaal Williams"    INDEX 01 00:00:00  TRACK 05 AUDIO    TITLE "Situations (Live in Milan)"    PERFORMER "Kamaal Williams"    INDEX 00 02:59:00FILE "05 - Situations (Live in Milan).wav" WAVE    INDEX 01 00:00:00  TRACK 06 AUDIO    TITLE "Catch the Loop"    PERFORMER "Kamaal Williams"    INDEX 00 02:58:29FILE "06 - Catch the Loop.wav" WAVE    INDEX 01 00:00:00  TRACK 07 AUDIO    TITLE "Rhythm Commission"    PERFORMER "Kamaal Williams"    INDEX 00 06:53:10FILE "07 - Rhythm Commission.wav" WAVE    INDEX 01 00:00:00  TRACK 08 AUDIO    TITLE "Medina"    PERFORMER "Kamaal Williams"    INDEX 00 02:32:24FILE "08 - Medina.wav" WAVE    INDEX 01 00:00:00  TRACK 09 AUDIO    TITLE "LDN Shuffle"    PERFORMER "Kamaal Williams"    INDEX 00 06:54:37FILE "09 - LDN Shuffle.wav" WAVE    INDEX 01 00:00:00FILE "10 - Aisha.wav" WAVE  TRACK 10 AUDIO    TITLE "Aisha"    PERFORMER "Kamaal Williams"    INDEX 01 00:00:00

Отчет CUETools

[CUETools log; Date: 24.10.2018 21:56:04; Version: 2.1.5][CTDB TOCID: cT2anRPqBnz8Vf_eB9UDtDkOqdg-] found.Track | CTDB Status  1   | (20/20) Accurately ripped  2   | (20/20) Accurately ripped  3   | (20/20) Accurately ripped  4   | (20/20) Accurately ripped  5   | (20/20) Accurately ripped  6   | (20/20) Accurately ripped  7   | (20/20) Accurately ripped  8   | (20/20) Accurately ripped  9   | (20/20) Accurately ripped 10   | (20/20) Accurately ripped[AccurateRip ID: 00115de8-00885b72-7f0a6c0a] found.Track   [  CRC   |   V2   ] Status 01     [737a8713|299e19e1] (0+2/2) Accurately ripped 02     [bb8b88b5|789cba45] (0+3/3) Accurately ripped 03     [a66c1357|b97f5f2d] (0+3/3) Accurately ripped 04     [70063e60|caa9e0e7] (0+3/3) Accurately ripped 05     [4ab57ecf|0e339748] (0+3/3) Accurately ripped 06     [b02e16d8|83e056ef] (0+3/3) Accurately ripped 07     [ba08e0ee|5fb921bd] (0+3/3) Accurately ripped 08     [b38f81c5|809fd6e2] (0+3/3) Accurately ripped 09     [5f2e91dd|102c8f04] (0+3/3) Accurately ripped 10     [ea31baee|0312fd36] (0+3/3) Accurately ripped
Track Peak [ CRC32 ] [W/O NULL] [ LOG ] -- 97,8 [271AF9D1] [963F3554] 01 97,7 [40DC107E] [084517F4] CRC32 02 97,7 [C072B5A5] [D27A184B] CRC32 03 83,8 [7A478F2B] [09B2D751] CRC32 04 97,8 [A02DAF59] [04FAE50D] CRC32 05 94,3 [486EF3C4] [A0E21A3C] CRC32 06 97,8 [B7E0908F] [934CAFDF] CRC32 07 97,8 [F8C34710] [26EFCD97] CRC32 08 97,8 [2FE2B184] [CF487F6C] CRC32 09 97,8 [6D34FED9] [EECADFE5] CRC32 10 64,7 [069E4448] [E788B122] CRC32

Review by Chris May

Cross-pollination of jazz and hip hop has spread fast during the 2010s. In-the-moment creativity and giving-the-drummer-some are powerful synergies. In the US, key players include Kamasi Washington, Thundercat and Christian Scott. In Britain, they include the extended family of musicians associated with reed player Shabaka Hutchings and the Brownswood Recordings label. Some of the British players are featured on the previously reviewed We Out Here (Brownswood, 2018), which is a great snapshot of the scene as it exists in London in spring 2018.
Among Brownswood's alumni are keyboard player Kamaal Williams (aka Henry Wu) and drummer Yussef Dayes. As Yussef Kamaal, the pair debuted with Black Focus (Brownswood, 2016), a thrilling blend of hip hop-derived British musics and the jazz-funk legacies of Herbie Hancock, Weather Report, Lonnie Liston Smith and Roy Ayers. In 2017, the duo were booked to perform at the SXSW festival in Austin, Texas, but at the last moment US homeland security refused to give visas to members of the party. Yussef Kamaal broke up shortly after this.
Happily, Williams and Dayes both remain active, albeit separately. Dayes is prominently featured on Toshio Matsuura Group's previously reviewed Loveplaydance: 8 Scenes From The Floor (Brownswood, 2018) and on Tenderlonious's soon-to-be-released The Shakedown (22a). Williams has resurfaced with the appropriately titled The Return on his fledgling Black Focus label, made with the ferocious rhythm section of drummer MckNasty and bassist Pete Martin. The fourth member of the group is engineer Richard Samuels, whose studio expertise is crucial to the music. Brownswood regular, guitarist Mansur Brown, guests on "LDN Shuffle," tearing off a solo which gives more than a nod to John McLaughlin's work with Mahavishnu Orchestra.
The Return takes up where Black Focus left off, harnessing classic jazz-funk and fusion with hip hop and its British offspring grime, broken beat and drum & bass. Beats are key, and so are great melodies and trippy ambiances. It is jazz, Jim, but only as we have recently got to know it, and it all hangs together beautifully.

If you like the topic, please click share to help develop our site.

To download the file disable ad blocking, and reload the page.

disable adblock How to disable ad blocking?

Download by magnet link 231 MB Download Torrent

Login using:

Similar topics



   
Current time is: 25-Mar 18:56 :: All times are UTC + 3