Lee Konitz & Dan Tepfer - Decade
Жанр: Free Jazz
Носитель: CD
Страна-производитель диска (релиза): EU
Год издания: 2018
Издатель (лейбл): Verve Records
Номер по каталогу: 676 645 8
Аудиокодек: FLAC (*.flac)
Тип рипа: tracks+.cue
Битрейт аудио: lossless
Продолжительность: 46:23
Источник (релизер): lemmy
Наличие сканов в содержимом раздачи: нет
Треклист:
01. Thrill (2:33)
02. 9/11 Suite, Part I (3:49)
03. 9/11 Suite, Part II (2:40)
04. 9/11 Suite, Part III (4:26)
05. Pulsing Green (1:34)
06. Alter Ego (3:11)
07. Through the Tunnel (6:03)
08. Egos Alter (1:08)
09. Rebounds (4:25)
10. A Place We Know (2:16)
11. Pulsing Orange (1:39)
12. Whirlpool (1:59)
13. Ceaseless (2:42)
14. Eager Altos (0:58)
15. Body and Soul (7:00)
Состав:
Lee Konitz - alto saxophone, soprano saxophone, voice
Dan Tepfer - piano
Recorded at Yamaha Artist Services, New York in July 2015 - February 2016, except #6,8,14 recorded at the Konitz residence, Manhattan in September 2010.

Лог создания рипа

X Lossless Decoder version 20181001 (151.0)
XLD extraction logfile from 2018-10-23 20:17:52 -0400
Lee Konitz and Dan Tepfer / Decade
Used drive : Apple SuperDrive (revision 2.00)Media type : Pressed CD
Ripper mode : XLD Secure RipperDisable audio cache : OK for the drive with a cache less than 1375KiBMake use of C2 pointers : NORead offset correction : 6Max retry count : 100Gap status : Analyzed, Appended (except HTOA)
TOC of the extracted CD Track | Start | Length | Start sector | End sector --------------------------------------------------------- 1 | 00:00:00 | 02:32:74 | 0 | 11473 2 | 02:32:74 | 03:49:08 | 11474 | 28656 3 | 06:22:07 | 02:39:38 | 28657 | 40619 4 | 09:01:45 | 04:26:33 | 40620 | 60602 5 | 13:28:03 | 01:34:19 | 60603 | 67671 6 | 15:02:22 | 03:10:46 | 67672 | 81967 7 | 18:12:68 | 06:02:43 | 81968 | 109160 8 | 24:15:36 | 01:08:13 | 109161 | 114273 9 | 25:23:49 | 04:25:27 | 114274 | 134175 10 | 29:49:01 | 02:16:21 | 134176 | 144396 11 | 32:05:22 | 01:39:20 | 144397 | 151841 12 | 33:44:42 | 01:58:72 | 151842 | 160763 13 | 35:43:39 | 02:42:00 | 160764 | 172913 14 | 38:25:39 | 00:58:32 | 172914 | 177295 15 | 39:23:71 | 06:59:55 | 177296 | 208775
AccurateRip Summary (DiscID: 00196652-011da048-c00adf0f) Track 01 : OK (v2, confidence 3/3) Track 02 : OK (v2, confidence 3/3) Track 03 : OK (v2, confidence 3/3) Track 04 : OK (v2, confidence 3/3) Track 05 : OK (v2, confidence 3/3) Track 06 : OK (v2, confidence 3/3) Track 07 : OK (v2, confidence 3/3) Track 08 : OK (v2, confidence 3/3) Track 09 : OK (v2, confidence 3/3) Track 10 : OK (v2, confidence 3/3) Track 11 : OK (v2, confidence 3/3) Track 12 : OK (v2, confidence 3/3) Track 13 : OK (v2, confidence 3/3) Track 14 : OK (v2, confidence 3/3) Track 15 : OK (v2, confidence 3/3) ->All tracks accurately ripped.
All Tracks Album gain : -1.23 dB Peak : 0.976379 Statistics Read error : 0 Jitter error (maybe fixed) : 0 Retry sector count : 0 Damaged sector count : 0
Track 01 Filename : /Users/bill/Desktop/XLD/Lee Konitz and Dan Tepfer - Decade - FLAC/01 - Thrill.flac Pre-gap length : 00:02:00
Track gain : -1.94 dB Peak : 0.886078 CRC32 hash (test run) : 13C07B04 CRC32 hash : 13C07B04 CRC32 hash (skip zero) : 4499D7C8 AccurateRip v1 signature : 0A0C6B8D AccurateRip v2 signature : 7F7B7257 ->Accurately ripped (v2, confidence 3/3) Statistics Read error : 0 Jitter error (maybe fixed) : 0 Retry sector count : 0 Damaged sector count : 0
Track 02 Filename : /Users/bill/Desktop/XLD/Lee Konitz and Dan Tepfer - Decade - FLAC/02 - 9пјЏ11 Suite, Part I.flac
Track gain : -0.61 dB Peak : 0.909912 CRC32 hash (test run) : CD79DC94 CRC32 hash : CD79DC94 CRC32 hash (skip zero) : 88D14CEE AccurateRip v1 signature : C973428C AccurateRip v2 signature : 819D4DAC ->Accurately ripped (v2, confidence 3/3) Statistics Read error : 0 Jitter error (maybe fixed) : 0 Retry sector count : 0 Damaged sector count : 0
Track 03 Filename : /Users/bill/Desktop/XLD/Lee Konitz and Dan Tepfer - Decade - FLAC/03 - 9пјЏ11 Suite, Part II.flac
Track gain : -0.91 dB Peak : 0.879639 CRC32 hash (test run) : 1CADD007 CRC32 hash : 1CADD007 CRC32 hash (skip zero) : 3C9D0737 AccurateRip v1 signature : 54E826B5 AccurateRip v2 signature : 3483C382 ->Accurately ripped (v2, confidence 3/3) Statistics Read error : 0 Jitter error (maybe fixed) : 0 Retry sector count : 0 Damaged sector count : 0
Track 04 Filename : /Users/bill/Desktop/XLD/Lee Konitz and Dan Tepfer - Decade - FLAC/04 - 9пјЏ11 Suite, Part III.flac
Track gain : -1.33 dB Peak : 0.964752 CRC32 hash (test run) : 3C055E6A CRC32 hash : 3C055E6A CRC32 hash (skip zero) : 37A87EBD AccurateRip v1 signature : 0D6C9CEB AccurateRip v2 signature : EA45CA5A ->Accurately ripped (v2, confidence 3/3) Statistics Read error : 0 Jitter error (maybe fixed) : 0 Retry sector count : 0 Damaged sector count : 0
Track 05 Filename : /Users/bill/Desktop/XLD/Lee Konitz and Dan Tepfer - Decade - FLAC/05 - Pulsing Green.flac
Track gain : -0.80 dB Peak : 0.971100 CRC32 hash (test run) : F5FE02F7 CRC32 hash : F5FE02F7 CRC32 hash (skip zero) : F61C9E28 AccurateRip v1 signature : 3FFC54AB AccurateRip v2 signature : BB1104DA ->Accurately ripped (v2, confidence 3/3) Statistics Read error : 0 Jitter error (maybe fixed) : 0 Retry sector count : 0 Damaged sector count : 0
Track 06 Filename : /Users/bill/Desktop/XLD/Lee Konitz and Dan Tepfer - Decade - FLAC/06 - Alter Ego.flac
Track gain : -0.85 dB Peak : 0.835602 CRC32 hash (test run) : 3FDE3F86 CRC32 hash : 3FDE3F86 CRC32 hash (skip zero) : 810B8D7A AccurateRip v1 signature : 637F6218 AccurateRip v2 signature : 4001DDDC ->Accurately ripped (v2, confidence 3/3) Statistics Read error : 0 Jitter error (maybe fixed) : 0 Retry sector count : 0 Damaged sector count : 0
Track 07 Filename : /Users/bill/Desktop/XLD/Lee Konitz and Dan Tepfer - Decade - FLAC/07 - Through the Tunnel.flac
Track gain : -1.42 dB Peak : 0.962982 CRC32 hash (test run) : 762F20AF CRC32 hash : 762F20AF CRC32 hash (skip zero) : 01DC335D AccurateRip v1 signature : A4460381 AccurateRip v2 signature : 4663AC73 ->Accurately ripped (v2, confidence 3/3) Statistics Read error : 0 Jitter error (maybe fixed) : 0 Retry sector count : 0 Damaged sector count : 0
Track 08 Filename : /Users/bill/Desktop/XLD/Lee Konitz and Dan Tepfer - Decade - FLAC/08 - Egos Alter.flac
Track gain : -1.12 dB Peak : 0.964630 CRC32 hash (test run) : 480C2C07 CRC32 hash : 480C2C07 CRC32 hash (skip zero) : E87BFA7B AccurateRip v1 signature : E91F69A3 AccurateRip v2 signature : 1F94DB98 ->Accurately ripped (v2, confidence 3/3) Statistics Read error : 0 Jitter error (maybe fixed) : 0 Retry sector count : 0 Damaged sector count : 0
Track 09 Filename : /Users/bill/Desktop/XLD/Lee Konitz and Dan Tepfer - Decade - FLAC/09 - Rebounds.flac
Track gain : -1.21 dB Peak : 0.962433 CRC32 hash (test run) : C57EF5E5 CRC32 hash : C57EF5E5 CRC32 hash (skip zero) : AD40E621 AccurateRip v1 signature : BCB15497 AccurateRip v2 signature : F3CF26D0 ->Accurately ripped (v2, confidence 3/3) Statistics Read error : 0 Jitter error (maybe fixed) : 0 Retry sector count : 0 Damaged sector count : 0
Track 10 Filename : /Users/bill/Desktop/XLD/Lee Konitz and Dan Tepfer - Decade - FLAC/10 - A Place We Know.flac
Track gain : -1.19 dB Peak : 0.824249 CRC32 hash (test run) : B869343B CRC32 hash : B869343B CRC32 hash (skip zero) : 128107CA AccurateRip v1 signature : A384707A AccurateRip v2 signature : 4D979772 ->Accurately ripped (v2, confidence 3/3) Statistics Read error : 0 Jitter error (maybe fixed) : 0 Retry sector count : 0 Damaged sector count : 0
Track 11 Filename : /Users/bill/Desktop/XLD/Lee Konitz and Dan Tepfer - Decade - FLAC/11 - Pulsing Orange.flac
Track gain : 2.25 dB Peak : 0.608063 CRC32 hash (test run) : 3D117F7F CRC32 hash : 3D117F7F CRC32 hash (skip zero) : 575E0AF6 AccurateRip v1 signature : B94FF58C AccurateRip v2 signature : 12B0E9E7 ->Accurately ripped (v2, confidence 3/3) Statistics Read error : 0 Jitter error (maybe fixed) : 0 Retry sector count : 0 Damaged sector count : 0
Track 12 Filename : /Users/bill/Desktop/XLD/Lee Konitz and Dan Tepfer - Decade - FLAC/12 - Whirlpool.flac
Track gain : -1.96 dB Peak : 0.951385 CRC32 hash (test run) : 169D91D3 CRC32 hash : 169D91D3 CRC32 hash (skip zero) : 8916D0E2 AccurateRip v1 signature : 7F7F25D5 AccurateRip v2 signature : 8482DC71 ->Accurately ripped (v2, confidence 3/3) Statistics Read error : 0 Jitter error (maybe fixed) : 0 Retry sector count : 0 Damaged sector count : 0
Track 13 Filename : /Users/bill/Desktop/XLD/Lee Konitz and Dan Tepfer - Decade - FLAC/13 - Ceaseless.flac
Track gain : -0.70 dB Peak : 0.949921 CRC32 hash (test run) : F078D98A CRC32 hash : F078D98A CRC32 hash (skip zero) : 11B4A349 AccurateRip v1 signature : 9E352A2B AccurateRip v2 signature : 8D05F7A4 ->Accurately ripped (v2, confidence 3/3) Statistics Read error : 0 Jitter error (maybe fixed) : 0 Retry sector count : 0 Damaged sector count : 0
Track 14 Filename : /Users/bill/Desktop/XLD/Lee Konitz and Dan Tepfer - Decade - FLAC/14 - Eager Altos.flac
Track gain : -1.05 dB Peak : 0.732971 CRC32 hash (test run) : 265278EB CRC32 hash : 265278EB CRC32 hash (skip zero) : 77DCFC28 AccurateRip v1 signature : E74FE6E8 AccurateRip v2 signature : C24408E4 ->Accurately ripped (v2, confidence 3/3) Statistics Read error : 0 Jitter error (maybe fixed) : 0 Retry sector count : 0 Damaged sector count : 0
Track 15 Filename : /Users/bill/Desktop/XLD/Lee Konitz and Dan Tepfer - Decade - FLAC/15 - Body and Soul.flac
Track gain : -1.65 dB Peak : 0.976379 CRC32 hash (test run) : 2E74A479 CRC32 hash : 2E74A479 CRC32 hash (skip zero) : 893A2FFD AccurateRip v1 signature : 240EA4D3 AccurateRip v2 signature : 764BC2EE ->Accurately ripped (v2, confidence 3/3) Statistics Read error : 0 Jitter error (maybe fixed) : 0 Retry sector count : 0 Damaged sector count : 0
No errors occurred
End of status report
-----BEGIN XLD SIGNATURE-----qUxaeToHPHwVFeC1tXtS3yCKvmYpJDMX5k5AmU_NkN6khHKj.NYIr8fL4zZNwgo3ErjWcVps3z72TjoITkQUCwq7r269kTnIYP.F73G-----END XLD SIGNATURE-----

Содержание индексной карты (.CUE)

TITLE "Decade"PERFORMER "Lee Konitz & Dan Tepfer"CATALOG 0602567664574REM GENRE "Jazz"REM DATE "2018"REM DISCID C00ADF0FREM REPLAYGAIN_ALBUM_GAIN -1.23 dBREM REPLAYGAIN_ALBUM_PEAK 0.976379FILE "01 - Thrill.flac" WAVE  TRACK 01 AUDIO    TITLE "Thrill"    ISRC FRUM71801137    REM REPLAYGAIN_TRACK_GAIN -1.94 dB    REM REPLAYGAIN_TRACK_PEAK 0.886078    INDEX 01 00:00:00FILE "02 - 9-11 Suite, Part I.flac" WAVE  TRACK 02 AUDIO    TITLE "9/11 Suite, Part I"    ISRC FRUM71801138    REM REPLAYGAIN_TRACK_GAIN -0.61 dB    REM REPLAYGAIN_TRACK_PEAK 0.909912    INDEX 01 00:00:00FILE "03 - 9-11 Suite, Part II.flac" WAVE  TRACK 03 AUDIO    TITLE "9/11 Suite, Part II"    ISRC FRUM71801139    REM REPLAYGAIN_TRACK_GAIN -0.91 dB    REM REPLAYGAIN_TRACK_PEAK 0.879639    INDEX 01 00:00:00FILE "04 - 9-11 Suite, Part III.flac" WAVE  TRACK 04 AUDIO    TITLE "9/11 Suite, Part III"    ISRC FRUM71801140    REM REPLAYGAIN_TRACK_GAIN -1.33 dB    REM REPLAYGAIN_TRACK_PEAK 0.964752    INDEX 01 00:00:00FILE "05 - Pulsing Green.flac" WAVE  TRACK 05 AUDIO    TITLE "Pulsing Green"    ISRC FRUM71801141    REM REPLAYGAIN_TRACK_GAIN -0.80 dB    REM REPLAYGAIN_TRACK_PEAK 0.971100    INDEX 01 00:00:00FILE "06 - Alter Ego.flac" WAVE  TRACK 06 AUDIO    TITLE "Alter Ego"    ISRC FRUM71801142    REM REPLAYGAIN_TRACK_GAIN -0.85 dB    REM REPLAYGAIN_TRACK_PEAK 0.835602    INDEX 01 00:00:00FILE "07 - Through the Tunnel.flac" WAVE  TRACK 07 AUDIO    TITLE "Through the Tunnel"    ISRC FRUM71801143    REM REPLAYGAIN_TRACK_GAIN -1.42 dB    REM REPLAYGAIN_TRACK_PEAK 0.962982    INDEX 01 00:00:00FILE "08 - Egos Alter.flac" WAVE  TRACK 08 AUDIO    TITLE "Egos Alter"    ISRC FRUM71801144    REM REPLAYGAIN_TRACK_GAIN -1.12 dB    REM REPLAYGAIN_TRACK_PEAK 0.964630    INDEX 01 00:00:00FILE "09 - Rebounds.flac" WAVE  TRACK 09 AUDIO    TITLE "Rebounds"    ISRC FRUM71801145    REM REPLAYGAIN_TRACK_GAIN -1.21 dB    REM REPLAYGAIN_TRACK_PEAK 0.962433    INDEX 01 00:00:00FILE "10 - A Place We Know.flac" WAVE  TRACK 10 AUDIO    TITLE "A Place We Know"    ISRC FRUM71801146    REM REPLAYGAIN_TRACK_GAIN -1.19 dB    REM REPLAYGAIN_TRACK_PEAK 0.824249    INDEX 01 00:00:00FILE "11 - Pulsing Orange.flac" WAVE  TRACK 11 AUDIO    TITLE "Pulsing Orange"    ISRC FRUM71801147    REM REPLAYGAIN_TRACK_GAIN 2.25 dB    REM REPLAYGAIN_TRACK_PEAK 0.608063    INDEX 01 00:00:00FILE "12 - Whirlpool.flac" WAVE  TRACK 12 AUDIO    TITLE "Whirlpool"    ISRC FRUM71801148    REM REPLAYGAIN_TRACK_GAIN -1.96 dB    REM REPLAYGAIN_TRACK_PEAK 0.951385    INDEX 01 00:00:00FILE "13 - Ceaseless.flac" WAVE  TRACK 13 AUDIO    TITLE "Ceaseless"    ISRC FRUM71801149    REM REPLAYGAIN_TRACK_GAIN -0.70 dB    REM REPLAYGAIN_TRACK_PEAK 0.949921    INDEX 01 00:00:00FILE "14 - Eager Altos.flac" WAVE  TRACK 14 AUDIO    TITLE "Eager Altos"    ISRC FRUM71801150    REM REPLAYGAIN_TRACK_GAIN -1.05 dB    REM REPLAYGAIN_TRACK_PEAK 0.732971    INDEX 01 00:00:00FILE "15 - Body and Soul.flac" WAVE  TRACK 15 AUDIO    TITLE "Body and Soul"    ISRC FRUM71801151    REM REPLAYGAIN_TRACK_GAIN -1.65 dB    REM REPLAYGAIN_TRACK_PEAK 0.976379    INDEX 01 00:00:00

Отчет CUETools

[CUETools log; Date: 24.10.2018 18:25:16; Version: 2.1.5][CTDB TOCID: mHWwQ0Y_oyBTIicUQcMxvRAFoB0-] found.Track | CTDB Status  1   | (4/4) Accurately ripped  2   | (4/4) Accurately ripped  3   | (4/4) Accurately ripped  4   | (4/4) Accurately ripped  5   | (4/4) Accurately ripped  6   | (4/4) Accurately ripped  7   | (4/4) Accurately ripped  8   | (4/4) Accurately ripped  9   | (4/4) Accurately ripped 10   | (4/4) Accurately ripped 11   | (4/4) Accurately ripped 12   | (4/4) Accurately ripped 13   | (4/4) Accurately ripped 14   | (4/4) Accurately ripped 15   | (4/4) Accurately ripped[AccurateRip ID: 00196652-011da048-c00adf0f] found.Track   [  CRC   |   V2   ] Status 01     [0a0c6b8d|7f7b7257] (0+3/3) Accurately ripped 02     [c973428c|819d4dac] (0+3/3) Accurately ripped 03     [54e826b5|3483c382] (0+3/3) Accurately ripped 04     [0d6c9ceb|ea45ca5a] (0+3/3) Accurately ripped 05     [3ffc54ab|bb1104da] (0+3/3) Accurately ripped 06     [637f6218|4001dddc] (0+3/3) Accurately ripped 07     [a4460381|4663ac73] (0+3/3) Accurately ripped 08     [e91f69a3|1f94db98] (0+3/3) Accurately ripped 09     [bcb15497|f3cf26d0] (0+3/3) Accurately ripped 10     [a384707a|4d979772] (0+3/3) Accurately ripped 11     [b94ff58c|12b0e9e7] (0+3/3) Accurately ripped 12     [7f7f25d5|8482dc71] (0+3/3) Accurately ripped 13     [9e352a2b|8d05f7a4] (0+3/3) Accurately ripped 14     [e74fe6e8|c24408e4] (0+3/3) Accurately ripped 15     [240ea4d3|764bc2ee] (0+3/3) Accurately ripped
Track Peak [ CRC32 ] [W/O NULL] -- 97,6 [EE19BB5C] [A9B89AE7] 01 88,6 [13C07B04] [4499D7C8] 02 90,9 [CD79DC94] [88D14CEE] 03 87,9 [1CADD007] [3C9D0737] 04 96,4 [3C055E6A] [37A87EBD] 05 97,1 [F5FE02F7] [F61C9E28] 06 83,5 [3FDE3F86] [810B8D7A] 07 96,2 [762F20AF] [01DC335D] 08 96,4 [480C2C07] [E87BFA7B] 09 96,2 [C57EF5E5] [AD40E621] 10 82,4 [B869343B] [128107CA] 11 60,8 [3D117F7F] [575E0AF6] 12 95,1 [169D91D3] [8916D0E2] 13 94,9 [F078D98A] [11B4A349] 14 73,2 [265278EB] [77DCFC28] 15 97,6 [2E74A479] [893A2FFD]

If you like the topic, please click share to help develop our site.

To download the file disable ad blocking, and reload the page.

disable adblock How to disable ad blocking?

Download by magnet link 186 MB Download Torrent

Login using:

Similar topics



   
Current time is: 25-Mar 18:40 :: All times are UTC + 3