Maria Faust / Sacrum Facere
(Francesco Bigoni, Ned Ferm, Emanuele Maniscalco, Kristi Muhling, Tobias Wiklund, Mads Hyhne, Daniel Herskedal, Anna Vabarna)
Жанр: Modern Creative, Avant-Garde Jazz, World Music
Носитель: CD
Страна-производитель диска (релиза): Denmark
Год издания: 2014
Издатель (лейбл): Barefoot Records
Номер по каталогу: BFREC034CD
Страна исполнителя (группы): Estonia/Denmark
Аудиокодек: FLAC (*.flac)
Тип рипа: tracks+.cue
Битрейт аудио: lossless
Продолжительность: 00:42:09
Источник (релизер): LarryLevan
Наличие сканов в содержимом раздачи: нет
Треклист:
1. Epp (05:55)
2. Tui (06:51)
3. Lydia (07:44)
4. Hiie (08:25)
5. Virve (04:09)
6. Sacrum Facere (05:39)
7. Itk (03:26)

Лог создания рипа

X Lossless Decoder version 20141129 (148.1)
XLD extraction logfile from 2015-05-09 00:56:08 +0200
Maria Faust Sacrum Facere / Maria Faust Sacrum Facere
Used drive : MATSHITA DVD-R UJ-898 (revision HE13)Media type : Pressed CD
Ripper mode : XLD Secure RipperDisable audio cache : OK for the drive with a cache less than 1375KiBMake use of C2 pointers : NORead offset correction : 102Max retry count : 20Gap status : Analyzed, Appended
TOC of the extracted CD Track | Start | Length | Start sector | End sector --------------------------------------------------------- 1 | 00:00:00 | 05:55:69 | 0 | 26693 2 | 05:55:69 | 06:51:31 | 26694 | 57549 3 | 12:47:25 | 07:44:55 | 57550 | 92404 4 | 20:32:05 | 08:25:72 | 92405 | 130351 5 | 28:58:02 | 04:09:27 | 130352 | 149053 6 | 33:07:29 | 05:40:22 | 149054 | 174575 7 | 38:47:51 | 03:25:53 | 174576 | 190003
AccurateRip Summary Disc not found in AccurateRip DB.
All Tracks Album gain : -3.27 dB Peak : 0.989349 Statistics Read error : 0 Jitter error (maybe fixed) : 0 Retry sector count : 0 Damaged sector count : 0
Track 01 Filename : /Volumes/UN-2015/! 2015 Rip/! Artists/Maria Faust - [2014] - Maria Faust Sacrum Facere [FLAC]/01 - Maria Faust - Epp.flac /Volumes/UN-2015/! 2015 Rip/! Artists/Maria Faust - [2014] - Maria Faust Sacrum Facere [V0]/01 - Maria Faust - Epp.mp3 /Volumes/UN-2015/! 2015 Rip/! Artists/Maria Faust - [2014] - Maria Faust Sacrum Facere [320]/01 - Maria Faust - Epp.mp3 Pre-gap length : 00:02:00
Track gain : -3.07 dB Peak : 0.920532 CRC32 hash (test run) : 27DC2F4A CRC32 hash : 27DC2F4A CRC32 hash (skip zero) : D6701F0F AccurateRip v1 signature : 9F716569 AccurateRip v2 signature : F27B89F8 ->Track not present in AccurateRip database. Statistics Read error : 0 Jitter error (maybe fixed) : 0 Retry sector count : 0 Damaged sector count : 0
Track 02 Filename : /Volumes/UN-2015/! 2015 Rip/! Artists/Maria Faust - [2014] - Maria Faust Sacrum Facere [FLAC]/02 - Maria Faust - Tui.flac /Volumes/UN-2015/! 2015 Rip/! Artists/Maria Faust - [2014] - Maria Faust Sacrum Facere [V0]/02 - Maria Faust - Tui.mp3 /Volumes/UN-2015/! 2015 Rip/! Artists/Maria Faust - [2014] - Maria Faust Sacrum Facere [320]/02 - Maria Faust - Tui.mp3 Pre-gap length : 00:00:13
Track gain : -4.09 dB Peak : 0.989349 CRC32 hash (test run) : 3DEA5F02 CRC32 hash : 3DEA5F02 CRC32 hash (skip zero) : AC684765 AccurateRip v1 signature : AA7D0FE0 AccurateRip v2 signature : AC46EF44 ->Track not present in AccurateRip database. Statistics Read error : 0 Jitter error (maybe fixed) : 0 Retry sector count : 0 Damaged sector count : 0
Track 03 Filename : /Volumes/UN-2015/! 2015 Rip/! Artists/Maria Faust - [2014] - Maria Faust Sacrum Facere [FLAC]/03 - Maria Faust - Lydia.flac /Volumes/UN-2015/! 2015 Rip/! Artists/Maria Faust - [2014] - Maria Faust Sacrum Facere [V0]/03 - Maria Faust - Lydia.mp3 /Volumes/UN-2015/! 2015 Rip/! Artists/Maria Faust - [2014] - Maria Faust Sacrum Facere [320]/03 - Maria Faust - Lydia.mp3 Pre-gap length : 00:00:26
Track gain : -2.85 dB Peak : 0.989014 CRC32 hash (test run) : 06F74A90 CRC32 hash : 06F74A90 CRC32 hash (skip zero) : 3AE9652B AccurateRip v1 signature : CB02D91A AccurateRip v2 signature : 640F599A ->Track not present in AccurateRip database. Statistics Read error : 0 Jitter error (maybe fixed) : 0 Retry sector count : 0 Damaged sector count : 0
Track 04 Filename : /Volumes/UN-2015/! 2015 Rip/! Artists/Maria Faust - [2014] - Maria Faust Sacrum Facere [FLAC]/04 - Maria Faust - Hiie.flac /Volumes/UN-2015/! 2015 Rip/! Artists/Maria Faust - [2014] - Maria Faust Sacrum Facere [V0]/04 - Maria Faust - Hiie.mp3 /Volumes/UN-2015/! 2015 Rip/! Artists/Maria Faust - [2014] - Maria Faust Sacrum Facere [320]/04 - Maria Faust - Hiie.mp3 Pre-gap length : 00:00:40
Track gain : -2.34 dB Peak : 0.988647 CRC32 hash (test run) : 26C7FCD9 CRC32 hash : 26C7FCD9 CRC32 hash (skip zero) : F83CA357 AccurateRip v1 signature : 20E61223 AccurateRip v2 signature : 7F520964 ->Track not present in AccurateRip database. Statistics Read error : 0 Jitter error (maybe fixed) : 0 Retry sector count : 0 Damaged sector count : 0
Track 05 Filename : /Volumes/UN-2015/! 2015 Rip/! Artists/Maria Faust - [2014] - Maria Faust Sacrum Facere [FLAC]/05 - Maria Faust - Virve.flac /Volumes/UN-2015/! 2015 Rip/! Artists/Maria Faust - [2014] - Maria Faust Sacrum Facere [V0]/05 - Maria Faust - Virve.mp3 /Volumes/UN-2015/! 2015 Rip/! Artists/Maria Faust - [2014] - Maria Faust Sacrum Facere [320]/05 - Maria Faust - Virve.mp3 Pre-gap length : 00:00:41
Track gain : -4.95 dB Peak : 0.988922 CRC32 hash (test run) : E625ACB6 CRC32 hash : E625ACB6 CRC32 hash (skip zero) : 198AED24 AccurateRip v1 signature : EB441873 AccurateRip v2 signature : 4DD22CFD ->Track not present in AccurateRip database. Statistics Read error : 0 Jitter error (maybe fixed) : 0 Retry sector count : 0 Damaged sector count : 0
Track 06 Filename : /Volumes/UN-2015/! 2015 Rip/! Artists/Maria Faust - [2014] - Maria Faust Sacrum Facere [FLAC]/06 - Maria Faust - Sacrum Facere.flac /Volumes/UN-2015/! 2015 Rip/! Artists/Maria Faust - [2014] - Maria Faust Sacrum Facere [V0]/06 - Maria Faust - Sacrum Facere.mp3 /Volumes/UN-2015/! 2015 Rip/! Artists/Maria Faust - [2014] - Maria Faust Sacrum Facere [320]/06 - Maria Faust - Sacrum Facere.mp3 Pre-gap length : 00:00:33
Track gain : -2.64 dB Peak : 0.987946 CRC32 hash (test run) : 3F93B1EC CRC32 hash : 3F93B1EC CRC32 hash (skip zero) : C82FC049 AccurateRip v1 signature : F5EB3937 AccurateRip v2 signature : BBF95443 ->Track not present in AccurateRip database. Statistics Read error : 0 Jitter error (maybe fixed) : 0 Retry sector count : 0 Damaged sector count : 0
Track 07 Filename : /Volumes/UN-2015/! 2015 Rip/! Artists/Maria Faust - [2014] - Maria Faust Sacrum Facere [FLAC]/07 - Maria Faust - Itk.flac /Volumes/UN-2015/! 2015 Rip/! Artists/Maria Faust - [2014] - Maria Faust Sacrum Facere [V0]/07 - Maria Faust - Itk.mp3 /Volumes/UN-2015/! 2015 Rip/! Artists/Maria Faust - [2014] - Maria Faust Sacrum Facere [320]/07 - Maria Faust - Itk.mp3 Pre-gap length : 00:01:04
Track gain : 1.53 dB Peak : 0.602356 CRC32 hash (test run) : 2106FBEB CRC32 hash : 2106FBEB CRC32 hash (skip zero) : 979D3E63 AccurateRip v1 signature : 712B6488 AccurateRip v2 signature : A2B58E10 ->Track not present in AccurateRip database. Statistics Read error : 0 Jitter error (maybe fixed) : 0 Retry sector count : 0 Damaged sector count : 0
No errors occurred
End of status report
-----BEGIN XLD SIGNATURE-----jfHSKn8YKxkS1vTWaDmeDF.RjxygmaVRlLHW4a8bX2T7r7QMaB9JWzjR9fiyD4YXOv9c9Qf99rMj3MIqMXlSJSCKcyNDa1DX42vu38i-----END XLD SIGNATURE-----

Содержание индексной карты (.CUE)

TITLE "Maria Faust Sacrum Facere"PERFORMER "Maria Faust Sacrum Facere"REM GENRE "Jazz"REM DATE "2014"REM DISCNUMBER 1REM TOTALDISCS 1REM DISCID 6809E507REM REPLAYGAIN_ALBUM_GAIN -3.27 dBREM REPLAYGAIN_ALBUM_PEAK 0.989349FILE "01 - Maria Faust - Epp.flac" WAVE  TRACK 01 AUDIO    TITLE "Epp"    PERFORMER "Maria Faust"    ISRC NOHJX1403401    REM REPLAYGAIN_TRACK_GAIN -3.07 dB    REM REPLAYGAIN_TRACK_PEAK 0.920532    INDEX 01 00:00:00  TRACK 02 AUDIO    TITLE "Tui"    PERFORMER "Maria Faust"    ISRC NOHJX1403402    REM REPLAYGAIN_TRACK_GAIN -4.09 dB    REM REPLAYGAIN_TRACK_PEAK 0.989349    INDEX 00 05:55:56FILE "02 - Maria Faust - Tui.flac" WAVE    INDEX 01 00:00:00  TRACK 03 AUDIO    TITLE "Lydia"    PERFORMER "Maria Faust"    ISRC NOHJX1403403    REM REPLAYGAIN_TRACK_GAIN -2.85 dB    REM REPLAYGAIN_TRACK_PEAK 0.989014    INDEX 00 06:51:05FILE "03 - Maria Faust - Lydia.flac" WAVE    INDEX 01 00:00:00  TRACK 04 AUDIO    TITLE "Hiie"    PERFORMER "Maria Faust"    ISRC NOHJX1403404    REM REPLAYGAIN_TRACK_GAIN -2.34 dB    REM REPLAYGAIN_TRACK_PEAK 0.988647    INDEX 00 07:44:15FILE "04 - Maria Faust - Hiie.flac" WAVE    INDEX 01 00:00:00  TRACK 05 AUDIO    TITLE "Virve"    PERFORMER "Maria Faust"    ISRC NOHJX1403405    REM REPLAYGAIN_TRACK_GAIN -4.95 dB    REM REPLAYGAIN_TRACK_PEAK 0.988922    INDEX 00 08:25:31FILE "05 - Maria Faust - Virve.flac" WAVE    INDEX 01 00:00:00  TRACK 06 AUDIO    TITLE "Sacrum Facere"    PERFORMER "Maria Faust"    ISRC NOHJX1403406    REM REPLAYGAIN_TRACK_GAIN -2.64 dB    REM REPLAYGAIN_TRACK_PEAK 0.987946    INDEX 00 04:08:69FILE "06 - Maria Faust - Sacrum Facere.flac" WAVE    INDEX 01 00:00:00  TRACK 07 AUDIO    TITLE "Itk"    PERFORMER "Maria Faust"    ISRC NOHJX1403407    REM REPLAYGAIN_TRACK_GAIN 1.53 dB    REM REPLAYGAIN_TRACK_PEAK 0.602356    INDEX 00 05:39:18FILE "07 - Maria Faust - Itk.flac" WAVE    INDEX 01 00:00:00
Доп. информация:

front, 1500px @ itunes

Recorded at The Village Recording, December 2013
Maria Faust Jazz Catastrophe - FLAC (tracks+.cue), 209.6 MB:
http://********.org/forum/viewtopic.php?t=4836333
Kira Skov & Maria Faust - In the Beginning, WEB FLAC, 255.3 MB:
http://********.org/forum/viewtopic.php?t=5435610

Об исполнителе (группе)

https://mariafaust.com/bio/
Maria Faust (b. 1979, Kuressaare) is an Estonian saxophone player and composer living in Copenhagen, Denmark. Faust is best known in the fields of third stream jazz, modern big band music, improvised music, and other alternative genres. She has made remarkable musical waves that have sent her and her bands on trips to concert halls and music festivals around the world.
Maria Faust grew up under the Communist regime in Estonia, where she was classically educated, and yet gladly compares her music school to a “barracks for child soldiers.” At the conservatory there, she didn’t feel that there was room for her, musically. Mozart was supposed to sound like Mozart, and Bach like Bach, which left her yearning for something different. In Tallinn, jazz and improvisational music took hold of her, but in order to develop further, she had to leave the country. With the help of the Danish Cultural Institute, Maria Faust came to the Southern Danish Music Conservatory. Even in her new surroundings, she felt did not t into the world of jazz. “I am a child of communism! I did not swing. I marched! So, I basically just tried to be faithful to myself. It was a choice I made.” A conviction which she holds onto stubbornly, even to this day.
Maria Faust neither plays nor composes in traditional ways, and has no interest in doing so. Her big breakthrough, the very personal album SACRUM FACERE (Latin: human sacrifice), documents this well. It is an album that gets its inspiration from the culture in and around the Russian-Estonian border region, where descendants of deported orthodox Russians still live. Here, she collected work songs, hymns, and lullabies, and merged the material with classical music and free improvisation. The album received universally positive reviews, culminating in two Danish Music Awards in 2014 (“Jazz Composer of the Year” and “Jazz Crossover Release of the Year”).
In early 2016, Maria and the Danish singer and composer Kira Skov travelled to Estonia, where they discovered a region where time seemed to stand still. Breaking new creative ground together in an abandoned Russian Orthodox Church without electricity or water, they recorded their collaborative spiritually oriented masterpiece, IN THE BEGINNING, with a large band and Estonian Choir. The Danish news- paper Berlingske awarded the recording 6/6 stars and called it “a unique work of great sacred beauty … The recordings that Skov and Faust have come home with are simply formidable.” As of November 2017, the release won for 2 Danish Music Awards: Vocal Jazz Release of the Year, and Jazz Composer(s) of the Year. The project also won Danish Critic Association prize and was nominated both to Estonian Music Awards and Carl Prisen 2018.
Boldness is the hallmark of Maria Faust, her music, and her projects with ensembles that explore unusual instrumentations and techniques. She is constantly expanding her sound spectrum, and her new project, MACHINA, consists of an unprecedented mix of traditional musical forms paired with improvisation, jazz, and soundscapes. In a musical language of her own invention, she delivers her original compositional ideas, a chamber music universe without drums, but with horns, two basses, cello, and piano, all in a fascinating interaction with the engi- nes of shing boats sputtering their way through the fog, the creaks of old rusty hulls, the hum of the breeze and the call of the birds out at sea.
MACHINA, like Maria Faust’s earlier releases, starts with what she her- self describes as “memory analysis.” As a tool, she gets inspiration from both personal and collective memories and the subconscious. Maria Faust says that she sees “the water as a symbol of a natural and unpre- dictable force of oppressed feelings like anger and sorrow” and she asks “why should we suppress these emotions, while we emphasize, for example, happiness?”

Об альбоме (сборнике)

https://www.allaboutjazz.com/sacrum-facere-maria-faust-barefoot-records-review-by-eyal-hareuveni.php
Estonian, Denmark-based composer and reeds player Maria Faust's latest project, Sacrum Facere, is a song cycle inspired by Estonian folklore and the runo singing from the Setu region, close to the Russian border. Faust composed and arranged the music for brass ensemble, three woodwinds, prepared piano, and Estonian folk harp, the kannel, in a manner that weaves impressively her two passions—contemporary classical composition and free improvisation.
The movements in the cycle were written specifically for an octet, each one featuring different soloist and all highlighting the individual voices of the musicians and their instrumental colors. Faust's compositions do not shy from sounding naive and even sentimental yet none of the compositions focus only on the straight emotional aspec, all emphasize her rich and highly personal musical language as composer and improviser.
On "Epp" she arranges the brass and woodwind instruments as a choir, led by Swedish trumpeter Tobias Wiklund, that charges the innocent theme with meditative colors. "Tui," featuring Norwegian tuba player Daniel Herskedal as soloists, and later "Vivre," featuring American tenor saxophonist Ned Ferm—Faust's partner—as the main soloist, offer more room for dramatic improvisation. Both allowing the ensemble to investigate sounds, dynamics and forms of interplay and emphasizes the unique role of the prepared piano and plucked strings of the kannel as sketching a delicate pulse.
Italian pianist Emanuele Maniscalco is the main soloist in the emotional suite "Lydia," cleverly weaving the loose outlines of this piece, ornamented freely by the brass and woodwind instruments. The profound ascetic and minimalist atmosphere of "Hiie," featuring Danish trombonist Mads Hyhne, and the title piece with Faust as the main soloist on the breathing clarinet and spare singing, brings to mind the spiritual-meditative compositions of fellow Estonian composer Arvo Part, informed too by East European folklore and religious singing. Faust concludes with an arrangement of a traditional piece, "Itk" (daughter's Lament), taken from an anthology of Estonian music and sung by Anna Vabrana (1877-1964), accompanied gently by the ensemble.
An inspiring masterpiece.

Состав

Maria Faust: alto saxophone, clarinet, voice;
Francesco Bigoni: clarinet;
Ned Ferm: tenor saxophone, clarinet;
Emanuele Maniscalco: prepared piano;
Kristi Mühling: kannel (zither);
Tobias Wiklund: trumpet;
Mads Hyhne: trombone;
Daniel Herskedal: tuba;
Anna Vabarna: vocals (7).

If you like the topic, please click share to help develop our site.

To download the file disable ad blocking, and reload the page.

disable adblock How to disable ad blocking?

Download by magnet link 181 MB Download Torrent

Login using:

Similar topics



   
Current time is: 25-Mar 18:58 :: All times are UTC + 3