Dakhla Brass / Murmur
Жанр: Nu Jazz / Fusion / Contemporary Jazz
Носитель: WEB
Год издания: 2018
Издатель (лейбл): Web Release [Impossible Ark]
Страна исполнителя (группы): UK
Аудиокодек: FLAC (*.flac)
Тип рипа: tracks
Битрейт аудио: lossless
Продолжительность: 41:59 min
Источник (релизер): 7digital.com
Наличие сканов в содержимом раздачи:
Треклист:
1. One Wicker Wisp. 4:35
2. Lotus. 3:26
3. 5000 What? 4:24
4. Murmuration. 5:18
5. Silver and Gold. 4:44
6. Insomnia Somnia. 5:23
7. The Last Host. 3:34
8. Zenith and Nadir. 3:33
9. Heartache and Loneliness. 3:39
10. Quicksand. 3:23

DRM.log

foobar2000 1.3.8 / Dynamic Range Meter 1.1.1log date: 2018-10-24 20:55:08
--------------------------------------------------------------------------------Analyzed: Dakhla Brass / Murmur--------------------------------------------------------------------------------
DR Peak RMS Duration Track--------------------------------------------------------------------------------DR13 -0.10 dB -15.00 dB 4:36 01-One Wicker WispDR12 -0.10 dB -13.56 dB 3:26 02-LotusDR11 -0.10 dB -13.39 dB 4:24 03-5000 What?DR12 -0.10 dB -15.36 dB 5:19 04-MurmurationDR12 -0.10 dB -15.07 dB 4:45 05-Silver and GoldDR13 -0.10 dB -15.07 dB 5:23 06-Insomnia SomniaDR13 -0.10 dB -16.38 dB 3:35 07-The Last HostDR12 -0.10 dB -15.34 dB 3:33 08-Zenith and NadirDR12 -0.10 dB -15.89 dB 3:39 09-Heartache and LonelinessDR13 -0.10 dB -14.93 dB 3:23 10-Quicksand--------------------------------------------------------------------------------
Number of tracks: 10Official DR value: DR12
Samplerate: 44100 HzChannels: 2Bits per sample: 16Bitrate: 789 kbpsCodec: FLAC================================================================================

Лог проверки качества

-----------------------
DON'T MODIFY THIS FILE
-----------------------
PERFORMER: auCDtect Task Manager, ver. 1.6.0 RC1 build 1.6.0.1Copyright (c) 2008-2010 y-soft. All rights reservedhttp://y-soft.org
ANALYZER: auCDtect: CD records authenticity detector, version 0.8.2Copyright (c) 2004 Oleg Berngardt. All rights reserved.Copyright (c) 2004 Alexander Djourik. All rights reserved.
FILE: 01 - One Wicker Wisp.flac Size: 26806728 Hash: 4B856070E10145D5613B965422D5E5AB Accuracy: -m0 Conclusion: CDDA 100% Signature: 9FA83E50EBE4899D3457598468115DB052E02E11FILE: 02 - Lotus.flac Size: 20838008 Hash: 41FF1067284CD026660CE48DD0A68D8E Accuracy: -m0 Conclusion: CDDA 100% Signature: 2439F54BF48B4D29F13E86D53E48AABD9AD5B9AFFILE: 03 - 5000 What!.flac Size: 27352677 Hash: 3DF5F794A28339D16242B45DA64B795A Accuracy: -m0 Conclusion: CDDA 100% Signature: 07C7A0D2773D69E635DD2C38B881256BB316BEABFILE: 04 - Murmuration.flac Size: 28896511 Hash: 227A2D21F13A4803357EB0BAFE5032B5 Accuracy: -m0 Conclusion: CDDA 100% Signature: BA664AFE4ED2C980A520F6B46B3BD2B855F6EF79FILE: 05 - Silver and Gold.flac Size: 25767521 Hash: D13AEAD3EFE5E29F787833D1A2175280 Accuracy: -m0 Conclusion: CDDA 100% Signature: 9885EF76BD256305C0EB81974C764C0F4640C5A4FILE: 06 - Insomnia Somnia.flac Size: 29362212 Hash: C54B48A73287539EFF1225BAA63DC93B Accuracy: -m0 Conclusion: CDDA 100% Signature: 8A29EC36DE5BAEA02F9A5AC304ECE367820E2CBFFILE: 07 - The Last Host.flac Size: 19074942 Hash: 66785526FED2F8DA35B853ED02D86F36 Accuracy: -m0 Conclusion: CDDA 100% Signature: 4C5B5FA102BDA2BCC195D1765EFE68D242878F40FILE: 08 - Zenith and Nadir.flac Size: 20315378 Hash: F3A89AFFC7C8420237618786E857578C Accuracy: -m0 Conclusion: CDDA 100% Signature: 9962FFD593499B8A2264696F4043084DCEE49258FILE: 09 - Heartache and Loneliness.flac Size: 20125748 Hash: 1581BE4BC914A833D4E5FBC7A15372E9 Accuracy: -m0 Conclusion: CDDA 100% Signature: 6814C0016B84567D17147697B9450383A84EFF5BFILE: 10 - Quicksand.flac Size: 20248260 Hash: 2FFDEDD6470A5481D545B24B5D45E709 Accuracy: -m0 Conclusion: CDDA 100% Signature: A9EA0424F72059EF5B83153C1C681B1AD75E97CE

Об альбоме (сборнике)

release date: 12.10.18

If you like the topic, please click share to help develop our site.

To download the file disable ad blocking, and reload the page.

disable adblock How to disable ad blocking?

Download by magnet link 229 MB Download Torrent

Login using:

Similar topics



   
Current time is: 25-May 11:53 :: All times are UTC + 3