Florian Pellissier Quintet - Bijou Voyou Caillou
Жанр: Post-Bop, Contemporary Jazz, Modal
Носитель: CD
Страна-производитель диска (релиза): Франция
Год издания: 2018
Издатель (лейбл): Heavenly Sweetness
Номер по каталогу: HS178CD
Аудиокодек: FLAC (*.flac)
Тип рипа: tracks+.cue
Битрейт аудио: lossless
Продолжительность: 68:18
Источник (релизер): zosmic
Наличие сканов в содержимом раздачи: да
Треклист:
01. Fuck with the Police (Pellissier) - 9:28
02. South Beach (Pellissier-Zelnik-Panzani-Loustalot-Georgelet-Loeffel-Raspail) - 6:50
03. Bijou voyou caillou (Arthur H-Pellissier-Zelnik-Georgelet-Loustalot-Panzani) - 5:36
04. Hibou bleu (Arthur H-Pellissier-Zelnik-Georgelet-Loustalot-Panzani) - 4:47
05. Coup de foudre a Thessalonique (Pellissier-Loustalot) - 4:22
06. Colchiques dans les pres (Cockenpot) - 2:55
07. Boca (Joseph-Pellissier) - 7:51
08. Colosse de Rhodes (Pellissier-Zelnik-Georgelet-Loustalot-Panzani) - 6:06
09. Interlude chou (Pellissier) - 3:20
10. Espions (Pellissier) - 7:41
11. Jazz Carnival (Bertrami-Conte-Malheiros) - 9:22
Состав:
Florian Pellissier - piano
Yoni Zelnik - bass
David Georgelet - drums
Christophe Panzani - saxophone
Yoann Loustalot - trumpet, flugelhorn
Roger Raspail, Erwan Loeffel (#1,2,7,11) - percussion
Arthur H (#3,4), Anthony Joseph (#7) - vocals
Recorded at Studio Question de Son, Paris.

Лог создания рипа

Exact Audio Copy V1.0 beta 4 from 7. December 2014
EAC extraction logfile from 22. August 2018, 21:59
Florian Pellissier Quintet / Bijou Voyou Caillou
Used drive : ATAPI iHAS124 E Adapter: 1 ID: 0
Read mode : SecureUtilize accurate stream : YesDefeat audio cache : YesMake use of C2 pointers : No
Read offset correction : 6Overread into Lead-In and Lead-Out : NoFill up missing offset samples with silence : YesDelete leading and trailing silent blocks : NoNull samples used in CRC calculations : YesUsed interface : Native Win32 interface for Win NT & 2000Gap handling : Appended to previous track
Used output format : User Defined EncoderSelected bitrate : 896 kBit/sQuality : HighAdd ID3 tag : NoCommand line compressor : C:\Program Files\flac-1.3.2-win\win32\flac.exeAdditional command line options : -8 -V -T "ARTIST=%artist%" -T "TITLE=%title%" -T "ALBUM=%albumtitle%" -T "DATE=%year%" -T "TRACKNUMBER=%tracknr%" -T "GENRE=%genre%" -T "COMMENT=ripped by vp_sunset" %source% -o %dest%
TOC of the extracted CD
Track | Start | Length | Start sector | End sector --------------------------------------------------------- 1 | 0:00.00 | 9:27.41 | 0 | 42565 2 | 9:27.41 | 6:50.03 | 42566 | 73318 3 | 16:17.44 | 5:35.64 | 73319 | 98507 4 | 21:53.33 | 4:46.73 | 98508 | 120030 5 | 26:40.31 | 4:22.34 | 120031 | 139714 6 | 31:02.65 | 2:54.48 | 139715 | 152812 7 | 33:57.38 | 7:51.04 | 152813 | 188141 8 | 41:48.42 | 6:06.34 | 188142 | 215625 9 | 47:55.01 | 3:20.06 | 215626 | 230631 10 | 51:15.07 | 7:41.34 | 230632 | 265240 11 | 58:56.41 | 9:21.47 | 265241 | 307362
Track 1
Filename C:\_EAC\01. Fuck with the Police.wav
Pre-gap length 0:00:02.00
Peak level 100.0 % Extraction speed 1.2 X Track quality 100.0 % Test CRC D6330E07 Copy CRC D6330E07 Track not present in AccurateRip database Copy OK
Track 2
Filename C:\_EAC\02. South Beach.wav
Peak level 100.0 % Extraction speed 1.2 X Track quality 99.9 % Test CRC 7DEB7095 Copy CRC 7DEB7095 Track not present in AccurateRip database Copy OK
Track 3
Filename C:\_EAC\03. Bijou voyou caillou.wav
Peak level 99.2 % Extraction speed 1.5 X Track quality 100.0 % Test CRC 215F6A97 Copy CRC 215F6A97 Track not present in AccurateRip database Copy OK
Track 4
Filename C:\_EAC\04. Hibou bleu.wav
Peak level 99.4 % Extraction speed 1.5 X Track quality 100.0 % Test CRC EF6E5FE3 Copy CRC EF6E5FE3 Track not present in AccurateRip database Copy OK
Track 5
Filename C:\_EAC\05. Coup de foudre à Thessalonique.wav
Peak level 99.2 % Extraction speed 1.6 X Track quality 100.0 % Test CRC D0FF3028 Copy CRC D0FF3028 Track not present in AccurateRip database Copy OK
Track 6
Filename C:\_EAC\06. Colchiques dans les prés.wav
Peak level 99.4 % Extraction speed 1.3 X Track quality 99.9 % Test CRC 7A80A5CC Copy CRC 7A80A5CC Track not present in AccurateRip database Copy OK
Track 7
Filename C:\_EAC\07. Boca.wav
Peak level 100.0 % Extraction speed 1.9 X Track quality 100.0 % Test CRC 22294FD8 Copy CRC 22294FD8 Track not present in AccurateRip database Copy OK
Track 8
Filename C:\_EAC\08. Colosse de Rhodes.wav
Peak level 100.0 % Extraction speed 1.9 X Track quality 100.0 % Test CRC 35D504D7 Copy CRC 35D504D7 Track not present in AccurateRip database Copy OK
Track 9
Filename C:\_EAC\09. Interlude chou.wav
Peak level 98.6 % Extraction speed 1.9 X Track quality 100.0 % Test CRC D621DDA5 Copy CRC D621DDA5 Track not present in AccurateRip database Copy OK
Track 10
Filename C:\_EAC\10. Espions.wav
Peak level 99.3 % Extraction speed 2.0 X Track quality 99.9 % Test CRC 29C765D7 Copy CRC 29C765D7 Track not present in AccurateRip database Copy OK
Track 11
Filename C:\_EAC\11. Jazz Carniva.wav
Peak level 100.0 % Extraction speed 2.3 X Track quality 100.0 % Test CRC 6925D8E6 Copy CRC 6925D8E6 Track not present in AccurateRip database Copy OK
None of the tracks are present in the AccurateRip database
No errors occurred
End of status report
---- CUETools DB Plugin V2.1.4
[CTDB TOCID: urBUMmTTlJVASN235omuBeKNI20-] foundSubmit result: urBUMmTTlJVASN235omuBeKNI20- has been confirmedTrack | CTDB Status 1 | (3/3) Accurately ripped 2 | (3/3) Accurately ripped 3 | (3/3) Accurately ripped 4 | (3/3) Accurately ripped 5 | (3/3) Accurately ripped 6 | (3/3) Accurately ripped 7 | (3/3) Accurately ripped 8 | (3/3) Accurately ripped 9 | (3/3) Accurately ripped 10 | (3/3) Accurately ripped 11 | (3/3) Accurately ripped
==== Log checksum 8AAFAB45B985A6428C17656880AA61D9CD744E7D5784CC5FBB41605D984289B4 ====

Содержание индексной карты (.CUE)

REM GENRE JazzREM DATE 2018REM DISCID A710020BREM COMMENT "ExactAudioCopy v1.0b4"PERFORMER "Florian Pellissier"TITLE "Bijou Voyou Caillou"FILE "01 - Fuck with the Police.wav" WAVE  TRACK 01 AUDIO    TITLE "Fuck with the Police"    PERFORMER "Florian Pellissier"    INDEX 01 00:00:00FILE "02 - South Beach.wav" WAVE  TRACK 02 AUDIO    TITLE "South Beach"    PERFORMER "Florian Pellissier"    INDEX 01 00:00:00FILE "03 - Bijou voyou caillou.wav" WAVE  TRACK 03 AUDIO    TITLE "Bijou voyou caillou"    PERFORMER "Florian Pellissier"    INDEX 01 00:00:00FILE "04 - Hibou bleu.wav" WAVE  TRACK 04 AUDIO    TITLE "Hibou bleu"    PERFORMER "Florian Pellissier"    INDEX 01 00:00:00FILE "05 - Coup de foudre a Thessalonique.wav" WAVE  TRACK 05 AUDIO    TITLE "Coup de foudre a Thessalonique"    PERFORMER "Florian Pellissier"    INDEX 01 00:00:00FILE "06 - Colchiques dans les pres.wav" WAVE  TRACK 06 AUDIO    TITLE "Colchiques dans les pres"    PERFORMER "Florian Pellissier"    INDEX 01 00:00:00FILE "07 - Boca.wav" WAVE  TRACK 07 AUDIO    TITLE "Boca"    PERFORMER "Florian Pellissier"    INDEX 01 00:00:00FILE "08 - Colosse de Rhodes.wav" WAVE  TRACK 08 AUDIO    TITLE "Colosse de Rhodes"    PERFORMER "Florian Pellissier"    INDEX 01 00:00:00FILE "09 - Interlude chou.wav" WAVE  TRACK 09 AUDIO    TITLE "Interlude chou"    PERFORMER "Florian Pellissier"    INDEX 01 00:00:00FILE "10 - Espions.wav" WAVE  TRACK 10 AUDIO    TITLE "Espions"    PERFORMER "Florian Pellissier"    INDEX 01 00:00:00FILE "11 - Jazz Carnival.wav" WAVE  TRACK 11 AUDIO    TITLE "Jazz Carnival"    PERFORMER "Florian Pellissier"    INDEX 01 00:00:00

Отчет CUETools

[CUETools log; Date: 24.10.2018 19:29:45; Version: 2.1.5][CTDB TOCID: urBUMmTTlJVASN235omuBeKNI20-] found.Track | CTDB Status  1   | (4/4) Accurately ripped  2   | (4/4) Accurately ripped  3   | (4/4) Accurately ripped  4   | (4/4) Accurately ripped  5   | (4/4) Accurately ripped  6   | (4/4) Accurately ripped  7   | (4/4) Accurately ripped  8   | (4/4) Accurately ripped  9   | (4/4) Accurately ripped 10   | (4/4) Accurately ripped 11   | (4/4) Accurately ripped[AccurateRip ID: 001bfbe4-00ed822b-a710020b] found.Track   [  CRC   |   V2   ] Status 01     [765a1c37|b3249d0e] (0+1/1) Accurately ripped 02     [dabf2e99|a696f3c0] (0+1/1) Accurately ripped 03     [406b6756|6b1fc9aa] (0+1/1) Accurately ripped 04     [915b4d11|3e91292d] (0+1/1) Accurately ripped 05     [8a762c87|1bcb95b8] (0+1/1) Accurately ripped 06     [389e116e|3fd3a0d3] (0+1/1) Accurately ripped 07     [ab8c3346|129783fc] (0+1/1) Accurately ripped 08     [7bccd736|3c8f09e4] (0+1/1) Accurately ripped 09     [86379a93|37ed29bd] (0+1/1) Accurately ripped 10     [0b0adb23|69493fb2] (0+1/1) Accurately ripped 11     [1d2faa66|fbdbbe46] (0+1/1) Accurately ripped
Track Peak [ CRC32 ] [W/O NULL] [ LOG ] -- 100,0 [51336805] [E9063FF9] 01 100,0 [D6330E07] [C4C5E9C1] CRC32 02 100,0 [7DEB7095] [1ECDC345] CRC32 03 99,2 [215F6A97] [D9FEC82B] CRC32 04 99,4 [EF6E5FE3] [65A4105C] CRC32 05 99,2 [D0FF3028] [E584B4DA] CRC32 06 99,4 [7A80A5CC] [C8B08E52] CRC32 07 100,0 [22294FD8] [1034590F] CRC32 08 99,9 [35D504D7] [F2CEA5CE] CRC32 09 98,6 [D621DDA5] [D88B5D66] CRC32 10 99,3 [29C765D7] [ABF48320] CRC32 11 100,0 [6925D8E6] [28CC45C1] CRC32

If you like the topic, please click share to help develop our site.

To download the file disable ad blocking, and reload the page.

disable adblock How to disable ad blocking?

Download by magnet link 444 MB Download Torrent

Login using:

Similar topics



   
Current time is: 21-Mar 06:17 :: All times are UTC + 3