Информация о фильме
Название: Пол: Секретный материальчик
Оригинальное название: Paul
Год выхода: 2011
Режиссер: Грег Моттола
В ролях: Саймон Пегг, Ник Фрост, Джереми Оуэн, Джефри Тэмбор, Дэвид Хаус, Дженнифер Грэйнджер, Сигурни Уивер, Нельсон Асценсио, Джейн Линч, Дэвид Кокнер, Джесси Племонс
О фильме:
Два английских гика отправляются на одно из самых значимых фанатских событий в области фантастики - конвент ComicCon в Америке. По пути, неподалёку от известной Зоны 51, они встречают сбежавшего инопланетянина по имени Пол, который просит помочь ему добраться домой. Пытаясь спастись от правительственных агентов, герои случайно похищают женщину и натыкаются на обкуренную свидетельницу аварийной посадки Пола на Землю.

Страна: США, Великобритания
Студия: Universal Pictures, Relativity Media, Working Title Films
Продолжительность: 01:49:18
Перевод: Профессиональный (полное дублирование) + 2xVO Любительский (одноголосый закадровый) den904 и Штрих [полный перевод]
Файл:
Качество: BDRip 1080p (EbP)
Формат: MKV
Видео: MPEG-4 AVC Video / 13.0 Mbps / 1920 x 816 p / 23.976 fps / 2.353: 1 / High Profile 4.1
Дорожка №1: Русский AC3 DD 5.1, 48 kHz ~ 448 kbps | Профессиональный (полное дублирование) R5 со вставками DVO [den904 | Штрих]
Дорожка №2: Русский DTS, 5.1, 48 kHz, ~1510 kbps | VO Любительский (одноголосый закадровый) [den904]
Дорожка №3: Русский DTS, 5.1, 48 kHz, ~1510 kbps | VO Любительский (одноголосый закадровый) [Штрих aka REN 313]
Дорожка №4: English / DTS Core: 5.1 / 48 kHz / 1510 kbps / 24-bit
Дорожка №5: Украинский AC3 DD 2.0, 48 kHz ~ 192 kbps | Профессиональный (полное дублирование)
Субтитры №1: Русские (только надписи + не озвученные фразы Dub)
Субтитры №2: Русские (полные Voronine)
Субтитры №3: Русские (только надписи и пр.)
Субтитры №4: Украинские (не озвученные фразы Dub)
Субтитры №5: Английские
Субтитры №6: Английские (Комментарии)
Чаптеры: имеются---

Видеоряд от EbP

Source vs EbP vs Scene

Скриншоты

MI

General
Complete name                    : F:  -= Фильмы =-Пол. Секретный материальчик (2011. Paul).mkv
Format                           : Matroska
File size                        : 13.9 GiB
Duration                         : 1h 49mn
Overall bit rate                 : 18.2 Mbps
Encoded date                     : UTC 2011-07-16 21:01:55
Writing application              : mkvmerge v4.0.0 ('The Stars were mine') сборка от Jun  6 2010 16:18:42
Writing library                  : libebml v1.0.0 + libmatroska v1.0.0
Video
ID                               : 1
Format                           : AVC
Format/Info                      : Advanced Video Codec
Format profile                   : [email protected]
Format settings, CABAC           : Yes
Format settings, ReFrames        : 5 frames
Muxing mode                      : Container [email protected]
Codec ID                         : V_MPEG4/ISO/AVC
Duration                         : 1h 49mn
Bit rate                         : 13.0 Mbps
Width                            : 1 920 pixels
Height                           : 816 pixels
Display aspect ratio             : 2.35:1
Frame rate                       : 23.976 fps
Color space                      : YUV
Chroma subsampling               : 4:2:0
Bit depth                        : 8 bits
Scan type                        : Progressive
Bits/(Pixel*Frame)               : 0.346
Stream size                      : 9.65 GiB (70%)
Title                            : Paul (2011)
Writing library                  : x264 core 115 r1995 c1e60b9
Encoding settings                : cabac=1 / ref=5 / deblock=1:-3:-3 / analyse=0x3:0x113 / me=tesa / subme=10 / psy=1 / psy_rd=1.10:0.00 / mixed_ref=1 / me_range=16 / chroma_me=1 / trellis=2 / 8x8dct=1 / cqm=0 / deadzone=21,11 / fast_pskip=0 / chroma_qp_offset=-2 / threads=12 / sliced_threads=0 / nr=0 / decimate=0 / interlaced=0 / bluray_compat=0 / constrained_intra=0 / bframes=7 / b_pyramid=2 / b_adapt=2 / b_bias=0 / direct=3 / weightb=1 / open_gop=0 / weightp=2 / keyint=250 / keyint_min=23 / scenecut=40 / intra_refresh=0 / rc=2pass / mbtree=0 / bitrate=13000 / ratetol=1.0 / qcomp=0.60 / qpmin=0 / qpmax=69 / qpstep=4 / cplxblur=20.0 / qblur=0.5 / ip_ratio=1.40 / pb_ratio=1.30 / aq=1:0.65
Language                         : English
Audio #1
ID                               : 2
Format                           : AC-3
Format/Info                      : Audio Coding 3
Mode extension                   : CM (complete main)
Codec ID                         : A_AC3
Duration                         : 1h 49mn
Bit rate mode                    : Constant
Bit rate                         : 448 Kbps
Channel(s)                       : 6 channels
Channel positions                : Front: L C R, Side: L R, LFE
Sampling rate                    : 48.0 KHz
Bit depth                        : 16 bits
Stream size                      : 350 MiB (2%)
Title                            : Russian DD 5.1 448 kbps [Dub+DVO]
Language                         : Russian
Audio #2
ID                               : 3
Format                           : DTS
Format/Info                      : Digital Theater Systems
Codec ID                         : A_DTS
Duration                         : 1h 49mn
Bit rate mode                    : Constant
Bit rate                         : 1 510 Kbps
Channel(s)                       : 6 channels
Channel positions                : Front: L C R, Side: L R, LFE
Sampling rate                    : 48.0 KHz
Bit depth                        : 24 bits
Stream size                      : 1.15 GiB (8%)
Title                            : Russian DTS-HDMA core 5.1 1509Kbps [Vo - den904]
Language                         : Russian
Audio #3
ID                               : 4
Format                           : DTS
Format/Info                      : Digital Theater Systems
Codec ID                         : A_DTS
Duration                         : 1h 49mn
Bit rate mode                    : Constant
Bit rate                         : 1 510 Kbps
Channel(s)                       : 6 channels
Channel positions                : Front: L C R, Side: L R, LFE
Sampling rate                    : 48.0 KHz
Bit depth                        : 24 bits
Stream size                      : 1.15 GiB (8%)
Title                            : Russian DTS-HDMA core 5.1 1509Kbps [Vo - REN 313]
Language                         : Russian
Audio #4
ID                               : 5
Format                           : AC-3
Format/Info                      : Audio Coding 3
Mode extension                   : CM (complete main)
Codec ID                         : A_AC3
Duration                         : 1h 49mn
Bit rate mode                    : Constant
Bit rate                         : 192 Kbps
Channel(s)                       : 2 channels
Channel positions                : Front: L R
Sampling rate                    : 48.0 KHz
Bit depth                        : 16 bits
Stream size                      : 150 MiB (1%)
Title                            : Ukrainian DD 2.0 192 kbps [Dub]
Language                         : Ukrainian
Audio #5
ID                               : 6
Format                           : DTS
Format/Info                      : Digital Theater Systems
Codec ID                         : A_DTS
Duration                         : 1h 49mn
Bit rate mode                    : Constant
Bit rate                         : 1 510 Kbps
Channel(s)                       : 6 channels
Channel positions                : Front: L C R, Side: L R, LFE
Sampling rate                    : 48.0 KHz
Bit depth                        : 24 bits
Stream size                      : 1.15 GiB (8%)
Title                            : Original DTS-CORE 1536K
Language                         : English
Text #1
ID                               : 7
Format                           : UTF-8
Codec ID                         : S_TEXT/UTF8
Codec ID/Info                    : UTF-8 Plain Text
Title                            : Russian @ SRT [только надписи + не озвученные фразы Dub]
Language                         : Russian
Text #2
ID                               : 8
Format                           : UTF-8
Codec ID                         : S_TEXT/UTF8
Codec ID/Info                    : UTF-8 Plain Text
Title                            : Russian @ SRT [полные Voronine]
Language                         : Russian
Text #3
ID                               : 9
Format                           : UTF-8
Codec ID                         : S_TEXT/UTF8
Codec ID/Info                    : UTF-8 Plain Text
Title                            : Russian @ SRT [только надписи и пр.]
Language                         : Russian
Text #4
ID                               : 10
Format                           : UTF-8
Codec ID                         : S_TEXT/UTF8
Codec ID/Info                    : UTF-8 Plain Text
Title                            : Ukrainian @ SRT [не озвученные фразы Dub]
Language                         : Ukrainian
Text #5
ID                               : 11
Format                           : UTF-8
Codec ID                         : S_TEXT/UTF8
Codec ID/Info                    : UTF-8 Plain Text
Title                            : English @ SRT
Language                         : English
Text #6
ID                               : 12
Format                           : UTF-8
Codec ID                         : S_TEXT/UTF8
Codec ID/Info                    : UTF-8 Plain Text
Title                            : English @ SRT [Commentary]
Language                         : English
Menu
00:00:00.000                     : en:00:00:00.000
00:05:41.299                     : en:00:05:41.299
00:13:11.791                     : en:00:13:11.791
00:19:07.229                     : en:00:19:07.229
00:26:19.036                     : en:00:26:19.036
00:31:34.059                     : en:00:31:34.059
00:34:08.004                     : en:00:34:08.004
00:39:42.672                     : en:00:39:42.672
00:44:13.484                     : en:00:44:13.484
00:47:44.403                     : en:00:47:44.403
00:55:14.936                     : en:00:55:14.936
01:00:51.773                     : en:01:00:51.773
01:05:03.733                     : en:01:05:03.733
01:11:37.460                     : en:01:11:37.460
01:16:23.787                     : en:01:16:23.787
01:23:24.374                     : en:01:23:24.374
01:26:02.449                     : en:01:26:02.449
01:32:11.234                     : en:01:32:11.234
01:36:07.178                     : en:01:36:07.178
01:41:07.394                     : en:01:41:07.394

Интересные факты

Пол утверждает, что послужил прототипом для "маленьких зелёных человечков" (англ.), а также дал идею таким голливудским картинам, как «Близкие контакты третьей степени» и «Инопланетянин» Стивена Спилберга, и придумал Малдера из «Секретных материалов».
Во время сцены потасовки в баре местный ансамбль играет композицию Джона Уильямса из кинофильма «Звёздные войны. Эпизод IV: Новая надежда» (эпизод в баре), адаптируя её под стиль кантри.
Пол также утверждает, что Боб Дилан скончался от передозировки наркотиков.
В магазине фейерверков звучит музыкальный пентатон из кинофильма «Близкие контакты третьей степени». Место встречи Пола со спасательной экспедицией — «Чёртова башня» из этой же картины.
В конце фильма в сцене , когда Большой брат (Сигурни Уивер) обезвредила почти всех, Тара (Девочка из прошлого, которая спасла Пола) перед тем как "вырубить" Большого брата сказала интересную фразу :
А ну отойди от нее, сука!
Эта фраза была произнесена в фильме «Чужие» героем Рипли (Сигурни Уивер) в сцене борьбы с Маткой ксеноморфов .
Когда агент Лоренцо Зойл выстреливает из пистолета в рацию после беседы с Большим Братом, он произносит
Пустой разговор какой то.
Эта фраза напоминает слова Хэна Соло из фильма «Звёздные войны. Эпизод IV: Новая надежда», произнесенную им на Звезде Смерти при схожих обстоятельствах.
Имя Лоренсо Зоил, так удивившее героев — отсылка к фильму Джорджа Миллера «Масло Лоренсо» (Lorenzo's_Oil|«Lorenzo's Oil»)
--Релиз группы:

If you like the topic, please click share to help develop our site.

To download the file disable ad blocking, and reload the page.

disable adblock How to disable ad blocking?

Download by magnet link 13.87 GB Download Torrent

Login using:

Similar topics



   
Current time is: 21-Mar 07:10 :: All times are UTC + 3