- Оружие Первой мировой войны (2014) WEB-DLRip (4 серии из 4)- Производство: Россия, ООО «ВИАНЖ ПРОДАКШН», ОАО «ТРК ВС РФ «ЗВЕЗДА»
Жанр: Документальный, война, оружие, история
Описание:
Первая Мировая, или как ее еще называют, Великая война, стала одной из самых кровопролитных в истории человечества. Это был итог военного противостояния двух европейских военно-политических блоков - Тройственного союза и Антанты. В общей сложности, в Первую Мировую, было вовлечено свыше 30 государств с общей численностью населения более 1 миллиарда. 10 миллионов человек погибло на полях сражений, еще 20 миллионов - от эпидемий, голода и лишений. Война изменила политическую карту планеты и картину мира. Она дала толчок революциям, которые привели к новым противостояниям. Первая Мировая, как никакая другая война, послужила развитию нового оружия - танков, подводных лодок, самолетов. В этом сериале рассказано обо всех видах вооружений, использовавшихся во время Первой мировой войны.
Релиз от: alf62
Продолжительность: 4 х ~ 00:38:30
Качество видео: WEB-DLRip [thumb]http://multi-up.com/1212777[/thumb]
Видео: Xvid, 720x400, ~1900 Kbps
Аудио: AC3, 2 ch, 192 Kbps

Список серий

1. Жатва смерти
В фильме рассказывается о стрелковом и холодном оружии, о том, насколько характер боевых действий изменило появление пулемёта, о новых видах вооружения, таких как огнемёт и химическое оружие.
2. На острие прорыва
Фильм посвящён оружию, чьим назначением стал прорыв укреплённых позиций противника: гранаты, миномёты, артиллерийские орудия, бронеавтомобили и танки.
3. Воздушная тревога
Фильм повествует о зарождении боевой авиации и средствах борьбы с нею: военные дирижабли, самолёты-разведчики, бомбардировщики, истребители, зенитные орудия.
4. Морской бой. Правила игры
В заключительном фильме представлены основные виды надводных кораблей и подводных лодок, принимавших участие в Первой Мировой, а также отражено влияние боевых действий на море на ход всей войны.

Mediainfo:

Общее
Полное имя : D:\Запись\Оружие Первой мировой войны\Оружие.Первой.мировой.войны.(4.серии.из.4).2014.XviD.WEB-DLRip.alf62\1.Жатва.смерти.2014.XviD.WEB-DLRip.alf62.avi
Формат : AVI
Формат/Информация : Audio Video Interleave
Размер файла : 580 Мбайт
Продолжительность : 38 м.
Общий поток : 2102 Кбит/сек
Программа кодирования : VirtualDubMod 1.5.10.3 | www.virtualdub-fr.org || (build 2550/release)
Библиотека кодирования : VirtualDubMod build 2550/release
Видео
Идентификатор : 0
Формат : MPEG-4 Visual
Профиль формата : Advanced [email protected]
Параметр BVOP формата : 2
Параметр QPel формата : Нет
Параметр GMC формата : Без точки перехода
Параметр матрицы формата : Default (MPEG)
Идентификатор кодека : XVID
Идентификатор кодека/Подсказка : XviD
Продолжительность : 38 м.
Битрейт : 1900 Кбит/сек
Ширина : 720 пикселей
Высота : 400 пикселей
Соотношение сторон : 16:9
Частота кадров : 25,000 кадров/сек
Цветовое пространство : YUV
Субдискретизация насыщенности : 4:2:0
Битовая глубина : 8 бит
Тип развёртки : Прогрессивная
Метод сжатия : С потерями
Бит/(Пиксели*Кадры) : 0.264
Размер потока : 525 Мбайт (90%)
Библиотека кодирования : XviD 73
Аудио
Идентификатор : 1
Формат : AC-3
Формат/Информация : Audio Coding 3
Расширение режима : CM (complete main)
Параметр Endianness формата : Big
Идентификатор кодека : 2000
Продолжительность : 38 м.
Вид битрейта : Постоянный
Битрейт : 192 Кбит/сек
Каналы : 2 канала
Расположение каналов : Front: L R
Частота : 48,0 КГц
Частота кадров : 31,250 кадров/сек (1536 spf)
Метод сжатия : С потерями
Размер потока : 53,0 Мбайт (9%)
Выравнивание : Разделение по промежуткам
Продолжительность промежутка : 40 мс. (1,00 видеокадр)
Время предзагрузки промежутка : 500 мс.
Скриншоты:

Дополнительные скриншоты:

Все одноименные релизы в КлубеВремя раздачи: до появления первых 3-5 скачавших

If you like the topic, please click share to help develop our site.

To download the file disable ad blocking, and reload the page.

disable adblock How to disable ad blocking?

Download by magnet link 2.26 GB Download Torrent

Login using:

Similar topics



   
Current time is: 19-May 23:38 :: All times are UTC + 3