Наклбол / Knuckleball
«Всё ещё вижу тебя»-

Год выпуска: 2018
Страна: Канада
Производство: 775 Media Corp
Жанр: Триллер
Режиссёр: Майкл Питерсон
В ролях: Майкл Айронсайд, Манро Чэмберс, Лука Вийясис, Кэтлин Манро, Шеньер Хундал, Джулиан Шэмп, Криста Бриджес, Дрю Нельсон, Мэри Зайдек, Мартин Квапил
Перевод: Профессиональный (многоголосый, закадровый) | [HDRezka Studio]
Субтитры: Английские (полные, SDH)
Реклама: Отсутствует
Описание: Родителям Генри срочно понадобилось уехать на похороны. На время своего отсутствия они решают оставить двенадцатилетнего мальчика с его дедушкой, который живет на ферме. Старик оказался немного грубоватым, но достаточно добрым к внуку. Заметив, что Генри увлекается бейсболом, дедушка помогает ему выучить сложный бросок. Однажды утром, зайдя в спальню к деду, парень находит его мертвым. В поисках помощи Генри обращается к его соседу Диксону, но оказывается, что молодой мужчина психически нездоров. Несмотря на то, что ему удается сбежать, Генри понимает, что очень скоро сосед отправится на его поиски, поэтому начинает подготавливать дом к приходу незваного гостя.

Качество: WEB-DL 1080p | iTunes Version | Knuckleball.2018.1080p.WEB-DL.DD5.1.H264-FGT
Продолжительность: 01:28:43
Формат: MKV
Видео кодек: MPEG-4 AVC
Аудио кодек: AC3
Видео: 1920x788 (2.40:1), 23,976 fps, x264 ~4 502 kbps avg, 0.124 bit/pixel
Аудио #1: 48 kHz, AC3 Dolby Digital, 2 (L,R) ch, ~192.00 kbps avg | RUS (HDRezka Studio)
Аудио #2: 48 kHz, AC3 Dolby Digital, 3/2 (L,C,R,l,r) + LFE ch, ~384.00 kbps avg | ENG
Дата премьеры (мир): 3 марта 2018
Дата премьеры (РФ):

Релиз от:

MediaInfo

Общее
Уникальный идентификатор : 118579127663566138119357020659828617336 (0x5935825FD2F04EB7CD8471E5664B7078)
Полное имя : F:OlLanDGroupKnuckleball.2018.WEB-DL(1080p).OlLanDGroup.mkv
Формат : Matroska
Версия формата : Version 4 / Version 2
Размер файла : 3,15 Гбайт
Продолжительность : 1 ч. 28 м.
Общий поток : 5080 Кбит/сек
Название фильма : Knuckleball.2018 #TorpedoUK#
Дата кодирования : UTC 2018-10-25 02:42:24
Программа кодирования : mkvmerge v25.0.0 ('Prog Noir') 64-bit
Библиотека кодирования : libebml v1.3.6 + libmatroska v1.4.9
Видео
Идентификатор : 1
Формат : AVC
Формат/Информация : Advanced Video Codec
Профиль формата : [email protected]
Параметр CABAC формата : Да
Параметр ReFrames формата : 5 кадров
Идентификатор кодека : V_MPEG4/ISO/AVC
Продолжительность : 1 ч. 28 м.
Битрейт : 4502 Кбит/сек
Ширина : 1920 пикселей
Высота : 788 пикселей
Соотношение сторон : 2,40:1
Режим частоты кадров : Постоянный
Частота кадров : 23,976 (23976/1000) кадра/сек
Цветовое пространство : YUV
Субдискретизация насыщенности : 4:2:0
Битовая глубина : 8 бит
Тип развёртки : Прогрессивная
Бит/(Пиксели*Кадры) : 0.124
Размер потока : 2,79 Гбайт (89%)
Язык : English
Default : Да
Forced : Нет
Цветовой диапазон : Limited
Основные цвета : BT.709
Характеристики трансфера : BT.709
Коэффициенты матрицы : BT.709
Аудио #1
Идентификатор : 2
Формат : AC-3
Формат/Информация : Audio Coding 3
Расширение режима : CM (complete main)
Параметр Endianness формата : Big
Идентификатор кодека : A_AC3
Продолжительность : 1 ч. 28 м.
Вид битрейта : Постоянный
Битрейт : 192 Кбит/сек
Каналы : 2 канала
Расположение каналов : Front: L R
Частота : 48,0 КГц
Частота кадров : 31,250 кадров/сек (1536 spf)
Битовая глубина : 16 бит
Метод сжатия : С потерями
Задержка видео : -42 мс.
Размер потока : 122 Мбайт (4%)
Заголовок : MVO [HDRezka Studio]
Язык : Russian
Default : Да
Forced : Нет
Аудио #2
Идентификатор : 3
Формат : AC-3
Формат/Информация : Audio Coding 3
Расширение режима : CM (complete main)
Параметр Endianness формата : Big
Идентификатор кодека : A_AC3
Продолжительность : 1 ч. 28 м.
Вид битрейта : Постоянный
Битрейт : 384 Кбит/сек
Каналы : 6 каналов
Расположение каналов : Front: L C R, Side: L R, LFE
Частота : 48,0 КГц
Частота кадров : 31,250 кадров/сек (1536 spf)
Битовая глубина : 16 бит
Метод сжатия : С потерями
Задержка видео : -42 мс.
Размер потока : 244 Мбайт (8%)
Заголовок : [Original]
Язык : English
Default : Нет
Forced : Нет
Текст #1
Идентификатор : 4
Формат : UTF-8
Идентификатор кодека : S_TEXT/UTF8
Идентификатор кодека/Информация : UTF-8 Plain Text
Продолжительность : 1 ч. 27 м.
Битрейт : 23 бит/сек
Count of elements : 591
Размер потока : 14,9 Кбайт (0%)
Заголовок : Full
Язык : English
Default : Нет
Forced : Нет
Текст #2
Идентификатор : 5
Формат : UTF-8
Идентификатор кодека : S_TEXT/UTF8
Идентификатор кодека/Информация : UTF-8 Plain Text
Продолжительность : 1 ч. 28 м.
Битрейт : 29 бит/сек
Count of elements : 812
Размер потока : 19,4 Кбайт (0%)
Заголовок : SDH
Язык : English
Default : Нет
Forced : Нет
Меню
00:00:00.000 : en:1
00:10:51.026 : en:2
00:19:33.131 : en:3
00:29:45.493 : en:4
00:43:30.818 : en:5
00:53:48.310 : en:6
01:05:52.492 : en:7
01:13:58.144 : en:8
01:25:25.498 : en:9

Скриншоты




If you like the topic, please click share to help develop our site.

To download the file disable ad blocking, and reload the page.

disable adblock How to disable ad blocking?

Download by magnet link 3.15 GB Download Torrent

Login using:

Similar topics

Остров проклятых / Shutter Island (2010) BDRip 1080p
 7.76 GB   24 | 2   15-Apr-17 16:00   6
В глубине леса / In fondo al bosco (2015) HDTVRip 1080p
 6.17 GB   4 | 0   02-Jun-16 18:59   5
Мимик / Мимикрия / Mimic / Jang-san-beom (2017) HDRip 720p | L1
 2.23 GB   6 | 2   12-Jan-18 10:30   4


   
Current time is: 21-Mar 06:51 :: All times are UTC + 3