Floetry / Floetic (Japan Edition)
Жанр: Soul |Neo Soul | Funk
Носитель: CD
Страна-производитель диска (релиза): Japan
Год издания: 2003
Издатель (лейбл): DreamWorks Records
Номер по каталогу: UICW-1037
Страна исполнителя (группы): USA
Аудиокодек: FLAC (*.flac)
Тип рипа: tracks+.cue
Битрейт аудио: lossless
Продолжительность: 01:14:04
Источник (релизер): Red
Наличие сканов в содержимом раздачи: да
Треклист:

01. Big Ben (01:54)
02. Floetic (04:06)
03. Ms. Stress (03:54)
04. Sunshine (04:15)
05. Getting Late (06:49)
06. Fun (04:14)
07. Mr. Messed Up (04:22)
08. Say Yes (04:28)
09. Hello (04:09)
10. Headache (04:04)
11. Hey You (05:04)
12. If I Was A Bird (05:02)
13. Opera (04:00)
14. Subliminal (03:57)
15. Butterflies (Demo Version) (04:03)
16. Now You're Gone (More Than I Can Feel) (04:52)
17. Say Yes (Timberland Remix) (04:45)

Лог создания рипа

Exact Audio Copy V0.99 prebeta 4 from 23. January 2008
EAC extraction logfile from 7. March 2009, 0:41
Floetry / Floetic
Used drive : TSSTcorpCD/DVDW TS-L632D Adapter: 0 ID: 0
Read mode : SecureUtilize accurate stream : YesDefeat audio cache : YesMake use of C2 pointers : No
Read offset correction : 6Overread into Lead-In and Lead-Out : NoFill up missing offset samples with silence : YesDelete leading and trailing silent blocks : NoNull samples used in CRC calculations : YesUsed interface : Native Win32 interface for Win NT & 2000Gap handling : Appended to previous track
Used output format : User Defined EncoderSelected bitrate : 768 kBit/sQuality : HighAdd ID3 tag : NoCommand line compressor : C:\Program Files\FLAC\flac.exeAdditional command line options : -V -8 -T "artist=%a" -T "title=%t" -T "album=%g" -T "date=%y" -T "tracknumber=%n" -T "genre=%m" %s
TOC of the extracted CD
Track | Start | Length | Start sector | End sector --------------------------------------------------------- 1 | 0:00.00 | 1:54.30 | 0 | 8579 2 | 1:54.30 | 4:06.37 | 8580 | 27066 3 | 6:00.67 | 3:52.68 | 27067 | 44534 4 | 9:53.60 | 4:15.72 | 44535 | 63731 5 | 14:09.57 | 6:46.55 | 63732 | 94236 6 | 20:56.37 | 4:15.35 | 94237 | 113396 7 | 25:11.72 | 4:21.55 | 113397 | 133026 8 | 29:33.52 | 4:28.28 | 133027 | 153154 9 | 34:02.05 | 4:08.70 | 153155 | 171824 10 | 38:11.00 | 4:03.62 | 171825 | 190111 11 | 42:14.62 | 5:04.00 | 190112 | 212911 12 | 47:18.62 | 5:03.05 | 212912 | 235641 13 | 52:21.67 | 4:00.10 | 235642 | 253651 14 | 56:22.02 | 4:02.05 | 253652 | 271806 15 | 60:24.07 | 4:03.33 | 271807 | 290064 16 | 64:27.40 | 4:52.02 | 290065 | 311966 17 | 69:19.42 | 4:44.63 | 311967 | 333329
Track 1
Filename H:\Floetry - Floetic - 01 - Big Ben.wav
Pre-gap length 0:00:02.00
Peak level 100.0 % Track quality 100.0 % Test CRC F44E0A17 Copy CRC F44E0A17 Track not present in AccurateRip database Copy OK
Track 2
Filename H:\Floetry - Floetic - 02 - Floetic.wav
Peak level 100.0 % Track quality 100.0 % Test CRC 95D89E32 Copy CRC 95D89E32 Track not present in AccurateRip database Copy OK
Track 3
Filename H:\Floetry - Floetic - 03 - Ms. Stress.wav
Peak level 100.0 % Track quality 100.0 % Test CRC E2D6C6A9 Copy CRC E2D6C6A9 Track not present in AccurateRip database Copy OK
Track 4
Filename H:\Floetry - Floetic - 04 - Sunshine.wav
Peak level 100.0 % Track quality 100.0 % Test CRC 2C39A46E Copy CRC 2C39A46E Track not present in AccurateRip database Copy OK
Track 5
Filename H:\Floetry - Floetic - 05 - Getting Late.wav
Peak level 100.0 % Track quality 100.0 % Test CRC 121A7F8C Copy CRC 121A7F8C Track not present in AccurateRip database Copy OK
Track 6
Filename H:\Floetry - Floetic - 06 - Fun.wav
Peak level 100.0 % Track quality 100.0 % Test CRC FCF84357 Copy CRC FCF84357 Track not present in AccurateRip database Copy OK
Track 7
Filename H:\Floetry - Floetic - 07 - Mr. Messed Up.wav
Peak level 100.0 % Track quality 100.0 % Test CRC A431B8B5 Copy CRC A431B8B5 Track not present in AccurateRip database Copy OK
Track 8
Filename H:\Floetry - Floetic - 08 - Say Yes.wav
Peak level 100.0 % Track quality 100.0 % Test CRC B44F3D32 Copy CRC B44F3D32 Track not present in AccurateRip database Copy OK
Track 9
Filename H:\Floetry - Floetic - 09 - Hello.wav
Peak level 100.0 % Track quality 100.0 % Test CRC 4BAFC106 Copy CRC 4BAFC106 Track not present in AccurateRip database Copy OK
Track 10
Filename H:\Floetry - Floetic - 10 - Headache.wav
Peak level 100.0 % Track quality 100.0 % Test CRC 50C8B5A9 Copy CRC 50C8B5A9 Track not present in AccurateRip database Copy OK
Track 11
Filename H:\Floetry - Floetic - 11 - Hey You.wav
Peak level 100.0 % Track quality 100.0 % Test CRC BFA94D49 Copy CRC BFA94D49 Track not present in AccurateRip database Copy OK
Track 12
Filename H:\Floetry - Floetic - 12 - If I Was A Bird.wav
Peak level 100.0 % Track quality 100.0 % Test CRC 39327FCC Copy CRC 39327FCC Track not present in AccurateRip database Copy OK
Track 13
Filename H:\Floetry - Floetic - 13 - Opera.wav
Peak level 100.0 % Track quality 100.0 % Test CRC B8F04367 Copy CRC B8F04367 Track not present in AccurateRip database Copy OK
Track 14
Filename H:\Floetry - Floetic - 14 - Subliminal.wav
Peak level 100.0 % Track quality 99.9 % Test CRC 195B9B9D Copy CRC 195B9B9D Track not present in AccurateRip database Copy OK
Track 15
Filename H:\Floetry - Floetic - 15 - Butterflies (Demo Version).wav
Pre-gap length 0:00:04.54
Peak level 100.0 % Track quality 100.0 % Test CRC 6566C78D Copy CRC 6566C78D Track not present in AccurateRip database Copy OK
Track 16
Filename H:\Floetry - Floetic - 16 - Now That Your Gone (More Than I Can Feel).wav
Peak level 100.0 % Track quality 100.0 % Test CRC FDB8208A Copy CRC FDB8208A Track not present in AccurateRip database Copy OK
Track 17
Filename H:\Floetry - Floetic - 17 - Say Yes (Timbaland Remix).wav
Pre-gap length 0:00:00.81
Peak level 100.0 % Track quality 100.0 % Test CRC E012855E Copy CRC E012855E Track not present in AccurateRip database Copy OK
None of the tracks are present in the AccurateRip database
No errors occurred
End of status report

Содержание индексной карты (.CUE)

REM GENRE R&BREM DATE 2002REM DISCID F0115C11REM COMMENT "ExactAudioCopy v0.99pb4"PERFORMER "Floetry"TITLE "Floetic"FILE "01 - Big Ben.wav" WAVE  TRACK 01 AUDIO    TITLE "Big Ben"    PERFORMER "Floetry"    INDEX 01 00:00:00FILE "02 - Floetic.wav" WAVE  TRACK 02 AUDIO    TITLE "Floetic"    PERFORMER "Floetry"    INDEX 01 00:00:00FILE "03 - Ms. Stress.wav" WAVE  TRACK 03 AUDIO    TITLE "Ms. Stress"    PERFORMER "Floetry"    INDEX 01 00:00:00FILE "04 - Sunshine.wav" WAVE  TRACK 04 AUDIO    TITLE "Sunshine"    PERFORMER "Floetry"    INDEX 01 00:00:00FILE "05 - Getting Late.wav" WAVE  TRACK 05 AUDIO    TITLE "Getting Late"    PERFORMER "Floetry"    INDEX 01 00:00:00FILE "06 - Fun.wav" WAVE  TRACK 06 AUDIO    TITLE "Fun"    PERFORMER "Floetry"    INDEX 01 00:00:00FILE "07 - Mr. Messed Up.wav" WAVE  TRACK 07 AUDIO    TITLE "Mr. Messed Up"    PERFORMER "Floetry"    INDEX 01 00:00:00FILE "08 - Say Yes.wav" WAVE  TRACK 08 AUDIO    TITLE "Say Yes"    PERFORMER "Floetry"    INDEX 01 00:00:00FILE "09 - Hello.wav" WAVE  TRACK 09 AUDIO    TITLE "Hello"    PERFORMER "Floetry"    INDEX 01 00:00:00FILE "10 - Headache.wav" WAVE  TRACK 10 AUDIO    TITLE "Headache"    PERFORMER "Floetry"    INDEX 01 00:00:00FILE "11 - Hey You.wav" WAVE  TRACK 11 AUDIO    TITLE "Hey You"    PERFORMER "Floetry"    INDEX 01 00:00:00FILE "12 - If I Was A Bird.wav" WAVE  TRACK 12 AUDIO    TITLE "If I Was A Bird"    PERFORMER "Floetry"    INDEX 01 00:00:00FILE "13 - Opera.wav" WAVE  TRACK 13 AUDIO    TITLE "Opera"    PERFORMER "Floetry"    INDEX 01 00:00:00FILE "14 - Subliminal.wav" WAVE  TRACK 14 AUDIO    TITLE "Subliminal"    PERFORMER "Floetry"    INDEX 01 00:00:00  TRACK 15 AUDIO    TITLE "Butterflies (Demo Version)"    PERFORMER "Floetry"    INDEX 00 03:57:39FILE "15 - Butterflies (Demo Version).wav" WAVE    INDEX 01 00:00:00FILE "16 - Now That Your Gone (More Than I Can Feel).wav" WAVE  TRACK 16 AUDIO    TITLE "Now That Your Gone (More Than I Can Feel)"    PERFORMER "Floetry"    INDEX 01 00:00:00  TRACK 17 AUDIO    TITLE "Say Yes (Timbaland Remix)"    PERFORMER "Floetry"    INDEX 00 04:51:16FILE "17 - Say Yes (Timbaland Remix).wav" WAVE    INDEX 01 00:00:00

If you like the topic, please click share to help develop our site.

To download the file disable ad blocking, and reload the page.

disable adblock How to disable ad blocking?

Download by magnet link 491 MB Download Torrent

Login using:

Similar topics



   
Current time is: 16-Jul 21:14 :: All times are UTC + 3