Two Another

Another Tape





• Жанр: Neo Soul | R'n'B | Electronic
• Носитель: WEB
• Год издания: 2018
• Издатель: Another Label
• Аудиокодек: FLAC (*.flac)
• Тип рипа: tracks
• Продолжительность: 00:31:21
• Источник (спасибо): NBMus
• WEB релиз: qobuz
• Наличие сканов: front

01 - Enter My Life (00:01:39)
02 - Hoping You Changed (00:03:41)
03 - Coming Alive (00:03:55)
04 - The Night (00:03:36)
05 - Look (00:03:51)
06 - Aiming Up (00:03:50)
07 - World Demands It (00:03:41)
08 - Shouldn't Have Done That (00:04:25)
09 - I Can Feel It Coming (00:02:39)

-
-

• Замер динамического диапазона •

foobar2000 1.3.17 / Замер динамического диапазона (DR) 1.1.1Дата отчёта:  2018-10-13 14:12:23
--------------------------------------------------------------------------------Анализ: Two Another / Another Tape--------------------------------------------------------------------------------
DR Пики RMS Продолжительность трека--------------------------------------------------------------------------------DR8 -0.12 дБ -12.71 дБ 1:39 01-Enter My LifeDR6 -0.12 дБ -7.47 дБ 3:42 02-Hoping You ChangedDR6 -0.12 дБ -7.42 дБ 3:56 03-Coming AliveDR6 -0.12 дБ -8.27 дБ 3:37 04-The NightDR7 -0.12 дБ -9.28 дБ 3:52 05-LookDR8 -0.12 дБ -9.24 дБ 3:50 06-Aiming UpDR6 0.00 дБ -8.02 дБ 3:42 07-World Demands ItDR8 -0.12 дБ -9.35 дБ 4:26 08-Shouldn't Have Done ThatDR9 -0.12 дБ -12.59 дБ 2:39 09-I Can Feel It Coming--------------------------------------------------------------------------------
Количество треков: 9Реальные значения DR: DR7
Частота: 44100 ГцКаналов: 2Разрядность: 16Битрейт: 600 кбит/сКодек: FLAC================================================================================
-

• Лог проверки качества •

-----------------------
DON'T MODIFY THIS FILE
-----------------------
PERFORMER: auCDtect Task Manager, ver. 1.5.1RC3 build 1.5.1.4Copyright (c) 2008-2010 y-soft. All rights reservedhttp://y-soft.org
ANALYZER: auCDtect: CD records authenticity detector, version 0.8.2Copyright (c) 2004 Oleg Berngardt. All rights reserved.Copyright (c) 2004 Alexander Djourik. All rights reserved.
FILE: 09.flac Size: 12310179 Hash: EB4EE03A023AAC5ECB36089922FAC127 Accuracy: -m0 Conclusion: CDDA 100% Signature: B451AEF7320A3C5977BE0802DBC47119578E3197FILE: 08.flac Size: 23499803 Hash: 1416D53B9778FF493F17E5EBB3ECF2CC Accuracy: -m0 Conclusion: CDDA 100% Signature: C5F30C8090282BAB7586DBE59221F0CAD5B8F31FFILE: 07.flac Size: 24705860 Hash: FAE33F3CF9914414AA3A1B1FEE206567 Accuracy: -m0 Conclusion: CDDA 100% Signature: 77168F863803EC7708A752B0A1625BB3D109E826FILE: 06.flac Size: 22969624 Hash: 7B164C078512B8895F9A441BC3C545A6 Accuracy: -m0 Conclusion: CDDA 99% Signature: D26E79989747BFC9128CE9CF0C5C157AF9C15D07FILE: 05.flac Size: 21247042 Hash: D73B8436460DB69808C58B4692C07960 Accuracy: -m0 Conclusion: CDDA 99% Signature: DF7CA0BE26FA5D8B8CCAE161599B15B049C34AF2FILE: 04.flac Size: 20892685 Hash: 43F9CC4D0E88B34CCCD619DA04371DC9 Accuracy: -m0 Conclusion: CDDA 100% Signature: B9A3137C32007CEEA0ECFA070594D162AC9415C5FILE: 03.flac Size: 27002035 Hash: D7B5B3FEAC3D3056614F05EC787A025B Accuracy: -m0 Conclusion: CDDA 100% Signature: 16C58373643D06FD97AD9843D0E9D968B3429BEFFILE: 02.flac Size: 23415606 Hash: AA6252F29606D136384D3C143B8DE5DE Accuracy: -m0 Conclusion: CDDA 100% Signature: D9B1EF842BCCE44191984FE434F3237E723BA9B9FILE: 01.flac Size: 8412971 Hash: 42708CCD86E543DE111DE700CB40C73F Accuracy: -m0 Conclusion: CDDA 100% Signature: FE3832AB615AE0E89FBFEBD80BFBFEE8CA9C002D
-

If you like the topic, please click share to help develop our site.

To download the file disable ad blocking, and reload the page.

disable adblock How to disable ad blocking?

Download by magnet link 176 MB Download Torrent

Login using:

Similar topics



   
Current time is: 19-Jul 23:31 :: All times are UTC + 3