C.S.I. Место преступления / CSI: Crime Scene Investigation
Страна: США
Жанр: Триллер, драма, криминал
Продолжительность серии: 23 х ~ 00:43:00
Год выпуска: 2001-2002
Перевод: Профессиональный (многоголосый закадровый) студия "ROOM13" по заказу ТВ3 |Иван Калинин (1-7, 16-23 серии), Сергей Пономарёв (1-15, 23 серии), Антон Савенков (8-15 серии), Александр Коврижных (16-22 серии), Геннадий Новиков, Александр Воронов, Ольга Плетнёва, Татьяна Шитова|
Режиссёр: Кеннет Финк, Ричард Дж. Льюис, Алек Смайт, Дэнни Кэннон, Брэд Таненбаум, Джеффри Дж. Хант, Луис Шоу Милито, Фрэнк Уолдек, Филип Консерва, Марта Кулидж
В ролях: Уильям Петерсен, Марг Хельгенбергер, Джордж Идс, Пол Гилфойл, Джоржа Фокс, Эрик Шманда, Роберт Дэвид Холл, Тед Дэнсон, Элизабет Шу, Лоренс Фишбёрн
Описание: Лас-Вегас… Своими яркими неоновыми огнями, сотнями игровых клубов и казино он манит всё новых и новых людей. Но далеко не все из них оказываются добропорядочными гражданами. В огромном людском потоке частенько прячутся преступники всех мастей. Они убеждены, что их злодеяния останутся незамеченными. Но они сильно ошибаются, ведь в городе работает неутомимая команда полиции C.S.I. Когда следствие заходит в тупик, в игру вступает группа суперпрофессиональных криминалистов во главе с капитаном Гриссомом.

Качество: WEB-DL 720p
Формат: MKV
Видео: MPEG-4 AVC, 1280x720 [16:9], 25.000 fps, ~ 4200 Kbps
Аудио 1: [Русский] AC3, 48 kHz, 2 ch, 192 Kbps - ТВ3 / ROOM13
Аудио 2: [Английский] АС3, 48 kHz, 6 ch, 384 Kbps
Субтитры: Русские (2х03 вырезанные сцены каналом ТВ3)
Ссылка на предыдущие и альтернативные раздачи

Релиз

Релиз CasStudio - BenderBEST
• Запись звука miha2154, BenderBEST
• Работа c дорогой - BenderBEST (1-6 серии), v.serij2013 (7-23 серии)

Подробные технические данные

Общее
Уникальный идентификатор : 195074418220460573091415302353224581414 (0x92C1F76249221467AD3FBAEF2F01C126)
Полное имя : D:\CSI.S02.720p.WEB-DL.Rus.Eng_CasStudio\CSI.S02E01.720p.WEB-DL.Rus.Eng_CasStudio.mkv
Формат : Matroska
Версия формата : Version 4 / Version 2
Размер файла : 1,48 Гбайт
Продолжительность : 43 м. 33 с.
Общий поток : 4871 Кбит/сек
Название фильма : CSI: Crime Scene Investigation S02E01 - ReJliz CasStudio by BenderBEST
Дата кодирования : UTC 2017-07-12 16:17:33
Программа кодирования : mkvmerge v6.9.1 ('Blue Panther') 32bit built on Apr 18 2014 18:15:44
Библиотека кодирования : libebml v1.3.0 + libmatroska v1.4.1
Видео
Идентификатор : 1
Формат : AVC
Формат/Информация : Advanced Video Codec
Профиль формата : [email protected]
Параметр CABAC формата : Нет
Параметр ReFrames формата : 2 кадра
Идентификатор кодека : V_MPEG4/ISO/AVC
Продолжительность : 43 м. 33 с.
Битрейт : 4198 Кбит/сек
Ширина : 1280 пикселей
Высота : 720 пикселей
Соотношение сторон : 16:9
Режим частоты кадров : Постоянный
Частота кадров : 25,000 кадров/сек
Цветовое пространство : YUV
Субдискретизация насыщенности : 4:2:0
Битовая глубина : 8 бит
Тип развёртки : Прогрессивная
Бит/(Пиксели*Кадры) : 0.182
Размер потока : 1,28 Гбайт (86%)
Язык : English
Default : Да
Forced : Да
Цветовой диапазон : Limited
Основные цвета : BT.709
Характеристики трансфера : BT.709
Коэффициенты матрицы : BT.709
Аудио #1
Идентификатор : 2
Формат : AC-3
Формат/Информация : Audio Coding 3
Параметр Endianness формата : Big
Идентификатор кодека : A_AC3
Продолжительность : 43 м. 33 с.
Вид битрейта : Постоянный
Битрейт : 192 Кбит/сек
Каналы : 2 канала
Расположение каналов : Front: L R
Частота : 48,0 КГц
Частота кадров : 31,250 кадров/сек (1536 spf)
Битовая глубина : 16 бит
Метод сжатия : С потерями
Размер потока : 59,8 Мбайт (4%)
Заголовок : AC3 2.0 @ 192 kbps - MVO, ТВ3 / ROOM13
Язык : Russian
ServiceKind/String : Complete Main
Default : Да
Forced : Да
Аудио #2
Идентификатор : 3
Формат : AC-3
Формат/Информация : Audio Coding 3
Параметр Endianness формата : Big
Идентификатор кодека : A_AC3
Продолжительность : 43 м. 33 с.
Вид битрейта : Постоянный
Битрейт : 384 Кбит/сек
Каналы : 6 каналов
Расположение каналов : Front: L C R, Side: L R, LFE
Частота : 48,0 КГц
Частота кадров : 31,250 кадров/сек (1536 spf)
Битовая глубина : 16 бит
Метод сжатия : С потерями
Размер потока : 120 Мбайт (8%)
Заголовок : AC3 5.1 @ 384 kbps
Язык : English
ServiceKind/String : Complete Main
Default : Нет
Forced : Нет

Скриншоты



If you like the topic, please click share to help develop our site.

To download the file disable ad blocking, and reload the page.

disable adblock How to disable ad blocking?

Download by magnet link 32.55 GB Download Torrent

Login using:

Similar topics

Место встречи / The Place (2017) BDRip 720p | Лицензия
 5.97 GB   22 | 2   17-Apr-19 04:30   0


   
Current time is: 25-May 18:14 :: All times are UTC + 3