The Many Faces Of Chuck Berry (A Journey Through The Inner World Of Chuck Berry)
Жанр: Rock & Roll, Rhythm & Blues, AOR, Acid Rock
Носитель: CD
Страна-производитель диска (релиза): Mexico
Год издания: 2017
Издатель (лейбл): Music Brokers ‎
Номер по каталогу: MBB7247
Аудиокодек: FLAC (*.flac)
Тип рипа: image+.cue
Битрейт аудио: lossless
Продолжительность: 1:41:27
Источник (релизер): brookman
Наличие сканов в содержимом раздачи: да

CD1 Chuck Plays The Blues And Live 1972

01. How You’ve Changed (2:49)
02. Wee Wee Hours (3:04)
03. Worried Life Blues (2:10)
04. Blue Feeling (3:01)
05. Away From You (2:40)
06. Deep Feeling (2:18)
07. Driftin’ Blues (2:19)
08. Low Feeling (3:09)
09. Run Around (2:32)
10. School Days (live) (1:15)
11. Memphis, Tennessee (live) (1:16)
12. Sweet Little Sixteen (live) (1:36)
13. Wee Wee Hours (live) (2:05)
14. Reelin’ and Rockin’ (live) (5:41)

Лог создания рипа

Exact Audio Copy V1.0 beta 3 from 29. August 2011
EAC extraction logfile from 13. December 2018, 1:01
Various Artists / The Many Faces of Chuck Berry: A Journey Through the Inner World of Chuck Berry CD1
Used drive : PIONEER BD-RW BDR-TD03 Adapter: 0 ID: 1
Read mode : SecureUtilize accurate stream : YesDefeat audio cache : YesMake use of C2 pointers : No
Read offset correction : 667Overread into Lead-In and Lead-Out : NoFill up missing offset samples with silence : YesDelete leading and trailing silent blocks : NoNull samples used in CRC calculations : YesUsed interface : Native Win32 interface for Win NT & 2000
Used output format : User Defined EncoderSelected bitrate : 768 kBit/sQuality : HighAdd ID3 tag : NoCommand line compressor : C:\Program Files (x86)\Exact Audio Copy\FLAC\FLAC.EXEAdditional command line options : -6 -V -T "ARTIST=%artist%" -T "TITLE=%title%" -T "ALBUM=%albumtitle%" -T "DATE=%year%" -T "TRACKNUMBER=%tracknr%" -T "GENRE=%genre%" -T "COMMENT=%comment%" -T "BAND=%albuminterpret%" -T "ALBUMARTIST=%albuminterpret%" -T "COMPOSER=%composer%" %haslyrics%--tag-from-file=LYRICS="%lyricsfile%"%haslyrics% -T "DISCNUMBER=%cdnumber%" -T "TOTALDISCS=%totalcds%" -T "TOTALTRACKS=%numtracks%" %hascover%--picture="%coverfile%"%hascover% %source% -o %dest%
TOC of the extracted CD
Track | Start | Length | Start sector | End sector --------------------------------------------------------- 1 | 0:00.00 | 2:49.00 | 0 | 12674 2 | 2:49.00 | 3:04.38 | 12675 | 26512 3 | 5:53.38 | 2:10.38 | 26513 | 36300 4 | 8:04.01 | 3:01.38 | 36301 | 49913 5 | 11:05.39 | 2:40.00 | 49914 | 61913 6 | 13:45.39 | 2:18.57 | 61914 | 72320 7 | 16:04.21 | 2:19.00 | 72321 | 82745 8 | 18:23.21 | 3:09.38 | 82746 | 96958 9 | 21:32.59 | 2:32.19 | 96959 | 108377 10 | 24:05.03 | 1:15.18 | 108378 | 114020 11 | 25:20.21 | 1:16.74 | 114021 | 119794 12 | 26:37.20 | 1:36.68 | 119795 | 127062 13 | 28:14.13 | 2:05.60 | 127063 | 136497 14 | 30:19.73 | 5:41.42 | 136498 | 162114
Range status and errors
Selected range
Filename C:\Users\Deris\Desktop\kpnemo.eu\FacesBerry\CD1\Various Artists - The Many Faces of Chuck Berry- A Journey Through the Inner World of Chuck Berry CD1.wav
Peak level 100.0 % Extraction speed 2.9 X Range quality 100.0 % Test CRC 3719515B Copy CRC 3719515B Copy OK
No errors occurred
AccurateRip summary
Track 1 accurately ripped (confidence 1) [A045432D] (AR v2)Track 2 accurately ripped (confidence 1) [4D4C7202] (AR v2)Track 3 accurately ripped (confidence 1) [99CE8EC9] (AR v2)Track 4 accurately ripped (confidence 1) [8CFFBA14] (AR v2)Track 5 accurately ripped (confidence 1) [34B0607D] (AR v2)Track 6 accurately ripped (confidence 1) [1E591F0B] (AR v2)Track 7 accurately ripped (confidence 1) [6D9EB43D] (AR v2)Track 8 accurately ripped (confidence 1) [7B54B805] (AR v2)Track 9 accurately ripped (confidence 1) [3B51AC0B] (AR v2)Track 10 accurately ripped (confidence 1) [C03EA47B] (AR v2)Track 11 accurately ripped (confidence 1) [F3F00E0B] (AR v2)Track 12 accurately ripped (confidence 1) [5C968CCA] (AR v2)Track 13 accurately ripped (confidence 1) [427756F2] (AR v2)Track 14 accurately ripped (confidence 1) [2A03CC9A] (AR v2)
All tracks accurately ripped
End of status report
---- CUETools DB Plugin V2.1.3
[CTDB TOCID: zcrnuqU6K_TxyworvEWOxlYGi5k-] found, Submit result: zcrnuqU6K_TxyworvEWOxlYGi5k- has been confirmed[62da2ebf] (9/9) Accurately ripped
==== Log checksum B0A4E747CD90D0187277E3AA0D6C6AB3B9CF445C40C2BDAAACB8F2C8D8277FF9 ====

Содержание индексной карты (.CUE)

REM GENRE BluesREM DATE 2017REM DISCID CE08710EREM COMMENT "ExactAudioCopy v1.0b3"PERFORMER "Various Artists"TITLE "The Many Faces of Chuck Berry: A Journey Through the Inner World of Chuck Ber..."FILE "Various Artists - The Many Faces of Chuck Berry- A Journey Through the Inner World of Chuck Berry CD1.flac" WAVE  TRACK 01 AUDIO    TITLE "How You’ve Changed"    PERFORMER "Chuck Berry"    INDEX 01 00:00:00  TRACK 02 AUDIO    TITLE "Wee Wee Hours"    PERFORMER "Chuck Berry"    INDEX 01 02:49:00  TRACK 03 AUDIO    TITLE "Worried Life Blues"    PERFORMER "Chuck Berry"    INDEX 01 05:53:38  TRACK 04 AUDIO    TITLE "Blue Feeling"    PERFORMER "Chuck Berry"    INDEX 01 08:04:01  TRACK 05 AUDIO    TITLE "Away From You"    PERFORMER "Chuck Berry"    INDEX 01 11:05:39  TRACK 06 AUDIO    TITLE "Deep Feeling"    PERFORMER "Chuck Berry"    INDEX 01 13:45:39  TRACK 07 AUDIO    TITLE "Driftin’ Blues"    PERFORMER "Chuck Berry"    INDEX 01 16:04:21  TRACK 08 AUDIO    TITLE "Low Feeling"    PERFORMER "Chuck Berry"    INDEX 01 18:23:21  TRACK 09 AUDIO    TITLE "Run Around"    PERFORMER "Chuck Berry"    INDEX 01 21:32:59  TRACK 10 AUDIO    TITLE "School Days (live)"    PERFORMER "Chuck Berry"    INDEX 01 24:05:03  TRACK 11 AUDIO    TITLE "Memphis, Tennessee (live)"    PERFORMER "Chuck Berry"    INDEX 01 25:20:21  TRACK 12 AUDIO    TITLE "Sweet Little Sixteen (live)"    PERFORMER "Chuck Berry"    INDEX 01 26:37:20  TRACK 13 AUDIO    TITLE "Wee Wee Hours (live)"    PERFORMER "Chuck Berry"    INDEX 01 28:14:13  TRACK 14 AUDIO    TITLE "Reelin’ and Rockin’ (live)"    PERFORMER "Chuck Berry"    INDEX 01 30:19:73

DR Log

foobar2000 1.3.13 / Замер динамического диапазона (DR) 1.1.1Дата отчёта:  2018-12-14 16:50:47
--------------------------------------------------------------------------------Анализ: Chuck Berry / The Many Faces of Chuck Berry: A Journey Through the Inner World of Chuck Ber...--------------------------------------------------------------------------------
DR Пики RMS Продолжительность трека--------------------------------------------------------------------------------DR8 0.00 дБ -10.63 дБ 2:49 01-How You’ve ChangedDR10 0.00 дБ -12.01 дБ 3:05 02-Wee Wee HoursDR6 0.00 дБ -7.90 дБ 2:11 03-Worried Life BluesDR8 0.00 дБ -10.43 дБ 3:02 04-Blue FeelingDR7 0.00 дБ -9.50 дБ 2:40 05-Away From YouDR8 0.00 дБ -9.82 дБ 2:19 06-Deep FeelingDR6 0.00 дБ -7.41 дБ 2:19 07-Driftin’ BluesDR7 0.00 дБ -8.58 дБ 3:10 08-Low FeelingDR6 0.00 дБ -8.20 дБ 2:32 09-Run AroundDR5 0.00 дБ -5.60 дБ 1:15 10-School Days (live)DR4 0.00 дБ -5.07 дБ 1:17 11-Memphis, Tennessee (live)DR5 0.00 дБ -5.40 дБ 1:37 12-Sweet Little Sixteen (live)DR5 0.00 дБ -6.00 дБ 2:06 13-Wee Wee Hours (live)DR5 0.00 дБ -5.88 дБ 5:42 14-Reelin’ and Rockin’ (live)--------------------------------------------------------------------------------
Количество треков: 14Реальные значения DR: DR6
Частота: 44100 ГцКаналов: 2Разрядность: 16Битрейт: 609 кбит/сКодек: FLAC================================================================================

CD2 The Songs

01. UK Subs - Route 66 (2:17)
02. Bill Black’s Combo - Johnny B. Goode (2:09)
03. Flamin’ Groovies - Sweet Little Rock n’ Roller (3:46)
04. Johnny Thunders - Little Queenie (2:03)
05. Bill Black’s Combo - Roll Over Beethoven (2:08)
06. Eddie & The Hot Rods - Johnny B. Goode (2:10)
07. UK Subs - I’m Talking About You (1:50)
08. Bill Black’s Combo - Memphis, Tennessee (2:04)
09. Flamin’ Groovies - Little Queenie (2:58)
10. Bill Black’s Combo - School Days (2:13)
11. David Byron Band - Roll Over Beethoven (2:26)
12. Bill Black’s Combo - Little Queenie (2:08)
13. Bill Black’s Combo - Sweet Little Sixteen (2:14)

Лог создания рипа

Exact Audio Copy V1.0 beta 3 from 29. August 2011
EAC extraction logfile from 13. December 2018, 13:14
Various Artists / The Many Faces of Chuck Berry: A Journey Through the Inner World of Chuck Berry CD2
Used drive : PIONEER BD-RW BDR-TD03 Adapter: 0 ID: 1
Read mode : SecureUtilize accurate stream : YesDefeat audio cache : YesMake use of C2 pointers : No
Read offset correction : 667Overread into Lead-In and Lead-Out : NoFill up missing offset samples with silence : YesDelete leading and trailing silent blocks : NoNull samples used in CRC calculations : YesUsed interface : Native Win32 interface for Win NT & 2000
Used output format : User Defined EncoderSelected bitrate : 768 kBit/sQuality : HighAdd ID3 tag : NoCommand line compressor : C:\Program Files (x86)\Exact Audio Copy\FLAC\FLAC.EXEAdditional command line options : -6 -V -T "ARTIST=%artist%" -T "TITLE=%title%" -T "ALBUM=%albumtitle%" -T "DATE=%year%" -T "TRACKNUMBER=%tracknr%" -T "GENRE=%genre%" -T "COMMENT=%comment%" -T "BAND=%albuminterpret%" -T "ALBUMARTIST=%albuminterpret%" -T "COMPOSER=%composer%" %haslyrics%--tag-from-file=LYRICS="%lyricsfile%"%haslyrics% -T "DISCNUMBER=%cdnumber%" -T "TOTALDISCS=%totalcds%" -T "TOTALTRACKS=%numtracks%" %hascover%--picture="%coverfile%"%hascover% %source% -o %dest%
TOC of the extracted CD
Track | Start | Length | Start sector | End sector --------------------------------------------------------- 1 | 0:00.00 | 2:17.38 | 0 | 10312 2 | 2:17.38 | 2:09.00 | 10313 | 19987 3 | 4:26.38 | 3:46.00 | 19988 | 36937 4 | 8:12.38 | 2:03.19 | 36938 | 46181 5 | 10:15.57 | 2:08.57 | 46182 | 55838 6 | 12:24.39 | 2:10.19 | 55839 | 65607 7 | 14:34.58 | 1:50.38 | 65608 | 73895 8 | 16:25.21 | 2:04.19 | 73896 | 83214 9 | 18:29.40 | 2:58.38 | 83215 | 96602 10 | 21:28.03 | 2:13.38 | 96603 | 106615 11 | 23:41.41 | 2:26.38 | 106616 | 117603 12 | 26:08.04 | 2:08.19 | 117604 | 127222 13 | 28:16.23 | 2:14.19 | 127223 | 137291
Range status and errors
Selected range
Filename C:\Users\Deris\Desktop\kpnemo.eu\FacesBerry\CD2\Various Artists - The Many Faces of Chuck Berry- A Journey Through the Inner World of Chuck Berry CD2.wav
Peak level 100.0 % Extraction speed 4.2 X Range quality 100.0 % Test CRC 931AB52B Copy CRC 931AB52B Copy OK
No errors occurred
AccurateRip summary
Track 1 accurately ripped (confidence 1) [F27CF672] (AR v2)Track 2 accurately ripped (confidence 1) [3FC5909F] (AR v2)Track 3 accurately ripped (confidence 1) [3C5EB29C] (AR v2)Track 4 accurately ripped (confidence 1) [FCB35069] (AR v2)Track 5 accurately ripped (confidence 1) [900A2159] (AR v2)Track 6 accurately ripped (confidence 1) [D7FED28A] (AR v2)Track 7 accurately ripped (confidence 1) [8D03AFF8] (AR v2)Track 8 accurately ripped (confidence 1) [D70BFCD7] (AR v2)Track 9 accurately ripped (confidence 1) [2E35929C] (AR v2)Track 10 accurately ripped (confidence 1) [30A01BFE] (AR v2)Track 11 accurately ripped (confidence 1) [38592FC9] (AR v2)Track 12 accurately ripped (confidence 1) [CB109667] (AR v2)Track 13 accurately ripped (confidence 1) [63CC90B7] (AR v2)
All tracks accurately ripped
End of status report
---- CUETools DB Plugin V2.1.3
[CTDB TOCID: iDc9VEjK7OlNOOsqBOrFJBv9u6Q-] found, Submit result: iDc9VEjK7OlNOOsqBOrFJBv9u6Q- has been confirmed[65d57ab8] (8/8) Accurately ripped
==== Log checksum C1A4F5312922A3C5EC29C5DB9726AAFEB95EF35E76B89B9EB7D69B6EEA644DAD ====

Содержание индексной карты (.CUE)

REM GENRE BluesREM DATE 2017REM DISCID BB07260DREM COMMENT "ExactAudioCopy v1.0b3"PERFORMER "Various Artists"TITLE "The Many Faces of Chuck Berry: A Journey Through the Inner World of Chuck Ber..."FILE "Various Artists - The Many Faces of Chuck Berry- A Journey Through the Inner World of Chuck Berry CD2.flac" WAVE  TRACK 01 AUDIO    TITLE "Route 66"    PERFORMER "UK Subs"    INDEX 01 00:00:00  TRACK 02 AUDIO    TITLE "Johnny B. Goode"    PERFORMER "Bill Black’s Combo"    INDEX 01 02:17:38  TRACK 03 AUDIO    TITLE "Sweet Little Rock n’ Roller"    PERFORMER "Flamin’ Groovies"    INDEX 01 04:26:38  TRACK 04 AUDIO    TITLE "Little Queenie"    PERFORMER "Johnny Thunders"    INDEX 01 08:12:38  TRACK 05 AUDIO    TITLE "Roll Over Beethoven"    PERFORMER "Bill Black’s Combo"    INDEX 01 10:15:57  TRACK 06 AUDIO    TITLE "Johnny B. Goode"    PERFORMER "Eddie & The Hot Rods"    INDEX 01 12:24:39  TRACK 07 AUDIO    TITLE "I’m Talking About You"    PERFORMER "UK Subs"    INDEX 01 14:34:58  TRACK 08 AUDIO    TITLE "Memphis, Tennessee"    PERFORMER "Bill Black’s Combo"    INDEX 01 16:25:21  TRACK 09 AUDIO    TITLE "Little Queenie"    PERFORMER "Flamin’ Groovies"    INDEX 01 18:29:40  TRACK 10 AUDIO    TITLE "School Days"    PERFORMER "Bill Black’s Combo"    INDEX 01 21:28:03  TRACK 11 AUDIO    TITLE "Roll Over Beethoven"    PERFORMER "David Byron Band"    INDEX 01 23:41:41  TRACK 12 AUDIO    TITLE "Little Queenie"    PERFORMER "Bill Black’s Combo"    INDEX 01 26:08:04  TRACK 13 AUDIO    TITLE "Sweet Little Sixteen"    PERFORMER "Bill Black’s Combo"    INDEX 01 28:16:23

DR Log

foobar2000 1.3.13 / Замер динамического диапазона (DR) 1.1.1Дата отчёта:  2018-12-14 16:51:36
--------------------------------------------------------------------------------Анализ: Bill Black’s Combo / The Many Faces of Chuck Berry: A Journey Through the Inner World of Chuck Ber...--------------------------------------------------------------------------------
DR Пики RMS Продолжительность трека--------------------------------------------------------------------------------DR9 0.00 дБ -10.00 дБ 2:09 02-Johnny B. GoodeDR7 0.00 дБ -8.37 дБ 2:09 05-Roll Over BeethovenDR9 0.00 дБ -10.01 дБ 2:04 08-Memphis, TennesseeDR8 0.00 дБ -9.22 дБ 2:14 10-School DaysDR8 0.00 дБ -9.37 дБ 2:08 12-Little QueenieDR9 0.00 дБ -9.90 дБ 2:14 13-Sweet Little Sixteen--------------------------------------------------------------------------------
Количество треков: 6Реальные значения DR: DR8
Частота: 44100 ГцКаналов: 2Разрядность: 16Битрейт: 825 кбит/сКодек: FLAC================================================================================
--------------------------------------------------------------------------------Статистика для: 11-Roll Over BeethovenКоличество сэмплов: 6460944Продолжительность: 2:27--------------------------------------------------------------------------------
Левый Правый
Пики: 0.00 дБ --- 0.00 дБСредний RMS: -6.95 дБ --- -7.56 дБDR канала: 5.58 дБ --- 6.01 дБ--------------------------------------------------------------------------------
Реальные значения DR: DR6
Частота: 44100 ГцКаналов: 2Разрядность: 16Битрейт: 825 кбит/сКодек: FLAC================================================================================--------------------------------------------------------------------------------Статистика для: 06-Johnny B. GoodeКоличество сэмплов: 5744172Продолжительность: 2:10--------------------------------------------------------------------------------
Левый Правый
Пики: 0.00 дБ --- -0.06 дБСредний RMS: -10.04 дБ --- -9.80 дБDR канала: 8.00 дБ --- 7.99 дБ--------------------------------------------------------------------------------
Реальные значения DR: DR8
Частота: 44100 ГцКаналов: 2Разрядность: 16Битрейт: 825 кбит/сКодек: FLAC================================================================================--------------------------------------------------------------------------------Анализ: Flamin’ Groovies / The Many Faces of Chuck Berry: A Journey Through the Inner World of Chuck Ber...--------------------------------------------------------------------------------
DR Пики RMS Продолжительность трека--------------------------------------------------------------------------------DR6 0.00 дБ -7.50 дБ 3:46 03-Sweet Little Rock n’ RollerDR9 0.00 дБ -9.87 дБ 2:59 09-Little Queenie--------------------------------------------------------------------------------
Количество треков: 2Реальные значения DR: DR8
Частота: 44100 ГцКаналов: 2Разрядность: 16Битрейт: 825 кбит/сКодек: FLAC================================================================================
--------------------------------------------------------------------------------Статистика для: 04-Little QueenieКоличество сэмплов: 5435472Продолжительность: 2:03--------------------------------------------------------------------------------
Левый Правый
Пики: 0.00 дБ --- 0.00 дБСредний RMS: -8.38 дБ --- -8.20 дБDR канала: 7.74 дБ --- 7.22 дБ--------------------------------------------------------------------------------
Реальные значения DR: DR7
Частота: 44100 ГцКаналов: 2Разрядность: 16Битрейт: 825 кбит/сКодек: FLAC================================================================================--------------------------------------------------------------------------------Анализ: UK Subs / The Many Faces of Chuck Berry: A Journey Through the Inner World of Chuck Ber...--------------------------------------------------------------------------------
DR Пики RMS Продолжительность трека--------------------------------------------------------------------------------DR8 0.00 дБ -8.49 дБ 2:18 01-Route 66DR9 0.00 дБ -9.58 дБ 1:51 07-I’m Talking About You--------------------------------------------------------------------------------
Количество треков: 2Реальные значения DR: DR8
Частота: 44100 ГцКаналов: 2Разрядность: 16Битрейт: 825 кбит/сКодек: FLAC================================================================================

CD3 The Original Rockers From The 50s

01. Fats Domino - I’m Walking (2:08)
02. Little Richard - Rip It Up (2:23)
03. Bo Diddley - Pretty Thing (2:50)
04. Big Joe Turner - Shake Rattle and Roll (3:00)
05. LaVern Baker - Jim Dandy (2:11)
06. Lloyd Price - Baby, Please Come Home (2:24)
07. Larry Williams - Slow Down (2:45)
08. Roy Brown - Good Rocking Tonight (2:56)
09. Jackie Brenston - Rocket 88 (2:48)
10. Wynonie Harris - Shake That Thing (2:17)
11. Big Mama Thornton - Hound Dog (2:50)
12. Esquerita - Rockin’ the Joint (2:01)
13. Barrett Strong - Money (That’s What I Want) (2:39)
14. The Dominoes - Sixty Minute Man (2:34)

Лог создания рипа

Exact Audio Copy V1.0 beta 3 from 29. August 2011
EAC extraction logfile from 14. December 2018, 16:47
Various Artists / The Many Faces of Chuck Berry: A Journey Through the Inner World of Chuck Berry CD3
Used drive : PIONEER BD-RW BDR-TD03 Adapter: 0 ID: 1
Read mode : SecureUtilize accurate stream : YesDefeat audio cache : YesMake use of C2 pointers : No
Read offset correction : 667Overread into Lead-In and Lead-Out : NoFill up missing offset samples with silence : YesDelete leading and trailing silent blocks : NoNull samples used in CRC calculations : YesUsed interface : Native Win32 interface for Win NT & 2000
Used output format : User Defined EncoderSelected bitrate : 768 kBit/sQuality : HighAdd ID3 tag : NoCommand line compressor : C:\Program Files (x86)\Exact Audio Copy\FLAC\FLAC.EXEAdditional command line options : -6 -V -T "ARTIST=%artist%" -T "TITLE=%title%" -T "ALBUM=%albumtitle%" -T "DATE=%year%" -T "TRACKNUMBER=%tracknr%" -T "GENRE=%genre%" -T "COMMENT=%comment%" -T "BAND=%albuminterpret%" -T "ALBUMARTIST=%albuminterpret%" -T "COMPOSER=%composer%" %haslyrics%--tag-from-file=LYRICS="%lyricsfile%"%haslyrics% -T "DISCNUMBER=%cdnumber%" -T "TOTALDISCS=%totalcds%" -T "TOTALTRACKS=%numtracks%" %hascover%--picture="%coverfile%"%hascover% %source% -o %dest%
TOC of the extracted CD
Track | Start | Length | Start sector | End sector --------------------------------------------------------- 1 | 0:00.00 | 2:08.38 | 0 | 9637 2 | 2:08.38 | 2:23.00 | 9638 | 20362 3 | 4:31.38 | 2:50.38 | 20363 | 33150 4 | 7:22.01 | 3:00.00 | 33151 | 46650 5 | 10:22.01 | 2:11.15 | 46651 | 56490 6 | 12:33.16 | 2:24.08 | 56491 | 67298 7 | 14:57.24 | 2:45.15 | 67299 | 79688 8 | 17:42.39 | 2:56.38 | 79689 | 92926 9 | 20:39.02 | 2:48.23 | 92927 | 105549 10 | 23:27.25 | 2:17.00 | 105550 | 115824 11 | 25:44.25 | 2:50.45 | 115825 | 128619 12 | 28:34.70 | 2:01.45 | 128620 | 137739 13 | 30:36.40 | 2:39.45 | 137740 | 149709 14 | 33:16.10 | 2:34.12 | 149710 | 161271
Range status and errors
Selected range
Filename C:\Users\Deris\Desktop\kpnemo.eu\FacesBerry\CD3\Various Artists - The Many Faces of Chuck Berry- A Journey Through the Inner World of Chuck Berry CD3.wav
Peak level 100.0 % Extraction speed 1.6 X Range quality 100.0 % Test CRC 5492413A Copy CRC 5492413A Copy OK
No errors occurred
AccurateRip summary
Track 1 accurately ripped (confidence 1) [1F8ACBBF] (AR v2)Track 2 accurately ripped (confidence 1) [3EDF26CB] (AR v2)Track 3 accurately ripped (confidence 1) [CCA7E05C] (AR v2)Track 4 accurately ripped (confidence 1) [3FF09032] (AR v2)Track 5 accurately ripped (confidence 1) [79C5F9EC] (AR v2)Track 6 accurately ripped (confidence 1) [E36C90B1] (AR v2)Track 7 accurately ripped (confidence 1) [94861597] (AR v2)Track 8 accurately ripped (confidence 1) [4DBBAF42] (AR v2)Track 9 accurately ripped (confidence 1) [97BE95B5] (AR v2)Track 10 accurately ripped (confidence 1) [067BD9E4] (AR v2)Track 11 accurately ripped (confidence 1) [8B2C9AA3] (AR v2)Track 12 accurately ripped (confidence 1) [F5C71BE9] (AR v2)Track 13 accurately ripped (confidence 1) [8E067C56] (AR v2)Track 14 accurately ripped (confidence 1) [7BC1BBE5] (AR v2)
All tracks accurately ripped
End of status report
---- CUETools DB Plugin V2.1.3
[CTDB TOCID: 6HtwHYKB3YgI.FViSRI3.UsuGoI-] found, Submit result: 6HtwHYKB3YgI.FViSRI3.UsuGoI- has been confirmed[9efedd4d] (9/9) Accurately ripped
==== Log checksum 945381AA88C60818635393D0786F91D4410DEB14D37D7D9F0597741CBF361F92 ====

Содержание индексной карты (.CUE)

REM GENRE "Rock & Roll"REM DATE 2017REM DISCID C408660EREM COMMENT "ExactAudioCopy v1.0b3"PERFORMER "Various Artists"TITLE "The Many Faces of Chuck Berry: A Journey Through the Inner World of Chuck Ber..."FILE "Various Artists - The Many Faces of Chuck Berry- A Journey Through the Inner World of Chuck Berry CD3.flac" WAVE  TRACK 01 AUDIO    TITLE "I’m Walking"    PERFORMER "Fats Domino"    INDEX 01 00:00:00  TRACK 02 AUDIO    TITLE "Rip It Up"    PERFORMER "Little Richard"    INDEX 00 02:08:36    INDEX 01 02:08:38  TRACK 03 AUDIO    TITLE "Pretty Thing"    PERFORMER "Bo Diddley"    INDEX 00 04:31:36    INDEX 01 04:31:38  TRACK 04 AUDIO    TITLE "Shake Rattle and Roll"    PERFORMER "Big Joe Turner"    INDEX 00 07:21:74    INDEX 01 07:22:01  TRACK 05 AUDIO    TITLE "Jim Dandy"    PERFORMER "LaVern Baker"    INDEX 00 10:21:74    INDEX 01 10:22:01  TRACK 06 AUDIO    TITLE "Baby, Please Come Home"    PERFORMER "Lloyd Price"    INDEX 00 12:33:14    INDEX 01 12:33:16  TRACK 07 AUDIO    TITLE "Slow Down"    PERFORMER "Larry Williams"    INDEX 00 14:57:22    INDEX 01 14:57:24  TRACK 08 AUDIO    TITLE "Good Rocking Tonight"    PERFORMER "Roy Brown"    INDEX 00 17:42:37    INDEX 01 17:42:39  TRACK 09 AUDIO    TITLE "Rocket 88"    PERFORMER "Jackie Brenston"    INDEX 00 20:39:00    INDEX 01 20:39:02  TRACK 10 AUDIO    TITLE "Shake That Thing"    PERFORMER "Wynonie Harris"    INDEX 00 23:27:24    INDEX 01 23:27:25  TRACK 11 AUDIO    TITLE "Hound Dog"    PERFORMER "Big Mama Thornton"    INDEX 00 25:44:23    INDEX 01 25:44:25  TRACK 12 AUDIO    TITLE "Rockin’ the Joint"    PERFORMER "Esquerita"    INDEX 00 28:34:68    INDEX 01 28:34:70  TRACK 13 AUDIO    TITLE "Money (That’s What I Want)"    PERFORMER "Barrett Strong"    INDEX 00 30:36:38    INDEX 01 30:36:40  TRACK 14 AUDIO    TITLE "Sixty Minute Man"    PERFORMER "The Dominoes"    INDEX 00 33:16:08    INDEX 01 33:16:10

DR Log

foobar2000 1.3.13 / Замер динамического диапазона (DR) 1.1.1Дата отчёта:  2018-12-14 16:52:47
--------------------------------------------------------------------------------Анализ: Big Joe Turner / The Many Faces of Chuck Berry: A Journey Through the Inner World of Chuck Ber... (1) Big Mama Thornton / The Many Faces of Chuck Berry: A Journey Through the Inner World of Chuck Ber... (2)--------------------------------------------------------------------------------
DR Пики RMS Продолжительность трека--------------------------------------------------------------------------------DR9 0.00 дБ -10.21 дБ 3:00 04-Shake Rattle and RollDR7 0.00 дБ -7.94 дБ 2:51 11-Hound Dog--------------------------------------------------------------------------------
Количество треков: 2Реальные значения DR: DR8
Частота: 44100 ГцКаналов: 2Разрядность: 16Битрейт: 681 кбит/сКодек: FLAC================================================================================
--------------------------------------------------------------------------------Анализ: Bo Diddley / The Many Faces of Chuck Berry: A Journey Through the Inner World of Chuck Ber... (1) Esquerita / The Many Faces of Chuck Berry: A Journey Through the Inner World of Chuck Ber... (2)--------------------------------------------------------------------------------
DR Пики RMS Продолжительность трека--------------------------------------------------------------------------------DR8 0.00 дБ -9.27 дБ 2:51 03-Pretty ThingDR7 0.00 дБ -8.53 дБ 2:02 12-Rockin’ the Joint--------------------------------------------------------------------------------
Количество треков: 2Реальные значения DR: DR8
Частота: 44100 ГцКаналов: 2Разрядность: 16Битрейт: 681 кбит/сКодек: FLAC================================================================================
--------------------------------------------------------------------------------Анализ: Fats Domino / The Many Faces of Chuck Berry: A Journey Through the Inner World of Chuck Ber... (1) Jackie Brenston / The Many Faces of Chuck Berry: A Journey Through the Inner World of Chuck Ber... (2)--------------------------------------------------------------------------------
DR Пики RMS Продолжительность трека--------------------------------------------------------------------------------DR6 0.00 дБ -7.86 дБ 2:09 01-I’m WalkingDR7 0.00 дБ -7.90 дБ 2:48 09-Rocket 88--------------------------------------------------------------------------------
Количество треков: 2Реальные значения DR: DR7
Частота: 44100 ГцКаналов: 2Разрядность: 16Битрейт: 681 кбит/сКодек: FLAC================================================================================
--------------------------------------------------------------------------------Статистика для: 07-Slow DownКоличество сэмплов: 7285320Продолжительность: 2:45--------------------------------------------------------------------------------
Левый Правый
Пики: 0.00 дБ --- 0.00 дБСредний RMS: -7.56 дБ --- -7.56 дБDR канала: 6.88 дБ --- 6.88 дБ--------------------------------------------------------------------------------
Реальные значения DR: DR7
Частота: 44100 ГцКаналов: 2Разрядность: 16Битрейт: 681 кбит/сКодек: FLAC================================================================================--------------------------------------------------------------------------------Статистика для: 05-Jim DandyКоличество сэмплов: 5785920Продолжительность: 2:11--------------------------------------------------------------------------------
Левый Правый
Пики: 0.00 дБ --- 0.00 дБСредний RMS: -8.45 дБ --- -7.99 дБDR канала: 7.06 дБ --- 6.66 дБ--------------------------------------------------------------------------------
Реальные значения DR: DR7
Частота: 44100 ГцКаналов: 2Разрядность: 16Битрейт: 681 кбит/сКодек: FLAC================================================================================--------------------------------------------------------------------------------Анализ: Little Richard / The Many Faces of Chuck Berry: A Journey Through the Inner World of Chuck Ber... (1) Lloyd Price / The Many Faces of Chuck Berry: A Journey Through the Inner World of Chuck Ber... (2) Roy Brown / The Many Faces of Chuck Berry: A Journey Through the Inner World of Chuck Ber... (3) The Dominoes / The Many Faces of Chuck Berry: A Journey Through the Inner World of Chuck Ber... (4)--------------------------------------------------------------------------------
DR Пики RMS Продолжительность трека--------------------------------------------------------------------------------DR9 -0.01 дБ -10.42 дБ 2:23 02-Rip It UpDR8 0.00 дБ -10.02 дБ 2:24 06-Baby, Please Come HomeDR5 0.00 дБ -6.39 дБ 2:57 08-Good Rocking TonightDR7 0.00 дБ -8.19 дБ 2:34 14-Sixty Minute Man--------------------------------------------------------------------------------
Количество треков: 4Реальные значения DR: DR7
Частота: 44100 ГцКаналов: 2Разрядность: 16Битрейт: 681 кбит/сКодек: FLAC================================================================================
--------------------------------------------------------------------------------Статистика для: 10-Shake That ThingКоличество сэмплов: 6041700Продолжительность: 2:17--------------------------------------------------------------------------------
Левый Правый
Пики: 0.00 дБ --- 0.00 дБСредний RMS: -8.84 дБ --- -8.84 дБDR канала: 7.66 дБ --- 7.66 дБ--------------------------------------------------------------------------------
Реальные значения DR: DR8
Частота: 44100 ГцКаналов: 2Разрядность: 16Битрейт: 681 кбит/сКодек: FLAC================================================================================foobar2000 1.3.13 / Замер динамического диапазона (DR) 1.1.1Дата отчёта: 2018-12-14 16:52:46
--------------------------------------------------------------------------------Статистика для: 13-Money (That’s What I Want)Количество сэмплов: 7038360Продолжительность: 2:40--------------------------------------------------------------------------------
Левый Правый
Пики: -1.51 дБ --- -1.51 дБСредний RMS: -9.76 дБ --- -9.52 дБDR канала: 6.36 дБ --- 6.20 дБ--------------------------------------------------------------------------------
Реальные значения DR: DR6
Частота: 44100 ГцКаналов: 2Разрядность: 16Битрейт: 681 кбит/сКодек: FLAC================================================================================
-Раздаю до первых 5-ти скачавших, на раздачи не возвращаюсь...-

If you like the topic, please click share to help develop our site.

To download the file disable ad blocking, and reload the page.

disable adblock How to disable ad blocking?

Download by magnet link 634 MB Download Torrent

Login using:



   
Current time is: 25-Jun 10:58 :: All times are UTC + 3