Время псов / Молитва охотника / The Hunter's Prayer
Страна: США, Испания, Германия
Жанр: Боевик, триллер
Год выпуска: 2017
Продолжительность: 01:31:15
Перевод 1: Профессиональный (дублированный) лицензия
Перевод 2: Любительский (многоголосый закадровый) "Paradox" & Omskbird
Перевод 3: Одноголосый закадровый А.Важенин / BadBajo
Субтитры: Русские, английские
Оригинальная аудиодорожка: Английский
Режиссер: Джонатан Мостоу / Jonathan Mostow
В ролях: Сэм Уортингтон, Одейя Раш, Мартин Компстон, Эудалд Фонт, Тина Мэскелл, Эбен Янг, Стефани Дули, Люси Джексон, Клаудия Тружильо, Кейт Добсон
Описание: За всю свою карьеру киллер-одиночка Стивен Лукас не сделал ни одной ошибки. Даже враги называли его «идеальной машиной для убийства». Но однажды он не смог нажать на курок. Теперь он и его бывшая жертва, девушка Элла с большими прекрасными глазами, скитаются по Европе, чтобы отомстить виновникам жестокого убийства её семьи.

Тип релиза: BDRemux 1080p
Контейнер: MKV
Видео: MPEG-4 AVC, 1920:1080, 29748 kbps, 23.976 fps
Аудио 1: АС3, 6 ch, 48 kHz, 448 kbps Русский Dub
Аудио 2: АС3, 2 ch, 48 kHz, 192 kbps Русский MVO "Paradox" & Omskbird
Аудио 3: АС3, 6 ch, 48 kHz, 384 kbps Русский VO BadBajo
Аудио 4: АС3, 2 ch, 48 kHz, 192 kbps Украинский Dub
Аудио 5:DTS-HD MA, 6 ch, 48 kHz, 3840 kbps, 24-bit (DTS Core 6 ch, 48 kHz, 1509 kbps) Английский
Формат субтитров: SRT

MediaInfo

GeneralUnique ID                                : 166350955071517832407863033900174478462 (0x7D26075008974E6818BFE9285E010C7E)Complete name                            : G:\ФИЛЬМЫ\********\THE.HUNTERS.PRAYER.2017.Eng.Rus.Ukr.REMUX.mkvFormat                                   : MatroskaFormat version                           : Version 4 / Version 2File size                                : 22.2 GiBDuration                                 : 1 h 31 minOverall bit rate mode                    : VariableOverall bit rate                         : 34.9 Mb/sEncoded date                             : UTC 2018-12-28 12:31:54Writing application                      : mkvmerge v20.0.0 ('I Am The Sun') 64-bitWriting library                          : libebml v1.3.5 + libmatroska v1.4.8
VideoID : 1Format : AVCFormat/Info : Advanced Video CodecFormat profile : [email protected] settings : CABAC / 4 Ref FramesFormat settings, CABAC : YesFormat settings, RefFrames : 4 framesCodec ID : V_MPEG4/ISO/AVCDuration : 1 h 31 minBit rate mode : VariableBit rate : 29.7 Mb/sMaximum bit rate : 35.0 Mb/sWidth : 1 920 pixelsHeight : 1 080 pixelsDisplay aspect ratio : 16:9Frame rate mode : ConstantFrame rate : 23.976 (24000/1001) FPSColor space : YUVChroma subsampling : 4:2:0Bit depth : 8 bitsScan type : ProgressiveBits/(Pixel*Frame) : 0.598Stream size : 19.0 GiB (85%)Language : EnglishDefault : YesForced : No
Audio #1ID : 2Format : AC-3Format/Info : Audio Coding 3Codec ID : A_AC3Duration : 1 h 31 minBit rate mode : ConstantBit rate : 448 kb/sChannel(s) : 6 channelsChannel positions : Front: L C R, Side: L R, LFESampling rate : 48.0 kHzFrame rate : 31.250 FPS (1536 SPF)Bit depth : 16 bitsCompression mode : LossyStream size : 292 MiB (1%)Title : Dub RusLanguage : RussianService kind : Complete MainDefault : YesForced : No
Audio #2ID : 3Format : AC-3Format/Info : Audio Coding 3Codec ID : A_AC3Duration : 1 h 31 minBit rate mode : ConstantBit rate : 192 kb/sChannel(s) : 2 channelsChannel positions : Front: L RSampling rate : 48.0 kHzFrame rate : 31.250 FPS (1536 SPF)Bit depth : 16 bitsCompression mode : LossyStream size : 125 MiB (1%)Title : MVO Paradox & OmskbirdLanguage : RussianService kind : Complete MainDefault : NoForced : No
Audio #3ID : 4Format : AC-3Format/Info : Audio Coding 3Codec ID : A_AC3Duration : 1 h 31 minBit rate mode : ConstantBit rate : 384 kb/sChannel(s) : 6 channelsChannel positions : Front: L C R, Side: L R, LFESampling rate : 48.0 kHzFrame rate : 31.250 FPS (1536 SPF)Bit depth : 16 bitsCompression mode : LossyStream size : 250 MiB (1%)Title : VO BadBajoLanguage : RussianService kind : Complete MainDefault : NoForced : No
Audio #4ID : 5Format : AC-3Format/Info : Audio Coding 3Codec ID : A_AC3Duration : 1 h 31 minBit rate mode : ConstantBit rate : 192 kb/sChannel(s) : 2 channelsChannel positions : Front: L RSampling rate : 48.0 kHzFrame rate : 31.250 FPS (1536 SPF)Bit depth : 16 bitsCompression mode : LossyStream size : 125 MiB (1%)Title : Dub UkrLanguage : UkrainianService kind : Complete MainDefault : NoForced : No
Audio #5ID : 6Format : DTSFormat/Info : Digital Theater SystemsFormat profile : MA / CoreCodec ID : A_DTSDuration : 1 h 31 minBit rate mode : Variable / ConstantBit rate : 3 840 kb/s / 1 509 kb/sChannel(s) : 6 channelsChannel positions : Front: L C R, Side: L R, LFESampling rate : 48.0 kHzFrame rate : 93.750 FPS (512 SPF)Bit depth : 24 bitsCompression mode : Lossless / LossyStream size : 2.48 GiB (11%)Language : EnglishDefault : NoForced : No
Text #1ID : 7Format : UTF-8Codec ID : S_TEXT/UTF8Codec ID/Info : UTF-8 Plain TextDuration : 1 h 21 minBit rate : 45 b/sCount of elements : 768Stream size : 27.0 KiB (0%)Language : RussianDefault : NoForced : No
Text #2ID : 8Format : UTF-8Codec ID : S_TEXT/UTF8Codec ID/Info : UTF-8 Plain TextDuration : 1 h 21 minBit rate : 32 b/sCount of elements : 752Stream size : 19.5 KiB (0%)Language : EnglishDefault : NoForced : No
Menu00:00:00.000 : en:Chapter 100:05:06.389 : en:Chapter 200:11:49.542 : en:Chapter 300:18:17.221 : en:Chapter 400:24:50.113 : en:Chapter 500:27:47.499 : en:Chapter 600:34:19.681 : en:Chapter 700:39:41.753 : en:Chapter 800:45:37.192 : en:Chapter 900:51:45.559 : en:Chapter 1000:57:32.114 : en:Chapter 1101:03:03.780 : en:Chapter 1201:09:21.407 : en:Chapter 1301:14:11.195 : en:Chapter 1401:20:17.479 : en:Chapter 1501:23:53.028 : en:Chapter 16

Скриншоты

Перезалит, добавлены русские субтитры

If you like the topic, please click share to help develop our site.

To download the file disable ad blocking, and reload the page.

disable adblock How to disable ad blocking?

Download by magnet link 22.22 GB Download Torrent

Login using:

Similar topics



   
Current time is: 25-Jun 10:55 :: All times are UTC + 3