Alison Crockett / On Becoming A Woman
Жанр: Neo Soul
Носитель: CD
Страна-производитель диска (релиза): usa
Год издания: 2004
Издатель (лейбл): Sol Image
Номер по каталогу: SI-001
Страна исполнителя (группы): usa
Аудиокодек: FLAC (*.flac)
Тип рипа: tracks+.cue
Битрейт аудио: lossless
Продолжительность: 00:59:11
Источник (релизер): my cd
Наличие сканов в содержимом раздачи: да
Треклист:
01 Save Me (5:16)
02 When I Think Of You (3:13)
03 What We Do Now (6:30)
04 Crossroads (4:48)
05 U R (4:52)
06 I'mgonnacome (5:34)
07 You Know What Happens (5:08)
08 Oil & Water (4:21)
09 Like Rain (5:26)
10 Alive (7:58)
11 Nappy (6:05)

Лог создания рипа

Exact Audio Copy V1.0 beta 3 from 29. August 2011
EAC extraction logfile from 11. March 2013, 20:39
Unknown Artist / Unknown Title
Used drive : Optiarc DVD RW AD-7930H Adapter: 0 ID: 1
Read mode : SecureUtilize accurate stream : YesDefeat audio cache : YesMake use of C2 pointers : No
Read offset correction : 48Overread into Lead-In and Lead-Out : NoFill up missing offset samples with silence : YesDelete leading and trailing silent blocks : NoNull samples used in CRC calculations : YesUsed interface : Native Win32 interface for Win NT & 2000Gap handling : Appended to previous track
Used output format : Internal WAV RoutinesSample format : 44.100 Hz; 16 Bit; Stereo
TOC of the extracted CD
Track | Start | Length | Start sector | End sector --------------------------------------------------------- 1 | 0:00.00 | 5:16.25 | 0 | 23724 2 | 5:16.25 | 3:13.00 | 23725 | 38199 3 | 8:29.25 | 6:30.38 | 38200 | 67487 4 | 14:59.63 | 4:48.47 | 67488 | 89134 5 | 19:48.35 | 4:52.58 | 89135 | 111092 6 | 24:41.18 | 5:34.30 | 111093 | 136172 7 | 30:15.48 | 5:08.64 | 136173 | 159336 8 | 35:24.37 | 4:21.09 | 159337 | 178920 9 | 39:45.46 | 5:26.52 | 178921 | 203422 10 | 45:12.23 | 7:58.15 | 203423 | 239287 11 | 53:10.38 | 6:05.32 | 239288 | 266694
Track 1
Filename C:\Users\Costantino\Music\carine02\01 Save Me.wav
Pre-gap length 0:00:02.00
Peak level 100.0 % Extraction speed 1.2 X Track quality 100.0 % Test CRC 4B6BFA87 Copy CRC 4B6BFA87 Track not present in AccurateRip database Copy OK
Track 2
Filename C:\Users\Costantino\Music\carine02\02 When I Think Of You.wav
Peak level 100.0 % Extraction speed 1.2 X Track quality 100.0 % Test CRC 6E8DEE24 Copy CRC 6E8DEE24 Track not present in AccurateRip database Copy OK
Track 3
Filename C:\Users\Costantino\Music\carine02\03 What We Do Now.wav
Peak level 100.0 % Extraction speed 1.5 X Track quality 100.0 % Test CRC 609321D1 Copy CRC 609321D1 Track not present in AccurateRip database Copy OK
Track 4
Filename C:\Users\Costantino\Music\carine02\04 Crossroads.wav
Peak level 100.0 % Extraction speed 1.6 X Track quality 100.0 % Test CRC B1A7E775 Copy CRC B1A7E775 Track not present in AccurateRip database Copy OK
Track 5
Filename C:\Users\Costantino\Music\carine02\05 U R.wav
Peak level 100.0 % Extraction speed 1.5 X Track quality 99.9 % Test CRC 27F694B1 Copy CRC 27F694B1 Track not present in AccurateRip database Copy OK
Track 6
Filename C:\Users\Costantino\Music\carine02\06 I'mgonnacome.wav
Peak level 100.0 % Extraction speed 1.9 X Track quality 100.0 % Test CRC A486436A Copy CRC A486436A Track not present in AccurateRip database Copy OK
Track 7
Filename C:\Users\Costantino\Music\carine02\07 You Know What Happens.wav
Peak level 100.0 % Extraction speed 2.0 X Track quality 100.0 % Test CRC 2831EA96 Copy CRC 2831EA96 Track not present in AccurateRip database Copy OK
Track 8
Filename C:\Users\Costantino\Music\carine02\08 Oil & Water.wav
Peak level 100.0 % Extraction speed 2.0 X Track quality 100.0 % Test CRC ABC7579D Copy CRC ABC7579D Track not present in AccurateRip database Copy OK
Track 9
Filename C:\Users\Costantino\Music\carine02\09 Like Rain.wav
Peak level 100.0 % Extraction speed 2.0 X Track quality 99.9 % Test CRC C6896C66 Copy CRC C6896C66 Track not present in AccurateRip database Copy OK
Track 10
Filename C:\Users\Costantino\Music\carine02\10 Alive.wav
Peak level 100.0 % Extraction speed 2.4 X Track quality 100.0 % Test CRC 31C73D7C Copy CRC 31C73D7C Track not present in AccurateRip database Copy OK
Track 11
Filename C:\Users\Costantino\Music\carine02\11 Nappy.wav
Peak level 100.0 % Extraction speed 2.4 X Track quality 100.0 % Test CRC 0ECDD7A6 Copy CRC 0ECDD7A6 Track not present in AccurateRip database Copy OK
None of the tracks are present in the AccurateRip database
No errors occurred
End of status report
==== Log checksum 671156BE2157225541918F61C6A0DF9FEA66ABC4133E289FE15BFBFD6787476C ====

Содержание индексной карты (.CUE)

REM DISCID 870DE30BREM COMMENT "ExactAudioCopy v1.0b3"PERFORMER "Unknown Artist"TITLE "Unknown Title"FILE "01 Save Me.wav" WAVE  TRACK 01 AUDIO    TITLE "Save Me"    PERFORMER "Unknown Artist"    FLAGS DCP    INDEX 01 00:00:00FILE "02 When I Think Of You.wav" WAVE  TRACK 02 AUDIO    TITLE "When I Think Of You"    PERFORMER "Unknown Artist"    FLAGS DCP    INDEX 01 00:00:00FILE "03 What We Do Now.wav" WAVE  TRACK 03 AUDIO    TITLE "What We Do Now"    PERFORMER "Unknown Artist"    FLAGS DCP    INDEX 01 00:00:00FILE "04 Crossroads.wav" WAVE  TRACK 04 AUDIO    TITLE "Crossroads"    PERFORMER "Unknown Artist"    FLAGS DCP    INDEX 01 00:00:00FILE "05 U R.wav" WAVE  TRACK 05 AUDIO    TITLE "U R"    PERFORMER "Unknown Artist"    FLAGS DCP    INDEX 01 00:00:00FILE "06 I'mgonnacome.wav" WAVE  TRACK 06 AUDIO    TITLE "I'mgonnacome"    PERFORMER "Unknown Artist"    FLAGS DCP    INDEX 01 00:00:00FILE "07 You Know What Happens.wav" WAVE  TRACK 07 AUDIO    TITLE "You Know What Happens"    PERFORMER "Unknown Artist"    FLAGS DCP    INDEX 01 00:00:00FILE "08 Oil & Water.wav" WAVE  TRACK 08 AUDIO    TITLE "Oil & Water"    PERFORMER "Unknown Artist"    FLAGS DCP    INDEX 01 00:00:00FILE "09 Like Rain.wav" WAVE  TRACK 09 AUDIO    TITLE "Like Rain"    PERFORMER "Unknown Artist"    FLAGS DCP    INDEX 01 00:00:00FILE "10 Alive.wav" WAVE  TRACK 10 AUDIO    TITLE "Alive"    PERFORMER "Unknown Artist"    FLAGS DCP    INDEX 01 00:00:00FILE "11 Nappy.wav" WAVE  TRACK 11 AUDIO    TITLE "Nappy"    PERFORMER "Unknown Artist"    FLAGS DCP    INDEX 01 00:00:00
[/spoiler

If you like the topic, please click share to help develop our site.

To download the file disable ad blocking, and reload the page.

disable adblock How to disable ad blocking?

Download by magnet link 394 MB Download Torrent

Login using:

Similar topics

(R&B, Soul) [CD] Anderson. Paak - Malibu - 2016, FLAC (tracks+.cue), lossless
 408 MB   0 | 0   16-Aug-16 04:25   320
(R\'n\'B, Soul, hip hop) Iyeoka - Say Yes - 2010, FLAC (tracks+.cue), lossless
 241 MB   0 | 0   16-Aug-16 04:30   222
(R&B / Soul) Jacob Banks - Village - 2018, MP3 (tracks), 320 kbps
 124 MB   0 | 0   04-Nov-18 18:30   162


   
Current time is: 20-Jul 00:06 :: All times are UTC + 3