Вендетта / Vendetta
Страна: США
Жанр: боевик, драма
Год выпуска: 1986
Продолжительность: 01:29:48
Перевод: одноголосый закадровый Вячеслав Котов
Cубтитры: английские (SDH)
Оригинальная аудиодорожка: английский
Режиссер: Брюс Логан / Bruce Logan
В ролях: Карен Чейз, Сэнди Мартин, Кин Шрайнер, Роберта Коллинз, Мишель Ньюкирк, Маршалл Р. Тиг, Грег Брэдфорд, Марк фон Цех, Плезант Геман, Рози Флорес и др.
Описание: Младшая сестра голливудской каскадерши Лори подвергается нападению насильника, и защищаясь, убивает его. Но обстоятельства и недостаток улик оказываются против нее и она получает два года тюремного заключения. За решеткой правят бал воинственные банды наркоманок и лесбиянок.
Непокорная девушка постоянно подвергается нападкам, и в конце концов ее насильно накачивают наркотиками, истязают и убивают. Не поверив в версию о самоубийстве, принятую властями, Лори совершает мелкое преступление для того, чтобы оказаться в той же тюрьме.
Там она начинает свое расследование, постоянно сталкиваясь с тюремным беспределом, как со стороны банд, так и со стороны надзирателей. Даже такому опытному каскадеру, как Лори нелегко с ними справиться. Но когда она узнает правду об убийстве сестры, вендетту Лори не остановить.
Тип релиза: BDRemux 1080p
Контейнер: MKV
Видео: MPEG-4 AVC Video, 1920x1080 (16:9), 23.976 fps, 29500 kbps
Аудио 1: Russian / AC-3 / 2.0 / 48 kHz / 192 kbps / 16-bit
Аудио 2: English / DTS-HD Master Audio / 2.0 / 48 kHz / 1677 kbps / 24-bit (DTS Core: 2.0 / 48 kHz / 1509 kbps / 24-bit)
Формат субтитров: softsub (SRT)
Синхронизация звука Dreven
Скачать: сэмпл

MediaInfo

General
Unique ID : 13084392000069039844367997178719869286 (0x9D7F655143D0B1613C1B2C329019966)
Complete name : Vendetta.1986.BDRemux.1080p.mkv
Format : Matroska
Format version : Version 4 / Version 2
File size : 19.6 GiB
Duration : 1 h 29 min
Overall bit rate mode : Variable
Overall bit rate : 31.2 Mb/s
Encoded date : UTC 2019-01-16 15:46:51
Writing application : mkvmerge v30.1.0 ('Forever And More') 32-bit
Writing library : libebml v1.3.6 + libmatroska v1.4.9
Video
ID : 1
Format : AVC
Format/Info : Advanced Video Codec
Format profile : [email protected]
Format settings, CABAC : Yes
Format settings, RefFrames : 4 frames
Codec ID : V_MPEG4/ISO/AVC
Duration : 1 h 29 min
Bit rate mode : Variable
Bit rate : 29.3 Mb/s
Maximum bit rate : 36.0 Mb/s
Width : 1 920 pixels
Height : 1 080 pixels
Display aspect ratio : 16:9
Frame rate mode : Constant
Frame rate : 23.976 (24000/1001) FPS
Color space : YUV
Chroma subsampling : 4:2:0
Bit depth : 8 bits
Scan type : Progressive
Bits/(Pixel*Frame) : 0.589
Stream size : 18.4 GiB (94%)
Default : Yes
Forced : No
Audio #1
ID : 2
Format : AC-3
Format/Info : Audio Coding 3
Format settings, Endianness : Big
Codec ID : A_AC3
Duration : 1 h 29 min
Bit rate mode : Constant
Bit rate : 192 kb/s
Channel(s) : 2 channels
Channel positions : Front: L R
Sampling rate : 48.0 kHz
Frame rate : 31.250 FPS (1536 SPF)
Bit depth : 16 bits
Compression mode : Lossy
Stream size : 123 MiB (1%)
Title : Вячеслав Котов
Language : Russian
Service kind : Complete Main
Default : Yes
Forced : No
Audio #2
ID : 3
Format : DTS
Format/Info : Digital Theater Systems
Format profile : MA / Core
Mode : 16
Format settings, Endianness : Big
Codec ID : A_DTS
Duration : 1 h 29 min
Bit rate mode : Variable / Constant
Bit rate : 1 677 kb/s / 1 509 kb/s
Channel(s) : 2 channels
Channel positions : Front: L R
Sampling rate : 48.0 kHz
Frame rate : 93.750 FPS (512 SPF)
Bit depth : 24 bits
Compression mode : Lossless / Lossy
Stream size : 1.05 GiB (5%)
Language : English
Default : No
Forced : No
Text
ID : 4
Format : UTF-8
Codec ID : S_TEXT/UTF8
Codec ID/Info : UTF-8 Plain Text
Duration : 1 h 27 min
Bit rate : 58 b/s
Count of elements : 1453
Stream size : 37.5 KiB (0%)
Title : SDH
Language : English
Default : No
Forced : No
Menu
00:00:00.000 : :Chapter 01
00:09:55.970 : :Chapter 02
00:14:31.328 : :Chapter 03
00:21:25.951 : :Chapter 04
00:28:17.320 : :Chapter 05
00:34:26.272 : :Chapter 06
00:43:14.300 : :Chapter 07
00:52:57.424 : :Chapter 08
01:01:25.765 : :Chapter 09
01:06:32.405 : :Chapter 10
01:13:46.046 : :Chapter 11
01:19:36.980 : :Chapter 12
01:29:47.048 : :Chapter 13

Скриншоты


If you like the topic, please click share to help develop our site.

To download the file disable ad blocking, and reload the page.

disable adblock How to disable ad blocking?

Download by magnet link 19.56 GB Download Torrent

Login using:

Similar topics

Вендетта / Vendetta (1999) WEB-DL 1080p от KORSAR | P
 10.37 GB   0 | 2   07-Jun-18 10:30   0


   
Current time is: 25-Jun 10:27 :: All times are UTC + 3