Jacinta - Ofrecer mi corazon
Жанр: Latin Jazz, Vocal Jazz
Носитель: CD
Страна-производитель диска (релиза): Франция
Год издания: 2016
Издатель (лейбл): Soupir Editions
Номер по каталогу: S235
Аудиокодек: FLAC (*.flac)
Тип рипа: tracks+.cue
Битрейт аудио: lossless
Продолжительность: 00:44:48
Источник: Gpoff
Наличие сканов в содержимом раздачи: нет
Треклист:
01. Sos la noche (2:53)
02. Alfonsina y el mar (4:10)
03. Moliendo cafe (3:00)
04. Ah! Laissez-moi crier (3:58)
05. Cantar del alma (3:22)
06. Yo vengo a ofrecer mi corazon (2:34)
07. Chiquilin de Bachin (3:38)
08. Youkalin (4:19)
09. Te recuerdo Amanda (2:28)
10. Balada para un loco (4:15)
11. Gibraltar Story (2:27)
12. Amapola (2:36)
13. Golondrinas (3:07)
14. Poupee de cire, poupee de son (2:01)
Состав:
Jacinta - vocals
David Venitucci - accordion

Лог создания рипа

Exact Audio Copy V1.0 beta 3 from 29. August 2011
EAC extraction logfile from 28. January 2017, 15:48
Jacinta & David Venitucci / Ofrecer mi corazon
Used drive : TSSTcorpCDDVDW SE-218CB Adapter: 1 ID: 0
Read mode : SecureUtilize accurate stream : YesDefeat audio cache : YesMake use of C2 pointers : No
Read offset correction : 6Overread into Lead-In and Lead-Out : NoFill up missing offset samples with silence : YesDelete leading and trailing silent blocks : NoNull samples used in CRC calculations : YesUsed interface : Native Win32 interface for Win NT & 2000Gap handling : Appended to previous track
Used output format : User Defined EncoderSelected bitrate : 1024 kBit/sQuality : HighAdd ID3 tag : NoCommand line compressor : C:\Program Files (x86)\Exact Audio Copy\Flac\flac.exeAdditional command line options : -8 -V -T "ARTIST=%artist%" -T "TITLE=%title%" -T "ALBUM=%albumtitle%" -T "DATE=%year%" -T "TRACKNUMBER=%tracknr%" -T "GENRE=%genre%" -T "PERFORMER=%albuminterpret%" -T "COMPOSER=%composer%" %haslyrics%--tag-from-file=LYRICS="%lyricsfile%"%haslyrics% -T "ALBUMARTIST=%albumartist%" -T "DISCNUMBER=%cdnumber%" -T "TOTALDISCS=%totalcds%" -T "TOTALTRACKS=%numtracks%" -T "COMMENT=%comment%" %source% -o %dest%
TOC of the extracted CD
Track | Start | Length | Start sector | End sector --------------------------------------------------------- 1 | 0:00.00 | 2:53.00 | 0 | 12974 2 | 2:53.00 | 4:09.56 | 12975 | 31705 3 | 7:02.56 | 3:00.23 | 31706 | 45228 4 | 10:03.04 | 3:58.26 | 45229 | 63104 5 | 14:01.30 | 3:22.02 | 63105 | 78256 6 | 17:23.32 | 2:34.16 | 78257 | 89822 7 | 19:57.48 | 3:37.63 | 89823 | 106160 8 | 23:35.36 | 4:18.74 | 106161 | 125584 9 | 27:54.35 | 2:28.05 | 125585 | 136689 10 | 30:22.40 | 4:14.54 | 136690 | 155793 11 | 34:37.19 | 2:27.28 | 155794 | 166846 12 | 37:04.47 | 2:36.01 | 166847 | 178547 13 | 39:40.48 | 3:07.26 | 178548 | 192598 14 | 42:47.74 | 2:01.18 | 192599 | 201691
Track 1
Filename C:\EAC\Jacinta & David Venitucci - Ofrecer mi corazon - 2016 - FLAC - CD\01. Sos La Noche.wav
Pre-gap length 0:00:02.00
Peak level 93.5 % Extraction speed 1.9 X Track quality 99.9 % Test CRC F2A43A43 Copy CRC F2A43A43 Track not present in AccurateRip database Copy OK
Track 2
Filename C:\EAC\Jacinta & David Venitucci - Ofrecer mi corazon - 2016 - FLAC - CD\02. Alfonsina Y El Mar.wav
Peak level 92.0 % Extraction speed 2.8 X Track quality 100.0 % Test CRC 03790CB6 Copy CRC 03790CB6 Track not present in AccurateRip database Copy OK
Track 3
Filename C:\EAC\Jacinta & David Venitucci - Ofrecer mi corazon - 2016 - FLAC - CD\03. Moliendo Cafe.wav
Peak level 84.8 % Extraction speed 2.9 X Track quality 100.0 % Test CRC 127550C9 Copy CRC 127550C9 Track not present in AccurateRip database Copy OK
Track 4
Filename C:\EAC\Jacinta & David Venitucci - Ofrecer mi corazon - 2016 - FLAC - CD\04. Ah ! Laissez-Moi Crier.wav
Peak level 87.0 % Extraction speed 2.6 X Track quality 99.9 % Test CRC 2B76C2FC Copy CRC 2B76C2FC Track not present in AccurateRip database Copy OK
Track 5
Filename C:\EAC\Jacinta & David Venitucci - Ofrecer mi corazon - 2016 - FLAC - CD\05. Cantar Del Alma.wav
Peak level 80.3 % Extraction speed 3.3 X Track quality 100.0 % Test CRC 7E8E8593 Copy CRC 7E8E8593 Track not present in AccurateRip database Copy OK
Track 6
Filename C:\EAC\Jacinta & David Venitucci - Ofrecer mi corazon - 2016 - FLAC - CD\06. Yo Vengo A Ofrecer Mi Corazon.wav
Peak level 92.9 % Extraction speed 3.2 X Track quality 100.0 % Test CRC 2C004E51 Copy CRC 2C004E51 Track not present in AccurateRip database Copy OK
Track 7
Filename C:\EAC\Jacinta & David Venitucci - Ofrecer mi corazon - 2016 - FLAC - CD\07. Chiquilin De Bachin.wav
Peak level 63.8 % Extraction speed 3.6 X Track quality 100.0 % Test CRC 44C4D1A7 Copy CRC 44C4D1A7 Track not present in AccurateRip database Copy OK
Track 8
Filename C:\EAC\Jacinta & David Venitucci - Ofrecer mi corazon - 2016 - FLAC - CD\08. Youkalin.wav
Peak level 76.6 % Extraction speed 3.9 X Track quality 100.0 % Test CRC 5D181482 Copy CRC 5D181482 Track not present in AccurateRip database Copy OK
Track 9
Filename C:\EAC\Jacinta & David Venitucci - Ofrecer mi corazon - 2016 - FLAC - CD\09. Te Recuerdo Amanda.wav
Peak level 80.2 % Extraction speed 2.8 X Track quality 99.9 % Test CRC 58C9D2D1 Copy CRC 58C9D2D1 Track not present in AccurateRip database Copy OK
Track 10
Filename C:\EAC\Jacinta & David Venitucci - Ofrecer mi corazon - 2016 - FLAC - CD\10. Balada Para Un Loco.wav
Peak level 83.0 % Extraction speed 4.1 X Track quality 100.0 % Test CRC 6A6F6E70 Copy CRC 6A6F6E70 Track not present in AccurateRip database Copy OK
Track 11
Filename C:\EAC\Jacinta & David Venitucci - Ofrecer mi corazon - 2016 - FLAC - CD\11. Gibraltar Story.wav
Peak level 80.1 % Extraction speed 2.9 X Track quality 99.9 % Test CRC 7EA7EE32 Copy CRC 7EA7EE32 Track not present in AccurateRip database Copy OK
Track 12
Filename C:\EAC\Jacinta & David Venitucci - Ofrecer mi corazon - 2016 - FLAC - CD\12. Amapola.wav
Peak level 67.9 % Extraction speed 3.1 X Track quality 99.9 % Test CRC D79DF255 Copy CRC D79DF255 Track not present in AccurateRip database Copy OK
Track 13
Filename C:\EAC\Jacinta & David Venitucci - Ofrecer mi corazon - 2016 - FLAC - CD\13. Golondrinas.wav
Peak level 77.6 % Extraction speed 4.2 X Track quality 100.0 % Test CRC 60F10BA6 Copy CRC 60F10BA6 Track not present in AccurateRip database Copy OK
Track 14
Filename C:\EAC\Jacinta & David Venitucci - Ofrecer mi corazon - 2016 - FLAC - CD\14. Poupée De Cire, Poupée De Son.wav
Peak level 76.1 % Extraction speed 3.9 X Track quality 100.0 % Test CRC 02DEE4FE Copy CRC 02DEE4FE Track not present in AccurateRip database Copy OK
None of the tracks are present in the AccurateRip database
No errors occurred
End of status report
==== Log checksum 0515A29CF5E11603F79D2B769628B669D9899F0B039224FB4F544960C3D7D6F1 ====

Содержание индексной карты (.CUE)

REM GENRE LatinREM DATE 2016REM DISCID C40A810EREM COMMENT "ExactAudioCopy v1.0b3"PERFORMER "Jacinta"TITLE "Ofrecer mi corazon"FILE "01 - Sos la noche.wav" WAVE  TRACK 01 AUDIO    TITLE "Sos la noche"    PERFORMER "Jacinta"    ISRC FR9W11523187    INDEX 01 00:00:00FILE "02 - Alfonsina y el mar.wav" WAVE  TRACK 02 AUDIO    TITLE "Alfonsina y el mar"    PERFORMER "Jacinta"    ISRC FR9W11523188    INDEX 01 00:00:00FILE "03 - Moliendo cafe.wav" WAVE  TRACK 03 AUDIO    TITLE "Moliendo cafe"    PERFORMER "Jacinta"    ISRC FR9W11523189    INDEX 01 00:00:00FILE "04 - Ah! Laissez-moi crier.wav" WAVE  TRACK 04 AUDIO    TITLE "Ah! Laissez-moi crier"    PERFORMER "Jacinta"    ISRC FR9W11523190    INDEX 01 00:00:00FILE "05 - Cantar del alma.wav" WAVE  TRACK 05 AUDIO    TITLE "Cantar del alma"    PERFORMER "Jacinta"    ISRC FR9W11523191    INDEX 01 00:00:00FILE "06 - Yo vengo a ofrecer mi corazon.wav" WAVE  TRACK 06 AUDIO    TITLE "Yo vengo a ofrecer mi corazon"    PERFORMER "Jacinta"    ISRC FR9W11523192    INDEX 01 00:00:00FILE "07 - Chiquilin de Bachin.wav" WAVE  TRACK 07 AUDIO    TITLE "Chiquilin de Bachin"    PERFORMER "Jacinta"    ISRC FR9W11523193    INDEX 01 00:00:00FILE "08 - Youkalin.wav" WAVE  TRACK 08 AUDIO    TITLE "Youkalin"    PERFORMER "Jacinta"    ISRC FR9W11523194    INDEX 01 00:00:00FILE "09 - Te recuerdo Amanda.wav" WAVE  TRACK 09 AUDIO    TITLE "Te recuerdo Amanda"    PERFORMER "Jacinta"    ISRC FR9W11523195    INDEX 01 00:00:00FILE "10 - Balada para un loco.wav" WAVE  TRACK 10 AUDIO    TITLE "Balada para un loco"    PERFORMER "Jacinta"    ISRC FR9W11523196    INDEX 01 00:00:00FILE "11 - Gibraltar Story.wav" WAVE  TRACK 11 AUDIO    TITLE "Gibraltar Story"    PERFORMER "Jacinta"    ISRC FR9W11523197    INDEX 01 00:00:00FILE "12 - Amapola.wav" WAVE  TRACK 12 AUDIO    TITLE "Amapola"    PERFORMER "Jacinta"    ISRC FR9W11523198    INDEX 01 00:00:00FILE "13 - Golondrinas.wav" WAVE  TRACK 13 AUDIO    TITLE "Golondrinas"    PERFORMER "Jacinta"    ISRC FR9W11523199    INDEX 01 00:00:00FILE "14 - Poupee de cire, poupee de son.wav" WAVE  TRACK 14 AUDIO    TITLE "Poupee de cire, poupee de son"    PERFORMER "Jacinta"    ISRC FR9W11523200    INDEX 01 00:00:00

If you like the topic, please click share to help develop our site.

To download the file disable ad blocking, and reload the page.

disable adblock How to disable ad blocking?

Download by magnet link 232 MB Download Torrent

Login using:

Similar topics



   
Current time is: 16-Jul 22:05 :: All times are UTC + 3