Jacintha / Collection 2001-2004
Жанр: Vocal Jazz, Latin, Smooth Jazz, Bossa Nova
Носитель: CD XRCD
Страна-производитель диска (релиза): Japan, US
Год издания: 2001-2004
Издатель (лейбл): Groove Note
Аудиокодек: FLAC (*.flac)
Тип рипа: tracks+.cue
Битрейт аудио: lossless
Источник: собственный рип
Наличие сканов в содержимом раздачи: да+booklet
Продолжительность: 02:36:31

Jacintha - Lush Life-2001 (jvcxr-0217-2):

-



01. Jacintha - The Boulevard of Broken Dreams (4:56)
02. Jacintha - Black Coffee (6:33)
03. Jacintha - Summertime (6:13)
04. Jacintha - Lush Life (6:20)
05. Jacintha - Manha de Carnaval (6:11)
06. Jacintha - The Shadow of Your Smile (5:12)
07. Jacintha - When the World Was Young (8:23)
08. Jacintha - September Song (5:12)
09. Jacintha - Harlem Nocturne (6:21)
10. Jacintha - Smile (2:20)

Лог создания рипа

Exact Audio Copy V1.1 from 23. June 2015
EAC extraction logfile from 31. January 2019, 7:49
Jacintha / Lush Life
Used drive : ASUS DRW-24D5MT Adapter: 1 ID: 0
Read mode : SecureUtilize accurate stream : YesDefeat audio cache : YesMake use of C2 pointers : No
Read offset correction : 6Overread into Lead-In and Lead-Out : NoFill up missing offset samples with silence : YesDelete leading and trailing silent blocks : NoNull samples used in CRC calculations : YesUsed interface : Native Win32 interface for Win NT & 2000Gap handling : Appended to previous track
Used output format : User Defined EncoderSelected bitrate : 768 kBit/sQuality : HighAdd ID3 tag : NoCommand line compressor : F:\Программы\Exact Audio Copy\FLAC\FLAC.EXEAdditional command line options : -6 -V -T "ARTIST=%artist%" -T "TITLE=%title%" -T "ALBUM=%albumtitle%" -T "DATE=%year%" -T "TRACKNUMBER=%tracknr%" -T "GENRE=%genre%" -T "COMMENT=Ripped by grandsrt8" -T "BAND=%albuminterpret%" -T "ALBUMARTIST=%albuminterpret%" -T "COMPOSER=%composer%" %haslyrics%--tag-from-file=LYRICS="%lyricsfile%"%haslyrics% -T "DISCNUMBER=%cdnumber%" -T "TOTALDISCS=%totalcds%" -T "TOTALTRACKS=%numtracks%" %hascover%--picture="%coverfile%"%hascover% %source% -o %dest%
TOC of the extracted CD
Track | Start | Length | Start sector | End sector --------------------------------------------------------- 1 | 0:00.00 | 4:56.35 | 0 | 22234 2 | 4:56.35 | 6:33.23 | 22235 | 51732 3 | 11:29.58 | 6:12.57 | 51733 | 79689 4 | 17:42.40 | 6:20.00 | 79690 | 108189 5 | 24:02.40 | 6:10.45 | 108190 | 135984 6 | 30:13.10 | 5:12.15 | 135985 | 159399 7 | 35:25.25 | 8:22.70 | 159400 | 197119 8 | 43:48.20 | 5:12.25 | 197120 | 220544 9 | 49:00.45 | 6:20.70 | 220545 | 249114 10 | 55:21.40 | 2:19.45 | 249115 | 259584
Track 1
Filename F:\Rips grandsrt8\01 The Boulevard of Broken Dreams.wav
Pre-gap length 0:00:02.00
Peak level 100.0 % Extraction speed 0.9 X Track quality 99.9 % Test CRC BDBC3B24 Copy CRC BDBC3B24 Accurately ripped (confidence 22) [4124BB38] (AR v2) Copy OK
Track 2
Filename F:\Rips grandsrt8\02 Black Coffee.wav
Pre-gap length 0:00:02.44
Peak level 100.0 % Extraction speed 1.2 X Track quality 100.0 % Test CRC 2209C859 Copy CRC 2209C859 Accurately ripped (confidence 24) [90D46656] (AR v2) Copy OK
Track 3
Filename F:\Rips grandsrt8\03 Summertime.wav
Pre-gap length 0:00:01.24
Peak level 84.3 % Extraction speed 1.4 X Track quality 100.0 % Test CRC DA54DDC9 Copy CRC DA54DDC9 Accurately ripped (confidence 24) [449E2CB3] (AR v2) Copy OK
Track 4
Filename F:\Rips grandsrt8\04 Lush Life.wav
Pre-gap length 0:00:01.71
Peak level 96.4 % Extraction speed 1.5 X Track quality 100.0 % Test CRC 4CB4474E Copy CRC 4CB4474E Accurately ripped (confidence 24) [2125C666] (AR v2) Copy OK
Track 5
Filename F:\Rips grandsrt8\05 Manha de Carnaval.wav
Pre-gap length 0:00:03.04
Peak level 94.5 % Extraction speed 1.7 X Track quality 100.0 % Test CRC 8D4D1AD5 Copy CRC 8D4D1AD5 Accurately ripped (confidence 24) [070EBEE1] (AR v2) Copy OK
Track 6
Filename F:\Rips grandsrt8\06 The Shadow of Your Smile.wav
Pre-gap length 0:00:02.39
Peak level 69.0 % Extraction speed 1.8 X Track quality 100.0 % Test CRC 3C057795 Copy CRC 3C057795 Accurately ripped (confidence 23) [F67F6B2A] (AR v2) Copy OK
Track 7
Filename F:\Rips grandsrt8\07 When the World Was Young.wav
Pre-gap length 0:00:01.66
Peak level 97.1 % Extraction speed 1.9 X Track quality 100.0 % Test CRC 9A5DA0D6 Copy CRC 9A5DA0D6 Accurately ripped (confidence 24) [A0AA0527] (AR v2) Copy OK
Track 8
Filename F:\Rips grandsrt8\08 September Song.wav
Pre-gap length 0:00:02.46
Peak level 67.1 % Extraction speed 2.0 X Track quality 100.0 % Test CRC DD04929C Copy CRC DD04929C Accurately ripped (confidence 25) [BE170D9C] (AR v2) Copy OK
Track 9
Filename F:\Rips grandsrt8\09 Harlem Nocturne.wav
Pre-gap length 0:00:03.01
Peak level 100.0 % Extraction speed 2.1 X Track quality 100.0 % Test CRC D81F39E7 Copy CRC D81F39E7 Accurately ripped (confidence 25) [3624C1A0] (AR v2) Copy OK
Track 10
Filename F:\Rips grandsrt8\10 Smile.wav
Pre-gap length 0:00:02.74
Peak level 43.8 % Extraction speed 1.9 X Track quality 100.0 % Test CRC 799569ED Copy CRC 799569ED Accurately ripped (confidence 26) [717C3BC0] (AR v2) Copy OK
All tracks accurately ripped
No errors occurred
End of status report
---- CUETools DB Plugin V2.1.6
[CTDB TOCID: GMHCEVr7iIGsl1GlTsieqYNMQ9w-] foundSubmit result: GMHCEVr7iIGsl1GlTsieqYNMQ9w- has been confirmedTrack | CTDB Status 1 | (26/36) Accurately ripped 2 | (26/36) Accurately ripped 3 | (26/36) Accurately ripped 4 | (26/36) Accurately ripped 5 | (26/36) Accurately ripped 6 | (26/36) Accurately ripped 7 | (25/36) Accurately ripped 8 | (25/36) Accurately ripped 9 | (26/36) Accurately ripped 10 | (26/36) Accurately ripped
==== Log checksum 0DC560B5D63634E64524095E377EF0DD37BF928F36027A0971B15BF618CA3F54 ====

Содержание индексной карты (.CUE)

REM GENRE JazzREM DATE 2001REM DISCID 7F0D850AREM COMMENT "ExactAudioCopy v1.1"PERFORMER "Jacintha"TITLE "Lush Life"FILE "01 The Boulevard of Broken Dreams.wav" WAVE  TRACK 01 AUDIO    TITLE "The Boulevard of Broken Dreams"    PERFORMER "Jacintha"    INDEX 01 00:00:00  TRACK 02 AUDIO    TITLE "Black Coffee"    PERFORMER "Jacintha"    INDEX 00 04:53:66FILE "02 Black Coffee.wav" WAVE    INDEX 01 00:00:00  TRACK 03 AUDIO    TITLE "Summertime"    PERFORMER "Jacintha"    INDEX 00 06:31:74FILE "03 Summertime.wav" WAVE    INDEX 01 00:00:00  TRACK 04 AUDIO    TITLE "Lush Life"    PERFORMER "Jacintha"    INDEX 00 06:10:61FILE "04 Lush Life.wav" WAVE    INDEX 01 00:00:00  TRACK 05 AUDIO    TITLE "Manha de Carnaval"    PERFORMER "Jacintha"    INDEX 00 06:16:71FILE "05 Manha de Carnaval.wav" WAVE    INDEX 01 00:00:00  TRACK 06 AUDIO    TITLE "The Shadow of Your Smile"    PERFORMER "Jacintha"    INDEX 00 06:08:06FILE "06 The Shadow of Your Smile.wav" WAVE    INDEX 01 00:00:00  TRACK 07 AUDIO    TITLE "When the World Was Young"    PERFORMER "Jacintha"    INDEX 00 05:10:24FILE "07 When the World Was Young.wav" WAVE    INDEX 01 00:00:00  TRACK 08 AUDIO    TITLE "September Song"    PERFORMER "Jacintha"    INDEX 00 08:20:24FILE "08 September Song.wav" WAVE    INDEX 01 00:00:00  TRACK 09 AUDIO    TITLE "Harlem Nocturne"    PERFORMER "Jacintha"    INDEX 00 05:09:24FILE "09 Harlem Nocturne.wav" WAVE    INDEX 01 00:00:00  TRACK 10 AUDIO    TITLE "Smile"    PERFORMER "Jacintha"    INDEX 00 06:17:71FILE "10 Smile.wav" WAVE    INDEX 01 00:00:00

Лог проверки качества

fooCDtect - foobar2000 + auCDtect, baralgin.
auCDtect: CD records authenticity detector, version 0.8.2Copyright (c) 2004 Oleg Berngardt. All rights reserved.Copyright (c) 2004 Alexander Djourik. All rights reserved.
mode: 0
=========================================== Track: 01. Jacintha - The Boulevard of Broken Dreams Quality: CDDA 100%=========================================== Track: 03. Jacintha - Summertime Quality: CDDA 99%=========================================== Track: 04. Jacintha - Lush Life Quality: CDDA 100%=========================================== Track: 02. Jacintha - Black Coffee Quality: CDDA 99%=========================================== Track: 05. Jacintha - Manha de Carnaval Quality: CDDA 100%=========================================== Track: 06. Jacintha - The Shadow of Your Smile Quality: CDDA 100%=========================================== Track: 07. Jacintha - When the World Was Young Quality: CDDA 100%=========================================== Track: 08. Jacintha - September Song Quality: CDDA 100%=========================================== Track: 09. Jacintha - Harlem Nocturne Quality: CDDA 100%=========================================== Track: 10. Jacintha - Smile Quality: CDDA 99%===========================================

Jacintha - Jacintha Is Her Name-2003 (GRN040013):

-

01. Jacintha - Willow Weep for Me (5:33)
02. Jacintha - The Thrill Is Gone (5:22)
03. Jacintha - Something Cool (6:08)
04. Jacintha - Don't Smoke in Bed (4:08)
05. Jacintha - Light My Fire (4:03)
06. Jacintha - I'm in the Mood for Love (4:15)
07. Jacintha - God Bless the Child (5:41)
08. Jacintha - Round Midnight (6:15)
09. Jacintha - I'll Never Smile Again (4:06)
10. Jacintha - Gone With the Wind (3:19)
11. Jacintha - Cry Me a River (4:42)

Лог создания рипа

Exact Audio Copy V1.1 from 23. June 2015
EAC extraction logfile from 2. February 2019, 17:51
Jacintha / Jacintha Is Her Name
Used drive : ASUS DRW-24D5MT Adapter: 1 ID: 0
Read mode : SecureUtilize accurate stream : YesDefeat audio cache : YesMake use of C2 pointers : No
Read offset correction : 6Overread into Lead-In and Lead-Out : NoFill up missing offset samples with silence : YesDelete leading and trailing silent blocks : NoNull samples used in CRC calculations : YesUsed interface : Native Win32 interface for Win NT & 2000Gap handling : Appended to previous track
Used output format : User Defined EncoderSelected bitrate : 768 kBit/sQuality : HighAdd ID3 tag : NoCommand line compressor : F:\Программы\Exact Audio Copy\FLAC\FLAC.EXEAdditional command line options : -8 -V -T "ARTIST=%artist%" -T "TITLE=%title%" -T "ALBUM=%albumtitle%" -T "DATE=%year%" -T "TRACKNUMBER=%tracknr%" -T "GENRE=%genre%" -T "COMMENT=Ripped by grandsrt8" %source%
TOC of the extracted CD
Track | Start | Length | Start sector | End sector --------------------------------------------------------- 1 | 0:00.00 | 5:33.20 | 0 | 24994 2 | 5:33.20 | 5:21.68 | 24995 | 49137 3 | 10:55.13 | 6:07.42 | 49138 | 76704 4 | 17:02.55 | 4:08.25 | 76705 | 95329 5 | 21:11.05 | 4:03.20 | 95330 | 113574 6 | 25:14.25 | 4:15.25 | 113575 | 132724 7 | 29:29.50 | 5:41.08 | 132725 | 158307 8 | 35:10.58 | 6:14.67 | 158308 | 186424 9 | 41:25.50 | 4:06.25 | 186425 | 204899 10 | 45:32.00 | 3:18.48 | 204900 | 219797 11 | 48:50.48 | 4:42.02 | 219798 | 240949
Track 1
Filename F:\Rips grandsrt8\01 Willow Weep for Me.wav
Pre-gap length 0:00:02.00
Peak level 92.5 % Extraction speed 1.1 X Track quality 100.0 % Test CRC C2666067 Copy CRC C2666067 Accurately ripped (confidence 8) [9C0C12D4] (AR v2) Copy OK
Track 2
Filename F:\Rips grandsrt8\02 The Thrill Is Gone.wav
Pre-gap length 0:00:03.64
Peak level 100.0 % Extraction speed 1.2 X Track quality 100.0 % Test CRC 16D0645B Copy CRC 16D0645B Accurately ripped (confidence 8) [F13D5DBC] (AR v2) Copy OK
Track 3
Filename F:\Rips grandsrt8\03 Something Cool.wav
Pre-gap length 0:00:04.24
Peak level 96.8 % Extraction speed 1.4 X Track quality 100.0 % Test CRC BEEFB3A5 Copy CRC BEEFB3A5 Accurately ripped (confidence 8) [D907B369] (AR v2) Copy OK
Track 4
Filename F:\Rips grandsrt8\04 Don't Smoke in Bed.wav
Pre-gap length 0:00:03.71
Peak level 77.5 % Extraction speed 1.3 X Track quality 99.9 % Test CRC 4ECCFE78 Copy CRC 4ECCFE78 Accurately ripped (confidence 8) [0C2BE69A] (AR v2) Copy OK
Track 5
Filename F:\Rips grandsrt8\05 Light My Fire.wav
Pre-gap length 0:00:04.29
Peak level 99.3 % Extraction speed 1.5 X Track quality 100.0 % Test CRC 07802FD9 Copy CRC 07802FD9 Accurately ripped (confidence 8) [55A0B087] (AR v2) Copy OK
Track 6
Filename F:\Rips grandsrt8\06 I'm in the Mood for Love.wav
Pre-gap length 0:00:03.36
Peak level 84.6 % Extraction speed 1.6 X Track quality 100.0 % Test CRC A4A8EE5A Copy CRC A4A8EE5A Accurately ripped (confidence 8) [84241F3E] (AR v2) Copy OK
Track 7
Filename F:\Rips grandsrt8\07 God Bless the Child.wav
Pre-gap length 0:00:04.06
Peak level 79.6 % Extraction speed 1.8 X Track quality 100.0 % Test CRC DE306F8D Copy CRC DE306F8D Accurately ripped (confidence 8) [6A727AEA] (AR v2) Copy OK
Track 8
Filename F:\Rips grandsrt8\08 Round Midnight.wav
Pre-gap length 0:00:03.64
Peak level 79.1 % Extraction speed 1.9 X Track quality 100.0 % Test CRC 0F5120B3 Copy CRC 0F5120B3 Accurately ripped (confidence 8) [7BFB7294] (AR v2) Copy OK
Track 9
Filename F:\Rips grandsrt8\09 I'll Never Smile Again.wav
Pre-gap length 0:00:03.41
Peak level 79.2 % Extraction speed 1.7 X Track quality 99.9 % Test CRC 893CABEB Copy CRC 893CABEB Accurately ripped (confidence 8) [0AAAFAD4] (AR v2) Copy OK
Track 10
Filename F:\Rips grandsrt8\10 Gone With the Wind.wav
Pre-gap length 0:00:04.26
Peak level 82.1 % Extraction speed 1.9 X Track quality 100.0 % Test CRC 8F2675BD Copy CRC 8F2675BD Accurately ripped (confidence 8) [C7C4087C] (AR v2) Copy OK
Track 11
Filename F:\Rips grandsrt8\11 Cry Me a River.wav
Pre-gap length 0:00:03.47
Peak level 91.7 % Extraction speed 2.0 X Track quality 100.0 % Test CRC 5535225F Copy CRC 5535225F Accurately ripped (confidence 8) [9F03A5C1] (AR v2) Copy OK
All tracks accurately ripped
No errors occurred
End of status report
---- CUETools DB Plugin V2.1.6
[CTDB TOCID: xHv4XTSUCqMGTC_tp.39lpdvE3I-] foundSubmit result: xHv4XTSUCqMGTC_tp.39lpdvE3I- has been confirmedTrack | CTDB Status 1 | (8/8) Accurately ripped 2 | (8/8) Accurately ripped 3 | (8/8) Accurately ripped 4 | (8/8) Accurately ripped 5 | (8/8) Accurately ripped 6 | (8/8) Accurately ripped 7 | (8/8) Accurately ripped 8 | (8/8) Accurately ripped 9 | (8/8) Accurately ripped 10 | (8/8) Accurately ripped 11 | (8/8) Accurately ripped
==== Log checksum A87D056B7EE2610F9BF24C3085AB393C1895DDA56252F1D141CE7B4196FC1F6A ====

Содержание индексной карты (.CUE)

REM GENRE JazzREM DATE 2003REM DISCID 8B0C8C0BREM COMMENT "ExactAudioCopy v1.1"PERFORMER "Jacintha"TITLE "Jacintha Is Her Name"FILE "01 Willow Weep for Me.wav" WAVE  TRACK 01 AUDIO    TITLE "Willow Weep for Me"    PERFORMER "Jacintha"    INDEX 01 00:00:00  TRACK 02 AUDIO    TITLE "The Thrill Is Gone"    PERFORMER "Jacintha"    INDEX 00 05:29:31FILE "02 The Thrill Is Gone.wav" WAVE    INDEX 01 00:00:00  TRACK 03 AUDIO    TITLE "Something Cool"    PERFORMER "Jacintha"    INDEX 00 05:17:44FILE "03 Something Cool.wav" WAVE    INDEX 01 00:00:00  TRACK 04 AUDIO    TITLE "Don't Smoke in Bed"    PERFORMER "Jacintha"    INDEX 00 06:03:46FILE "04 Don't Smoke in Bed.wav" WAVE    INDEX 01 00:00:00  TRACK 05 AUDIO    TITLE "Light My Fire"    PERFORMER "Jacintha"    INDEX 00 04:03:71FILE "05 Light My Fire.wav" WAVE    INDEX 01 00:00:00  TRACK 06 AUDIO    TITLE "I'm in the Mood for Love"    PERFORMER "Jacintha"    INDEX 00 03:59:59FILE "06 I'm in the Mood for Love.wav" WAVE    INDEX 01 00:00:00  TRACK 07 AUDIO    TITLE "God Bless the Child"    PERFORMER "Jacintha"    INDEX 00 04:11:19FILE "07 God Bless the Child.wav" WAVE    INDEX 01 00:00:00  TRACK 08 AUDIO    TITLE "Round Midnight"    PERFORMER "Jacintha"    INDEX 00 05:37:19FILE "08 Round Midnight.wav" WAVE    INDEX 01 00:00:00  TRACK 09 AUDIO    TITLE "I'll Never Smile Again"    PERFORMER "Jacintha"    INDEX 00 06:11:26FILE "09 I'll Never Smile Again.wav" WAVE    INDEX 01 00:00:00  TRACK 10 AUDIO    TITLE "Gone With the Wind"    PERFORMER "Jacintha"    INDEX 00 04:01:74FILE "10 Gone With the Wind.wav" WAVE    INDEX 01 00:00:00  TRACK 11 AUDIO    TITLE "Cry Me a River"    PERFORMER "Jacintha"    INDEX 00 03:15:01FILE "11 Cry Me a River.wav" WAVE    INDEX 01 00:00:00

Лог проверки качества

fooCDtect - foobar2000 + auCDtect, baralgin.
auCDtect: CD records authenticity detector, version 0.8.2Copyright (c) 2004 Oleg Berngardt. All rights reserved.Copyright (c) 2004 Alexander Djourik. All rights reserved.
mode: 0
=========================================== Track: 01. Jacintha - Willow Weep for Me Quality: CDDA 100%=========================================== Track: 02. Jacintha - The Thrill Is Gone Quality: CDDA 100%=========================================== Track: 04. Jacintha - Don't Smoke in Bed Quality: CDDA 100%=========================================== Track: 03. Jacintha - Something Cool Quality: CDDA 100%=========================================== Track: 05. Jacintha - Light My Fire Quality: CDDA 100%=========================================== Track: 06. Jacintha - I'm in the Mood for Love Quality: CDDA 100%=========================================== Track: 07. Jacintha - God Bless the Child Quality: CDDA 100%=========================================== Track: 08. Jacintha - Round Midnight Quality: CDDA 100%=========================================== Track: 09. Jacintha - I'll Never Smile Again Quality: CDDA 100%=========================================== Track: 10. Jacintha - Gone With the Wind Quality: CDDA 100%=========================================== Track: 11. Jacintha - Cry Me a River Quality: CDDA 100%===========================================

Jacintha - The Girl From Bossa Nova-2004 (GRN040015):


-

01. Jacintha - O Ganso (4:34)
02. Jacintha - So Danco Samba (3:16)
03. Jacintha - Dindi (4:49)
04. Jacintha - Once I Loved (3:44)
05. Jacintha - Desafinado (4:34)
06. Jacintha - So Nice (5:08)
07. Jacintha - Wave (5:08)
08. Jacintha - How Insensitive (5:05)
09. Jacintha - Corcovado (4:51)
10. Jacintha - Waters of March (4:08)

Лог создания рипа

Exact Audio Copy V1.1 from 23. June 2015
EAC extraction logfile from 30. January 2019, 23:54
Jacintha / The Girl From Bossa Nova
Used drive : ASUS DRW-24D5MT Adapter: 1 ID: 0
Read mode : SecureUtilize accurate stream : YesDefeat audio cache : YesMake use of C2 pointers : No
Read offset correction : 6Overread into Lead-In and Lead-Out : NoFill up missing offset samples with silence : YesDelete leading and trailing silent blocks : NoNull samples used in CRC calculations : YesUsed interface : Native Win32 interface for Win NT & 2000Gap handling : Appended to previous track
Used output format : User Defined EncoderSelected bitrate : 768 kBit/sQuality : HighAdd ID3 tag : NoCommand line compressor : F:\Программы\Exact Audio Copy\FLAC\FLAC.EXEAdditional command line options : -8 -V -T "ARTIST=%artist%" -T "TITLE=%title%" -T "ALBUM=%albumtitle%" -T "DATE=%year%" -T "TRACKNUMBER=%tracknr%" -T "GENRE=%genre%" -T "COMMENT=Ripped by grandsrt8" %source%
TOC of the extracted CD
Track | Start | Length | Start sector | End sector --------------------------------------------------------- 1 | 0:00.00 | 4:34.30 | 0 | 20579 2 | 4:34.30 | 3:15.70 | 20580 | 35274 3 | 7:50.25 | 4:49.00 | 35275 | 56949 4 | 12:39.25 | 3:43.65 | 56950 | 73739 5 | 16:23.15 | 4:33.72 | 73740 | 94286 6 | 20:57.12 | 5:07.58 | 94287 | 117369 7 | 26:04.70 | 5:08.22 | 117370 | 140491 8 | 31:13.17 | 5:04.45 | 140492 | 163336 9 | 36:17.62 | 4:51.30 | 163337 | 185191 10 | 41:09.17 | 4:08.08 | 185192 | 203799
Track 1
Filename F:\Rips grandsrt8\01 O Ganso.wav
Pre-gap length 0:00:02.00
Peak level 100.0 % Extraction speed 1.0 X Track quality 100.0 % Test CRC F12B0FFB Copy CRC F12B0FFB Accurately ripped (confidence 8) [4C28D75D] (AR v2) Copy OK
Track 2
Filename F:\Rips grandsrt8\02 So Danco Samba.wav
Pre-gap length 0:00:03.54
Peak level 100.0 % Extraction speed 1.1 X Track quality 100.0 % Test CRC 50ABCB47 Copy CRC 50ABCB47 Accurately ripped (confidence 8) [B51C2D75] (AR v2) Copy OK
Track 3
Filename F:\Rips grandsrt8\03 Dindi.wav
Pre-gap length 0:00:03.44
Peak level 86.2 % Extraction speed 1.3 X Track quality 100.0 % Test CRC 4A7DBA4F Copy CRC 4A7DBA4F Accurately ripped (confidence 8) [2535B74D] (AR v2) Copy OK
Track 4
Filename F:\Rips grandsrt8\04 Once I Loved.wav
Pre-gap length 0:00:03.37
Peak level 91.3 % Extraction speed 1.3 X Track quality 100.0 % Test CRC E45E0499 Copy CRC E45E0499 Accurately ripped (confidence 8) [53525978] (AR v2) Copy OK
Track 5
Filename F:\Rips grandsrt8\05 Desafinado.wav
Pre-gap length 0:00:04.02
Peak level 100.0 % Extraction speed 1.4 X Track quality 100.0 % Test CRC DC6B6190 Copy CRC DC6B6190 Accurately ripped (confidence 8) [632D7B32] (AR v2) Copy OK
Track 6
Filename F:\Rips grandsrt8\06 So Nice.wav
Pre-gap length 0:00:03.74
Peak level 100.0 % Extraction speed 1.4 X Track quality 99.9 % Test CRC 9A17FC53 Copy CRC 9A17FC53 Accurately ripped (confidence 8) [0AF4FED1] (AR v2) Copy OK
Track 7
Filename F:\Rips grandsrt8\07 Wave.wav
Pre-gap length 0:00:03.07
Peak level 100.0 % Extraction speed 1.7 X Track quality 100.0 % Test CRC 3714A27B Copy CRC 3714A27B Accurately ripped (confidence 8) [AF81ED93] (AR v2) Copy OK
Track 8
Filename F:\Rips grandsrt8\08 How Insensitive.wav
Pre-gap length 0:00:03.04
Peak level 100.0 % Extraction speed 1.8 X Track quality 100.0 % Test CRC 17449CCB Copy CRC 17449CCB Accurately ripped (confidence 8) [B9A9528B] (AR v2) Copy OK
Track 9
Filename F:\Rips grandsrt8\09 Corcovado.wav
Pre-gap length 0:00:03.69
Peak level 100.0 % Extraction speed 1.8 X Track quality 100.0 % Test CRC DAD6DA76 Copy CRC DAD6DA76 Accurately ripped (confidence 8) [BEDFCCB1] (AR v2) Copy OK
Track 10
Filename F:\Rips grandsrt8\10 Waters of March.wav
Pre-gap length 0:00:03.49
Peak level 100.0 % Extraction speed 1.9 X Track quality 100.0 % Test CRC 171447CB Copy CRC 171447CB Accurately ripped (confidence 8) [AD532652] (AR v2) Copy OK
All tracks accurately ripped
No errors occurred
End of status report
---- CUETools DB Plugin V2.1.6
[CTDB TOCID: RARjLg07oXpkRkkJy5zkuCxrOWM-] foundSubmit result: RARjLg07oXpkRkkJy5zkuCxrOWM- has been confirmedTrack | CTDB Status 1 | (8/8) Accurately ripped 2 | (8/8) Accurately ripped 3 | (8/8) Accurately ripped 4 | (8/8) Accurately ripped 5 | (8/8) Accurately ripped 6 | (8/8) Accurately ripped 7 | (8/8) Accurately ripped 8 | (8/8) Accurately ripped 9 | (8/8) Accurately ripped 10 | (8/8) Accurately ripped
==== Log checksum 2BB8591A912F0BA65217F8544C50DCCEA72D3CFEAA47EDCA7F0BE480A6B08F3F ====

Содержание индексной карты (.CUE)

REM GENRE JazzREM DATE 2004REM DISCID 9B0A9D0AREM COMMENT "ExactAudioCopy v1.1"PERFORMER "Jacintha"TITLE "The Girl From Bossa Nova"FILE "01 O Ganso.wav" WAVE  TRACK 01 AUDIO    TITLE "O Ganso"    PERFORMER "Jacintha"    INDEX 01 00:00:00  TRACK 02 AUDIO    TITLE "So Danco Samba"    PERFORMER "Jacintha"    INDEX 00 04:30:51FILE "02 So Danco Samba.wav" WAVE    INDEX 01 00:00:00  TRACK 03 AUDIO    TITLE "Dindi"    PERFORMER "Jacintha"    INDEX 00 03:12:26FILE "03 Dindi.wav" WAVE    INDEX 01 00:00:00  TRACK 04 AUDIO    TITLE "Once I Loved"    PERFORMER "Jacintha"    INDEX 00 04:45:38FILE "04 Once I Loved.wav" WAVE    INDEX 01 00:00:00  TRACK 05 AUDIO    TITLE "Desafinado"    PERFORMER "Jacintha"    INDEX 00 03:39:63FILE "05 Desafinado.wav" WAVE    INDEX 01 00:00:00  TRACK 06 AUDIO    TITLE "So Nice"    PERFORMER "Jacintha"    INDEX 00 04:29:73FILE "06 So Nice.wav" WAVE    INDEX 01 00:00:00  TRACK 07 AUDIO    TITLE "Wave"    PERFORMER "Jacintha"    INDEX 00 05:04:51FILE "07 Wave.wav" WAVE    INDEX 01 00:00:00  TRACK 08 AUDIO    TITLE "How Insensitive"    PERFORMER "Jacintha"    INDEX 00 05:05:18FILE "08 How Insensitive.wav" WAVE    INDEX 01 00:00:00  TRACK 09 AUDIO    TITLE "Corcovado"    PERFORMER "Jacintha"    INDEX 00 05:00:51FILE "09 Corcovado.wav" WAVE    INDEX 01 00:00:00  TRACK 10 AUDIO    TITLE "Waters of March"    PERFORMER "Jacintha"    INDEX 00 04:47:56FILE "10 Waters of March.wav" WAVE    INDEX 01 00:00:00

Лог проверки качества

fooCDtect - foobar2000 + auCDtect, baralgin.
auCDtect: CD records authenticity detector, version 0.8.2Copyright (c) 2004 Oleg Berngardt. All rights reserved.Copyright (c) 2004 Alexander Djourik. All rights reserved.
mode: 0
=========================================== Track: 03. Jacintha - Dindi Quality: CDDA 100%=========================================== Track: 04. Jacintha - Once I Loved Quality: CDDA 100%=========================================== Track: 01. Jacintha - O Ganso Quality: CDDA 100%=========================================== Track: 02. Jacintha - So Danco Samba Quality: CDDA 100%=========================================== Track: 05. Jacintha - Desafinado Quality: CDDA 100%=========================================== Track: 06. Jacintha - So Nice Quality: CDDA 100%=========================================== Track: 07. Jacintha - Wave Quality: CDDA 100%=========================================== Track: 08. Jacintha - How Insensitive Quality: CDDA 100%=========================================== Track: 09. Jacintha - Corcovado Quality: CDDA 100%=========================================== Track: 10. Jacintha - Waters of March Quality: CDDA 100%===========================================

If you like the topic, please click share to help develop our site.

To download the file disable ad blocking, and reload the page.

disable adblock How to disable ad blocking?

Download by magnet link 1.03 GB Download Torrent

Login using:

Similar topics



   
Current time is: 25-Jun 10:33 :: All times are UTC + 3