Various Artists - Syndrome Down-Жанр: Drum & Bass, Neurofunk :: Год выпуска: 2007 :: Производитель: Netherlands :: Аудио кодек: FLAC
Тип рипа: tracks+.cue :: Битрейт аудио: lossless :: Продолжительность: 00:02:16:52 :: Источник: RED
- -

CD1

01. Phace & N.Phect - Cavity (6:51)02. Phace - Crocker (6:29)03. Catacomb - The Zodiac (5:59)04. Dose - Eye to Eye (6:14)05. Noisia & Phace - Outsource (Misanthrop Remix) (6:37)06. Catacomb - Doom Riders (6:28)07. N.Phect & Diz:Play & Subtone & Generic - Outpace (5:50)08. Subtone - Blue Screen (6:16)09. Dose - Fear Feeder (5:52)10. Bulletproof - 1000 Ft & Rising (5:36)11. Catacomb - Foul Matter (6:22)12. Psidream - Evil Genius (4:53)13. Axiom - Air Raid (6:01)
-

*.log

Exact Audio Copy V1.1 from 23. June 2015
EAC extraction logfile from 30. January 2016, 21:29
Various Artists / Syndrome Down (CD1)
Used drive : TSSTcorpCDDVDW SH-S202N Adapter: 1 ID: 0
Read mode : SecureUtilize accurate stream : YesDefeat audio cache : YesMake use of C2 pointers : No
Read offset correction : 6Overread into Lead-In and Lead-Out : NoFill up missing offset samples with silence : YesDelete leading and trailing silent blocks : NoNull samples used in CRC calculations : YesUsed interface : Native Win32 interface for Win NT & 2000Gap handling : Appended to previous track
Used output format : User Defined EncoderSelected bitrate : 768 kBit/sQuality : HighAdd ID3 tag : NoCommand line compressor : C:\Program Files\Exact Audio Copy\FLAC\FLAC.EXEAdditional command line options : -6 -V -T "ARTIST=%artist%" -T "TITLE=%title%" -T "ALBUM=%albumtitle%" -T "DATE=%year%" -T "TRACKNUMBER=%tracknr%" -T "GENRE=%genre%" -T "COMMENT=%comment%" -T "BAND=%albuminterpret%" -T "ALBUMARTIST=%albuminterpret%" -T "COMPOSER=%composer%" %haslyrics%--tag-from-file=LYRICS="%lyricsfile%"%haslyrics% -T "DISCNUMBER=%cdnumber%" -T "TOTALDISCS=%totalcds%" -T "TOTALTRACKS=%numtracks%" %hascover%--picture="%coverfile%"%hascover% %source% -o %dest%
TOC of the extracted CD
Track | Start | Length | Start sector | End sector --------------------------------------------------------- 1 | 0:00.00 | 6:51.05 | 0 | 30829 2 | 6:51.05 | 6:29.17 | 30830 | 60021 3 | 13:20.22 | 5:58.70 | 60022 | 86941 4 | 19:19.17 | 6:14.02 | 86942 | 114993 5 | 25:33.19 | 6:37.20 | 114994 | 144788 6 | 32:10.39 | 6:27.56 | 144789 | 173869 7 | 38:38.20 | 5:49.62 | 173870 | 200106 8 | 44:28.07 | 6:16.26 | 200107 | 228332 9 | 50:44.33 | 5:52.28 | 228333 | 254760 10 | 56:36.61 | 5:35.65 | 254761 | 279950 11 | 62:12.51 | 6:22.19 | 279951 | 308619 12 | 68:34.70 | 4:53.04 | 308620 | 330598 13 | 73:27.74 | 6:00.52 | 330599 | 357650
Track 1
Filename E:\EAC-Flac\01 Cavity.wav
Pre-gap length 0:00:02.00
Peak level 100.0 % Extraction speed 2.1 X Track quality 100.0 % Test CRC 65F03C25 Copy CRC 65F03C25 Accurately ripped (confidence 1) [99108FFC] (AR v1) Copy OK
Track 2
Filename E:\EAC-Flac\02 Crocker.wav
Pre-gap length 0:00:00.74
Peak level 100.0 % Extraction speed 2.4 X Track quality 100.0 % Test CRC 71D66D82 Copy CRC 71D66D82 Accurately ripped (confidence 1) [67238ECB] (AR v1) Copy OK
Track 3
Filename E:\EAC-Flac\03 The Zodiac.wav
Pre-gap length 0:00:01.00
Peak level 100.0 % Extraction speed 2.6 X Track quality 100.0 % Test CRC 6CDC6B08 Copy CRC 6CDC6B08 Accurately ripped (confidence 1) [117217D6] (AR v1) Copy OK
Track 4
Filename E:\EAC-Flac\04 Eye To Eye.wav
Pre-gap length 0:00:00.74
Peak level 100.0 % Extraction speed 2.8 X Track quality 100.0 % Test CRC B84210D1 Copy CRC B84210D1 Accurately ripped (confidence 1) [FD7056AE] (AR v1) Copy OK
Track 5
Filename E:\EAC-Flac\05 Outsource (Misanthrop Rmx).wav
Pre-gap length 0:00:00.68
Peak level 100.0 % Extraction speed 3.1 X Track quality 100.0 % Test CRC 5CB2D568 Copy CRC 5CB2D568 Accurately ripped (confidence 1) [45827D4F] (AR v1) Copy OK
Track 6
Filename E:\EAC-Flac\06 Doom Riders.wav
Pre-gap length 0:00:01.00
Peak level 100.0 % Extraction speed 2.7 X Track quality 99.9 % Test CRC BDAED569 Copy CRC BDAED569 Accurately ripped (confidence 1) [1157DAF6] (AR v1) Copy OK
Track 7
Filename E:\EAC-Flac\07 Outspace (feat. Subtone).wav
Pre-gap length 0:00:00.69
Peak level 100.0 % Extraction speed 3.4 X Track quality 100.0 % Test CRC E8B898BE Copy CRC E8B898BE Accurately ripped (confidence 1) [801E6737] (AR v1) Copy OK
Track 8
Filename E:\EAC-Flac\08 Blue Screen.wav
Pre-gap length 0:00:00.74
Peak level 100.0 % Extraction speed 3.6 X Track quality 100.0 % Test CRC AD861D07 Copy CRC AD861D07 Accurately ripped (confidence 1) [A1017DD4] (AR v1) Copy OK
Track 9
Filename E:\EAC-Flac\09 Fear Feeder.wav
Pre-gap length 0:00:01.00
Peak level 100.0 % Extraction speed 3.7 X Track quality 100.0 % Test CRC CF0423E2 Copy CRC CF0423E2 Accurately ripped (confidence 1) [1A1A1A91] (AR v1) Copy OK
Track 10
Filename E:\EAC-Flac\10 1000Ft & Rising.wav
Pre-gap length 0:00:01.00
Peak level 100.0 % Extraction speed 3.8 X Track quality 100.0 % Test CRC 3EE80473 Copy CRC 3EE80473 Accurately ripped (confidence 1) [628BD69F] (AR v1) Copy OK
Track 11
Filename E:\EAC-Flac\11 Foul Matter.wav
Pre-gap length 0:00:00.74
Peak level 100.0 % Extraction speed 4.0 X Track quality 100.0 % Test CRC 57C04E98 Copy CRC 57C04E98 Accurately ripped (confidence 1) [5EE7B3F0] (AR v1) Copy OK
Track 12
Filename E:\EAC-Flac\12 Evil Genius.wav
Pre-gap length 0:00:01.00
Peak level 100.0 % Extraction speed 4.0 X Track quality 100.0 % Test CRC FB8B3654 Copy CRC FB8B3654 Accurately ripped (confidence 1) [F37EEF24] (AR v1) Copy OK
Track 13
Filename E:\EAC-Flac\13 Air Raid.wav
Pre-gap length 0:00:00.74
Peak level 100.0 % Extraction speed 4.2 X Track quality 100.0 % Test CRC D2836AB8 Copy CRC D2836AB8 Accurately ripped (confidence 1) [0BE5FC30] (AR v1) Copy OK
All tracks accurately ripped
No errors occurred
End of status report
---- CUETools DB Plugin V2.1.6
[CTDB TOCID: 7NlNxvaK4EbrK36jjzdSX4ifQ7U-] disk not present in databaseSubmit result: 7NlNxvaK4EbrK36jjzdSX4ifQ7U- has been uploaded
==== Log checksum 950DFE865B16030AAA4DD65D035A3FED5477562542B65E37F87B3350F74081D2 ====

*.cue

REM GENRE Drum & BassREM DATE 2007REM DISCID A212A00DREM COMMENT "ExactAudioCopy v1.1"PERFORMER "Various Artists"TITLE "Syndrome Down"FILE "01. Phace & N.Phect - Cavity.wav" WAVE  TRACK 01 AUDIO    TITLE "Cavity"    PERFORMER "Phace & N.Phect"    INDEX 01 00:00:00  TRACK 02 AUDIO    TITLE "Crocker"    PERFORMER "Phace"    INDEX 00 06:50:06FILE "02. Phace - Crocker.wav" WAVE    INDEX 01 00:00:00  TRACK 03 AUDIO    TITLE "The Zodiac"    PERFORMER "Catacomb"    INDEX 00 06:28:17FILE "03. Catacomb - The Zodiac.wav" WAVE    INDEX 01 00:00:00  TRACK 04 AUDIO    TITLE "Eye to Eye"    PERFORMER "Dose"    INDEX 00 05:57:71FILE "04. Dose - Eye to Eye.wav" WAVE    INDEX 01 00:00:00  TRACK 05 AUDIO    TITLE "Outsource (Misanthrop Remix)"    PERFORMER "Noisia & Phace"    INDEX 00 06:13:09FILE "05. Noisia & Phace - Outsource (Misanthrop Remix).wav" WAVE    INDEX 01 00:00:00  TRACK 06 AUDIO    TITLE "Doom Riders"    PERFORMER "Catacomb"    INDEX 00 06:36:20FILE "06. Catacomb - Doom Riders.wav" WAVE    INDEX 01 00:00:00  TRACK 07 AUDIO    TITLE "Outspace"    PERFORMER "N.Phect & Diz:Play & Subtone & Generic"    INDEX 00 06:26:62FILE "07. N.Phect & Diz-Play & Subtone & Generic - Outpace.wav" WAVE    INDEX 01 00:00:00  TRACK 08 AUDIO    TITLE "Blue Screen"    PERFORMER "Subtone"    INDEX 00 05:48:63FILE "08. Subtone - Blue Screen.wav" WAVE    INDEX 01 00:00:00  TRACK 09 AUDIO    TITLE "Fear Feeder"    PERFORMER "Dose"    INDEX 00 06:15:26FILE "09. Dose - Fear Feeder.wav" WAVE    INDEX 01 00:00:00  TRACK 10 AUDIO    TITLE "1000 Ft & Rising"    PERFORMER "Bulletproof"    INDEX 00 05:51:28FILE "10. Bulletproof - 1000 Ft & Rising.wav" WAVE    INDEX 01 00:00:00  TRACK 11 AUDIO    TITLE "Foul Matter"    PERFORMER "Catacomb"    INDEX 00 05:34:66FILE "11. Catacomb - Foul Matter.wav" WAVE    INDEX 01 00:00:00  TRACK 12 AUDIO    TITLE "Evil Genius"    PERFORMER "Psidream"    INDEX 00 06:21:19FILE "12. Psidream - Evil Genius.wav" WAVE    INDEX 01 00:00:00  TRACK 13 AUDIO    TITLE "Air Raid"    PERFORMER "Axiom"    INDEX 00 04:52:05FILE "13. Axiom - Air Raid.wav" WAVE    INDEX 01 00:00:00

*.auCDtect

-----------------------
DON'T MODIFY THIS FILE
-----------------------
PERFORMER: auCDtect Task Manager, ver. 1.6.0 RC1 build 1.6.0.1Copyright (c) 2008-2010 y-soft. All rights reservedhttp://y-soft.org
ANALYZER: auCDtect: CD records authenticity detector, version 0.8.2Copyright (c) 2004 Oleg Berngardt. All rights reserved.Copyright (c) 2004 Alexander Djourik. All rights reserved.
FILE: 01. Phace & N.Phect - Cavity.flac Size: 44351367 Hash: B3CB04FE9AC7A7508A98780999223D1A Accuracy: -m0 Conclusion: MPEG 95% Signature: 3FDF0C0FA960C11A6680F6D9D395BECB9ED4F80AFILE: 02. Phace - Crocker.flac Size: 45992033 Hash: 5707D2CE1216C28CF63EFB1609BA5713 Accuracy: -m0 Conclusion: ??? Signature: EF98902455B3633AC37B717C74B9AE7E6A801400FILE: 03. Catacomb - The Zodiac.flac Size: 42933171 Hash: 9F4966F816C9356DC5799CDE4B09996A Accuracy: -m0 Conclusion: CDDA 100% Signature: 2EFC11826B5306F49BFC15CE80AB00C458024390FILE: 04. Dose - Eye to Eye.flac Size: 46879753 Hash: 6A3B83C0F8C0D275BE92B4226CDD4A5D Accuracy: -m0 Conclusion: CDDA 100% Signature: C93A98EE54280A7C57E1D85385D7CD721802D07DFILE: 05. Noisia & Phace - Outsource (Misanthrop Remix).flac Size: 49696799 Hash: 9880EDBFF63E15F22E0B9580A4620B55 Accuracy: -m0 Conclusion: CDDA 100% Signature: FDED752F2F0632A48CBEEA2CC75F98333E512F32FILE: 06. Catacomb - Doom Riders.flac Size: 46728374 Hash: 2307D14BED60534DF55B0EFF2E676DB8 Accuracy: -m0 Conclusion: CDDA 100% Signature: 8233080C0120DC5F9AD5BEA691299EF7E177F9A8FILE: 07. N.Phect & Diz-Play & Subtone & Generic - Outpace.flac Size: 41308957 Hash: C3886AA8B8D3D69ECC8649910B571CDA Accuracy: -m0 Conclusion: MPEG 95% Signature: 5D0C30F8BE079BB778D21737CAA5A402B2650884FILE: 08. Subtone - Blue Screen.flac Size: 40552851 Hash: 7136AB695A646789AB533B9EC31A0AD9 Accuracy: -m0 Conclusion: CDDA 100% Signature: 27FA4EE7E926B4F5AF91F92D779A6A434ED18F0CFILE: 09. Dose - Fear Feeder.flac Size: 46414432 Hash: C2D818D865705963048F8CE484806ACA Accuracy: -m0 Conclusion: CDDA 100% Signature: E332D038152ADF68F83692B4DFE9746AFABFEC63FILE: 10. Bulletproof - 1000 Ft & Rising.flac Size: 38424490 Hash: 03905CDE10C7D90A458D5B6C39981758 Accuracy: -m0 Conclusion: CDDA 99% Signature: BA44FBA4222069BD5485AC79AB087A761A7CE5B4FILE: 11. Catacomb - Foul Matter.flac Size: 44913226 Hash: 6E77AFE857F28FBEEB06DF8AFF286E6A Accuracy: -m0 Conclusion: CDDA 100% Signature: F25E8013324F6AC32A87682242AA186FD5265B64FILE: 12. Psidream - Evil Genius.flac Size: 35900218 Hash: 6B4713CEF9D756ED46D9CC6FB1371B1F Accuracy: -m0 Conclusion: CDDA 100% Signature: 4D826AFB54C1358ABBB0C955680E19DFA8D975D7FILE: 13. Axiom - Air Raid.flac Size: 45603787 Hash: 3208B8DA2FCE525EB5D9445103BC04F8 Accuracy: -m0 Conclusion: CDDA 100% Signature: FB44C23C4F775ADAA8CE26DC9A069DFD0E04F0D4

*.accurip

[CUETools log; Date: 16.03.2019 13:42:55; Version: 2.1.6][CTDB TOCID: 7NlNxvaK4EbrK36jjzdSX4ifQ7U-] found.Track | CTDB Status  1   | (2/2) Accurately ripped  2   | (2/2) Accurately ripped  3   | (2/2) Accurately ripped  4   | (2/2) Accurately ripped  5   | (2/2) Accurately ripped  6   | (2/2) Accurately ripped  7   | (2/2) Accurately ripped  8   | (2/2) Accurately ripped  9   | (2/2) Accurately ripped 10   | (2/2) Accurately ripped 11   | (2/2) Accurately ripped 12   | (2/2) Accurately ripped 13   | (2/2) Accurately ripped[AccurateRip ID: 00273ccd-0185bbb2-a212a00d] found.Track   [  CRC   |   V2   ] Status 01     [99108ffc|b25a79e1] (1+1/2) Accurately ripped 02     [67238ecb|fe576148] (1+1/2) Accurately ripped 03     [117217d6|815b4ce8] (1+1/2) Accurately ripped 04     [fd7056ae|b33f263d] (1+1/2) Accurately ripped 05     [45827d4f|643a0bb0] (1+1/2) Accurately ripped 06     [1157daf6|5784717e] (1+1/2) Accurately ripped 07     [801e6737|c118f42f] (1+1/2) Accurately ripped 08     [a1017dd4|7043c402] (1+1/2) Accurately ripped 09     [1a1a1a91|a400338a] (1+1/2) Accurately ripped 10     [628bd69f|96913c1a] (1+1/2) Accurately ripped 11     [5ee7b3f0|d260e34b] (1+1/2) Accurately ripped 12     [f37eef24|db9b0e50] (1+1/2) Accurately ripped 13     [0be5fc30|a02ba548] (1+1/2) Accurately ripped
Track Peak [ CRC32 ] [W/O NULL] [ LOG ] -- 100,0 [0D5039A9] [861A7ECE] 01 100,0 [65F03C25] [31D6A273] CRC32 02 100,0 [71D66D82] [698D0D9A] CRC32 03 100,0 [6CDC6B08] [789FA111] CRC32 04 100,0 [B84210D1] [D0546344] CRC32 05 100,0 [5CB2D568] [D0C0F867] CRC32 06 100,0 [BDAED569] [006F045A] CRC32 07 100,0 [E8B898BE] [A27FA536] CRC32 08 100,0 [AD861D07] [2F80ACC6] CRC32 09 100,0 [CF0423E2] [BF83C677] CRC32 10 100,0 [3EE80473] [551FC92A] CRC32 11 100,0 [57C04E98] [16AED712] CRC32 12 100,0 [FB8B3654] [CE4C23AF] CRC32 13 100,0 [D2836AB8] [F33C5DCD] CRC32

CD2

01. Axiom - Air Raid (3:17)02. N.Phect & Diz:Play - Campaign (2:34)03. Dose - Eye to Eye (2:50)04. Phace - Crocker (3:01)05. Axiom - Cyberia (1:50)06. Subtone - Blue Screen (2:34)07. Quadrant & Cease - Rage & Rupture (2:58)08. Catacomb - Foul Matter (2:12)09. Quadrant & DStar - Hell Can Wait (2:56)10. Dose - Fear Feader (2:34)11. Noisia & Phace - Outsource (Misanthrop Remix) (4:23)12. Bulletproof - Funktheif (1:06)13. N.Phect & Diz:Play & Subtone & Generic - Outpace (2:45)14. Mindscape - No Escape (Noisia Remix) (3:42)15. Bulletproof - Made in Detroit (1:28)16. Bulletproof - 1000 Ft & Rising (1:52)17. Quadrant - Only Mortal (2:34)18. Catacomb - Doom Riders (2:23)19. Psidream - Roadrage 2007 (2:36)20. Catacomb - Rise from Ruin (2:56)21. Catacomb - Arms in Reach (4:55)
-

*.log

Exact Audio Copy V1.1 from 23. June 2015
EAC extraction logfile from 30. January 2016, 22:40
Various Artists / Syndrome Down (CD 2)
Used drive : TSSTcorpCDDVDW SH-S202N Adapter: 1 ID: 0
Read mode : SecureUtilize accurate stream : YesDefeat audio cache : YesMake use of C2 pointers : No
Read offset correction : 6Overread into Lead-In and Lead-Out : NoFill up missing offset samples with silence : YesDelete leading and trailing silent blocks : NoNull samples used in CRC calculations : YesUsed interface : Native Win32 interface for Win NT & 2000Gap handling : Appended to previous track
Used output format : User Defined EncoderSelected bitrate : 768 kBit/sQuality : HighAdd ID3 tag : NoCommand line compressor : C:\Program Files\Exact Audio Copy\FLAC\FLAC.EXEAdditional command line options : -6 -V -T "ARTIST=%artist%" -T "TITLE=%title%" -T "ALBUM=%albumtitle%" -T "DATE=%year%" -T "TRACKNUMBER=%tracknr%" -T "GENRE=%genre%" -T "COMMENT=%comment%" -T "BAND=%albuminterpret%" -T "ALBUMARTIST=%albuminterpret%" -T "COMPOSER=%composer%" %haslyrics%--tag-from-file=LYRICS="%lyricsfile%"%haslyrics% -T "DISCNUMBER=%cdnumber%" -T "TOTALDISCS=%totalcds%" -T "TOTALTRACKS=%numtracks%" %hascover%--picture="%coverfile%"%hascover% %source% -o %dest%
TOC of the extracted CD
Track | Start | Length | Start sector | End sector --------------------------------------------------------- 1 | 0:00.00 | 3:16.64 | 0 | 14763 2 | 3:16.64 | 2:33.45 | 14764 | 26283 3 | 5:50.34 | 2:50.04 | 26284 | 39037 4 | 8:40.38 | 3:01.02 | 39038 | 52614 5 | 11:41.40 | 1:49.53 | 52615 | 60842 6 | 13:31.18 | 2:33.45 | 60843 | 72362 7 | 16:04.63 | 2:58.20 | 72363 | 85732 8 | 19:03.08 | 2:11.49 | 85733 | 95606 9 | 21:14.57 | 2:55.39 | 95607 | 108770 10 | 24:10.21 | 2:33.44 | 108771 | 120289 11 | 26:43.65 | 4:23.23 | 120290 | 140037 12 | 31:07.13 | 1:05.61 | 140038 | 144973 13 | 32:12.74 | 2:44.42 | 144974 | 157315 14 | 34:57.41 | 3:42.13 | 157316 | 173978 15 | 38:39.54 | 1:27.57 | 173979 | 180560 16 | 40:07.36 | 1:52.34 | 180561 | 188994 17 | 41:59.70 | 2:33.44 | 188995 | 200513 18 | 44:33.39 | 2:22.47 | 200514 | 211210 19 | 46:56.11 | 2:36.25 | 211211 | 222935 20 | 49:32.36 | 2:55.40 | 222936 | 236100 21 | 52:28.01 | 4:54.72 | 236101 | 258222
Track 1
Filename E:\EAC-Flac\01 Air Raid.wav
Pre-gap length 0:00:02.00
Peak level 100.0 % Extraction speed 1.4 X Track quality 99.9 % Test CRC C2020A63 Copy CRC C2020A63 Track not present in AccurateRip database Copy OK
Track 2
Filename E:\EAC-Flac\02 Campaign.wav
Peak level 100.0 % Extraction speed 1.7 X Track quality 100.0 % Test CRC 1A2D917B Copy CRC 1A2D917B Track not present in AccurateRip database Copy OK
Track 3
Filename E:\EAC-Flac\03 Eye To Eye.wav
Peak level 100.0 % Extraction speed 1.8 X Track quality 100.0 % Test CRC 743383CB Copy CRC 743383CB Track not present in AccurateRip database Copy OK
Track 4
Filename E:\EAC-Flac\04 Crocker.wav
Peak level 100.0 % Extraction speed 2.0 X Track quality 100.0 % Test CRC 3191AB54 Copy CRC 3191AB54 Track not present in AccurateRip database Copy OK
Track 5
Filename E:\EAC-Flac\05 Cyberia.wav
Peak level 100.0 % Extraction speed 1.8 X Track quality 100.0 % Test CRC C85EA9C9 Copy CRC C85EA9C9 Track not present in AccurateRip database Copy OK
Track 6
Filename E:\EAC-Flac\06 Blue Screen.wav
Peak level 100.0 % Extraction speed 2.1 X Track quality 100.0 % Test CRC 56DE5186 Copy CRC 56DE5186 Track not present in AccurateRip database Copy OK
Track 7
Filename E:\EAC-Flac\07 Rage & Rupture.wav
Peak level 100.0 % Extraction speed 1.8 X Track quality 99.9 % Test CRC 39BE2AAB Copy CRC 39BE2AAB Track not present in AccurateRip database Copy OK
Track 8
Filename E:\EAC-Flac\08 Foul Matter.wav
Peak level 100.0 % Extraction speed 2.2 X Track quality 100.0 % Test CRC 7C919470 Copy CRC 7C919470 Track not present in AccurateRip database Copy OK
Track 9
Filename E:\EAC-Flac\09 Hell Can Wait.wav
Peak level 100.0 % Extraction speed 2.4 X Track quality 100.0 % Test CRC C4B94C07 Copy CRC C4B94C07 Track not present in AccurateRip database Copy OK
Track 10
Filename E:\EAC-Flac\10 Fear Feeder.wav
Peak level 100.0 % Extraction speed 2.4 X Track quality 100.0 % Test CRC 1046F6C9 Copy CRC 1046F6C9 Track not present in AccurateRip database Copy OK
Track 11
Filename E:\EAC-Flac\11 Outsource (Misanthrop Remix).wav
Peak level 100.0 % Extraction speed 2.7 X Track quality 100.0 % Test CRC ABD411E6 Copy CRC ABD411E6 Track not present in AccurateRip database Copy OK
Track 12
Filename E:\EAC-Flac\12 Funkthief.wav
Peak level 100.0 % Extraction speed 2.1 X Track quality 100.0 % Test CRC 5324E8D6 Copy CRC 5324E8D6 Track not present in AccurateRip database Copy OK
Track 13
Filename E:\EAC-Flac\13 Outspace (feat. Subtone).wav
Peak level 100.0 % Extraction speed 2.7 X Track quality 100.0 % Test CRC EF246251 Copy CRC EF246251 Track not present in AccurateRip database Copy OK
Track 14
Filename E:\EAC-Flac\14 No Escape (Noisia Remix).wav
Peak level 100.0 % Extraction speed 2.9 X Track quality 100.0 % Test CRC ECD9643B Copy CRC ECD9643B Track not present in AccurateRip database Copy OK
Track 15
Filename E:\EAC-Flac\15 Made In Detroit.wav
Peak level 100.0 % Extraction speed 2.4 X Track quality 100.0 % Test CRC 83C37259 Copy CRC 83C37259 Track not present in AccurateRip database Copy OK
Track 16
Filename E:\EAC-Flac\16 1000 Ft & Rising.wav
Peak level 100.0 % Extraction speed 2.6 X Track quality 100.0 % Test CRC 7FA958CF Copy CRC 7FA958CF Track not present in AccurateRip database Copy OK
Track 17
Filename E:\EAC-Flac\17 Only Mortal.wav
Peak level 100.0 % Extraction speed 2.9 X Track quality 100.0 % Test CRC 61B01BDE Copy CRC 61B01BDE Track not present in AccurateRip database Copy OK
Track 18
Filename E:\EAC-Flac\18 Doom Riders.wav
Peak level 100.0 % Extraction speed 2.9 X Track quality 100.0 % Test CRC D94AB2FA Copy CRC D94AB2FA Track not present in AccurateRip database Copy OK
Track 19
Filename E:\EAC-Flac\19 Roadrage 2007.wav
Peak level 100.0 % Extraction speed 2.1 X Track quality 99.9 % Test CRC 4768ACA7 Copy CRC 4768ACA7 Track not present in AccurateRip database Copy OK
Track 20
Filename E:\EAC-Flac\20 Rise From Ruin.wav
Peak level 100.0 % Extraction speed 3.1 X Track quality 100.0 % Test CRC 6A600D6A Copy CRC 6A600D6A Track not present in AccurateRip database Copy OK
Track 21
Filename E:\EAC-Flac\21 Arms In Reach.wav
Peak level 100.0 % Extraction speed 3.5 X Track quality 100.0 % Test CRC 36E07069 Copy CRC 36E07069 Track not present in AccurateRip database Copy OK
None of the tracks are present in the AccurateRip database
No errors occurred
End of status report
---- CUETools DB Plugin V2.1.6
[CTDB TOCID: Drch5z0VBxgQp20pjd4.b.YebDs-] foundSubmit result: Drch5z0VBxgQp20pjd4.b.YebDs- has been confirmedTrack | CTDB Status 1 | (1/1) Accurately ripped 2 | (1/1) Accurately ripped 3 | (1/1) Accurately ripped 4 | (1/1) Accurately ripped 5 | (1/1) Accurately ripped 6 | (1/1) Accurately ripped 7 | (1/1) Accurately ripped 8 | (1/1) Accurately ripped 9 | (1/1) Accurately ripped 10 | (1/1) Accurately ripped 11 | (1/1) Accurately ripped 12 | (1/1) Accurately ripped 13 | (1/1) Accurately ripped 14 | (1/1) Accurately ripped 15 | (1/1) Accurately ripped 16 | (1/1) Accurately ripped 17 | (1/1) Accurately ripped 18 | (1/1) Accurately ripped 19 | (1/1) Accurately ripped 20 | (1/1) Accurately ripped 21 | (1/1) Accurately ripped
==== Log checksum 0BBEFF5B5F0D49EEA3183DACF3D0D88FF935E668CD40E5054DED6A725E4BF775 ====

*.cue

REM GENRE Drum & BassREM DATE 2007REM DISCID 2A0D7215REM COMMENT ExactAudioCopy v1.1PERFORMER "Various Artists"TITLE "Syndrome Down"FILE "01. Axiom - Air Raid.wav" WAVE  TRACK 01 AUDIO    TITLE "Air Raid"    PERFORMER "Axiom"    INDEX 01 00:00:00FILE "02. N.Phect & Diz-Play - Campaign.wav" WAVE  TRACK 02 AUDIO    TITLE "Campaign"    PERFORMER "N.Phect & Diz:Play"    INDEX 01 00:00:00FILE "03. Dose - Eye to Eye.wav" WAVE  TRACK 03 AUDIO    TITLE "Eye to Eye"    PERFORMER "Dose"    INDEX 01 00:00:00FILE "04. Phace - Crocker.wav" WAVE  TRACK 04 AUDIO    TITLE "Crocker"    PERFORMER "Phace"    INDEX 01 00:00:00FILE "05. Axiom - Cyberia.wav" WAVE  TRACK 05 AUDIO    TITLE "Cyberia"    PERFORMER "Axiom"    INDEX 01 00:00:00FILE "06. Subtone - Blue Screen.wav" WAVE  TRACK 06 AUDIO    TITLE "Blue Screen"    PERFORMER "Subtone"    INDEX 01 00:00:00FILE "07. Quadrant & Cease - Rage & Rupture.wav" WAVE  TRACK 07 AUDIO    TITLE "Rage & Rupture"    PERFORMER "Quadrant & Cease"    INDEX 01 00:00:00FILE "08. Catacomb - Foul Matter.wav" WAVE  TRACK 08 AUDIO    TITLE "Foul Matter"    PERFORMER "Catacomb"    INDEX 01 00:00:00FILE "09. Quadrant & DStar - Hell Can Wait.wav" WAVE  TRACK 09 AUDIO    TITLE "Hell Can Wait"    PERFORMER "Quadrant & DStar"    INDEX 01 00:00:00FILE "10. Dose - Fear Feader.wav" WAVE  TRACK 10 AUDIO    TITLE "Fear Feader"    PERFORMER "Dose"    INDEX 01 00:00:00FILE "11. Noisia & Phace - Outsource (Misanthrop Remix).wav" WAVE  TRACK 11 AUDIO    TITLE "Outsource (Misanthrop Remix)"    PERFORMER "Noisia & Phace"    INDEX 01 00:00:00FILE "12. Bulletproof - Funktheif.wav" WAVE  TRACK 12 AUDIO    TITLE "Funktheif"    PERFORMER "Bulletproof"    INDEX 01 00:00:00FILE "13. N.Phect & Diz-Play & Subtone & Generic - Outpace.wav" WAVE  TRACK 13 AUDIO    TITLE "Outpace"    PERFORMER "N.Phect & Diz:Play & Subtone & Generic"    INDEX 01 00:00:00FILE "14. Mindscape - No Escape (Noisia Remix).wav" WAVE  TRACK 14 AUDIO    TITLE "No Escape (Noisia Remix)"    PERFORMER "Mindscape"    INDEX 01 00:00:00FILE "15. Bulletproof - Made in Detroit.wav" WAVE  TRACK 15 AUDIO    TITLE "Made in Detroit"    PERFORMER "Bulletproof"    INDEX 01 00:00:00FILE "16. Bulletproof - 1000 Ft & Rising.wav" WAVE  TRACK 16 AUDIO    TITLE "1000 Ft & Rising"    PERFORMER "Bulletproof"    INDEX 01 00:00:00FILE "17. Quadrant - Only Mortal.wav" WAVE  TRACK 17 AUDIO    TITLE "Only Mortal"    PERFORMER "Quadrant"    INDEX 01 00:00:00FILE "18. Catacomb - Doom Riders.wav" WAVE  TRACK 18 AUDIO    TITLE "Doom Riders"    PERFORMER "Catacomb"    INDEX 01 00:00:00FILE "19. Psidream - Roadrage 2007.wav" WAVE  TRACK 19 AUDIO    TITLE "Roadrage 2007"    PERFORMER "Psidream"    INDEX 01 00:00:00FILE "20. Catacomb - Rise from Ruin.wav" WAVE  TRACK 20 AUDIO    TITLE "Rise from Ruin"    PERFORMER "Catacomb"    INDEX 01 00:00:00FILE "21. Catacomb - Arms in Reach.wav" WAVE  TRACK 21 AUDIO    TITLE "Arms in Reach"    PERFORMER "Catacomb"    INDEX 01 00:00:00

*.auCDtect

-----------------------
DON'T MODIFY THIS FILE
-----------------------
PERFORMER: auCDtect Task Manager, ver. 1.6.0 RC1 build 1.6.0.1Copyright (c) 2008-2010 y-soft. All rights reservedhttp://y-soft.org
ANALYZER: auCDtect: CD records authenticity detector, version 0.8.2Copyright (c) 2004 Oleg Berngardt. All rights reserved.Copyright (c) 2004 Alexander Djourik. All rights reserved.
FILE: 01. Axiom - Air Raid.flac Size: 23263161 Hash: 4CDC9835A5A2C004E993AEAFD7C53C24 Accuracy: -m0 Conclusion: MPEG 95% Signature: B6D68BD1E91FDC30FAA7AF807591B6530F016EE2FILE: 02. N.Phect & Diz-Play - Campaign.flac Size: 20966691 Hash: 3DAB0C6C1350EE98FD3AE82F9A205460 Accuracy: -m0 Conclusion: MPEG 95% Signature: B965F0B0F98F0BECB46D0CCA7F25A05A2DB1639DFILE: 03. Dose - Eye to Eye.flac Size: 20593270 Hash: F36D83AD08BB65A5BB8BE20769EA2D60 Accuracy: -m0 Conclusion: MPEG 95% Signature: 73B5C4621FD8AAC934072AF38B5C082330DC72FEFILE: 04. Phace - Crocker.flac Size: 21676881 Hash: 9C3D6B1B524AAC17F2C4119831AC73AA Accuracy: -m0 Conclusion: MPEG 95% Signature: F818DEB61AFD2B2A6EC1772C3FCBCF9D009E35BDFILE: 05. Axiom - Cyberia.flac Size: 13944727 Hash: BC373348CA81966557FE030444CBB853 Accuracy: -m0 Conclusion: MPEG 95% Signature: 04CA81F83A3AF59BF3EDA330CE2B563A00109623FILE: 06. Subtone - Blue Screen.flac Size: 17705251 Hash: F8F5678400BFAB2A395F9773362CD5B9 Accuracy: -m0 Conclusion: MPEG 95% Signature: CD37CF9BBC4521A5E3304ECEEECA43635F282805FILE: 07. Quadrant & Cease - Rage & Rupture.flac Size: 23118838 Hash: 0FFB6B60F89F134F5E78507D97D30BFF Accuracy: -m0 Conclusion: MPEG 95% Signature: CE1EC538C62EF86AB77253C324DF7643FB8143E8FILE: 08. Catacomb - Foul Matter.flac Size: 16126375 Hash: 5D29DD1B3F27BB429A22B3249F78F147 Accuracy: -m0 Conclusion: MPEG 95% Signature: 5AC263152CA31C423B409CCC5A0DAC8243D74827FILE: 09. Quadrant & DStar - Hell Can Wait.flac Size: 19977102 Hash: 4EC9F850D97F44520BA20DFB04F58354 Accuracy: -m0 Conclusion: MPEG 95% Signature: F4C831315CCAC1D612F1387AA6EE5F7689E1F544FILE: 10. Dose - Fear Feader.flac Size: 18752821 Hash: 2467423EA7BC5B8D9757FD77B0465217 Accuracy: -m0 Conclusion: MPEG 95% Signature: F325B2055EA7F241795B98518F47860C11DB317CFILE: 11. Noisia & Phace - Outsource (Misanthrop Remix).flac Size: 34600587 Hash: 7240F76CE3F727C8074B8CBC61B1FFD9 Accuracy: -m0 Conclusion: MPEG 95% Signature: 2ED5E61F0A82D571205D119407C3CA347B8C3AB5FILE: 12. Bulletproof - Funktheif.flac Size: 7894178 Hash: 0F9786F24F27D48742098F193521A96A Accuracy: -m0 Conclusion: MPEG 95% Signature: C64FBD96E536C210EA116F99E4CC7D6FD6D88219FILE: 13. N.Phect & Diz-Play & Subtone & Generic - Outpace.flac Size: 18890731 Hash: 0E018D6527826A4DE8A0ADB93130637C Accuracy: -m0 Conclusion: MPEG 95% Signature: C1216D295F1DAD0F9EB98C9881A727AAE00FFC9CFILE: 14. Mindscape - No Escape (Noisia Remix).flac Size: 27502078 Hash: E4792B39415EE0DF16A401D555857D2E Accuracy: -m0 Conclusion: MPEG 95% Signature: 88349B36B8F6220FEC9A34BD7AB0F85FBCBE237EFILE: 15. Bulletproof - Made in Detroit.flac Size: 10719621 Hash: E4E78D9EC32C68C4E446F528CA10A66F Accuracy: -m0 Conclusion: MPEG 95% Signature: 7600FFD5431950C2309DD5818FB60281CA4877CBFILE: 16. Bulletproof - 1000 Ft & Rising.flac Size: 8705780 Hash: BD741236850858AFE99B2C054CDFB4A8 Accuracy: -m0 Conclusion: MPEG 95% Signature: 877CB77770546AB94DEF6CE4949D8F918A4193D7FILE: 17. Quadrant - Only Mortal.flac Size: 11763637 Hash: E75AEA7516C055A657F1BA753ECACAB1 Accuracy: -m0 Conclusion: MPEG 95% Signature: 7AE4D3727A24F0BE2D042A7E186A6E48490641EBFILE: 18. Catacomb - Doom Riders.flac Size: 16936611 Hash: 6B4EC86CAA620F36FA84489A805CA674 Accuracy: -m0 Conclusion: MPEG 95% Signature: FB8C1C083CCA73AE26B69D8F21DFAAFEDC5F313EFILE: 19. Psidream - Roadrage 2007.flac Size: 18525234 Hash: FF525149099B57E7960673483CBDE24E Accuracy: -m0 Conclusion: MPEG 95% Signature: 756F07025E0E3BF8F31249CC76DCF823723C47FAFILE: 20. Catacomb - Rise from Ruin.flac Size: 21190060 Hash: BDA5CB218BA3160CFC126BF9B80CAB0B Accuracy: -m0 Conclusion: MPEG 95% Signature: 5B4B9E27A84DB413A31765ECC93F73D4E95F00A6FILE: 21. Catacomb - Arms in Reach.flac Size: 33883400 Hash: 7195AA5AE1203D862E68E8D60F10B7D1 Accuracy: -m0 Conclusion: MPEG 95% Signature: 603A7A6DDF6C7B6B13F8CA4976432B4F2FD87021

*.accurip

[CUETools log; Date: 16.03.2019 14:10:19; Version: 2.1.6][CTDB TOCID: Drch5z0VBxgQp20pjd4.b.YebDs-] found.Track | CTDB Status  1   | (2/2) Accurately ripped  2   | (2/2) Accurately ripped  3   | (2/2) Accurately ripped  4   | (2/2) Accurately ripped  5   | (2/2) Accurately ripped  6   | (2/2) Accurately ripped  7   | (2/2) Accurately ripped  8   | (2/2) Accurately ripped  9   | (2/2) Accurately ripped 10   | (2/2) Accurately ripped 11   | (2/2) Accurately ripped 12   | (2/2) Accurately ripped 13   | (2/2) Accurately ripped 14   | (2/2) Accurately ripped 15   | (2/2) Accurately ripped 16   | (2/2) Accurately ripped 17   | (2/2) Accurately ripped 18   | (2/2) Accurately ripped 19   | (2/2) Accurately ripped 20   | (2/2) Accurately ripped 21   | (2/2) Accurately ripped[AccurateRip ID: 002a96f4-028958a8-2a0d7215] found.Track   [  CRC   |   V2   ] Status 01     [0fe4664c|061d21b5] (0+1/1) Accurately ripped 02     [600a7d59|fbedb4e5] (0+1/1) Accurately ripped 03     [9989825a|bdc0fbd8] (0+1/1) Accurately ripped 04     [365e2a53|bb420730] (0+1/1) Accurately ripped 05     [e8ac7017|bd610c7c] (0+1/1) Accurately ripped 06     [da9c91de|b89721b4] (0+1/1) Accurately ripped 07     [a55e6130|0684983d] (0+1/1) Accurately ripped 08     [02b7a814|891a80be] (0+1/1) Accurately ripped 09     [8a95c282|fc0c619d] (0+1/1) Accurately ripped 10     [4f0ff894|51b6f801] (0+1/1) Accurately ripped 11     [49cfb887|0c1f8d83] (0+1/1) Accurately ripped 12     [c7c82262|a29b5b3d] (0+1/1) Accurately ripped 13     [0b8fe276|97d128de] (0+1/1) Accurately ripped 14     [5e746df8|b2e5287b] (0+1/1) Accurately ripped 15     [7a89f033|dbf908e9] (0+1/1) Accurately ripped 16     [e6064162|117cac8e] (0+1/1) Accurately ripped 17     [eb76dfe5|ff338eda] (0+1/1) Accurately ripped 18     [3a28a254|e0b93d68] (0+1/1) Accurately ripped 19     [1f5bf0a7|c16cf288] (0+1/1) Accurately ripped 20     [67014716|a82e6c05] (0+1/1) Accurately ripped 21     [b2eb95d3|622e9e13] (0+1/1) Accurately ripped
Track Peak [ CRC32 ] [W/O NULL] [ LOG ] -- 100,0 [7A06CFF5] [2EA30280] 01 100,0 [C2020A63] [BBD57B92] CRC32 02 100,0 [1A2D917B] [D1F0CB61] CRC32 03 100,0 [743383CB] [224FACC5] CRC32 04 100,0 [3191AB54] [0CA88544] CRC32 05 100,0 [C85EA9C9] [114DF729] CRC32 06 100,0 [56DE5186] [65B97137] CRC32 07 100,0 [39BE2AAB] [9BD8D90E] CRC32 08 100,0 [7C919470] [58ED2319] CRC32 09 100,0 [C4B94C07] [CC719784] CRC32 10 100,0 [1046F6C9] [E9E98DD2] CRC32 11 100,0 [ABD411E6] [27772BD5] CRC32 12 100,0 [5324E8D6] [46D433A8] CRC32 13 100,0 [EF246251] [679C7DC4] CRC32 14 100,0 [ECD9643B] [5362A3E5] CRC32 15 100,0 [83C37259] [00D59C85] CRC32 16 100,0 [7FA958CF] [8A5BE901] CRC32 17 100,0 [61B01BDE] [35FFCF88] CRC32 18 100,0 [D94AB2FA] [37B30199] CRC32 19 100,0 [4768ACA7] [B9CA320C] CRC32 20 100,0 [6A600D6A] [E1CBBE60] CRC32 21 100,0 [36E07069] [E6B66C66] CRC32

If you like the topic, please click share to help develop our site.

To download the file disable ad blocking, and reload the page.

disable adblock How to disable ad blocking?

Download by magnet link 936 MB Download Torrent

Login using:

Similar topics

VA - Sublime Drum & Bass Vol.13 (2018) MP3
 285 MB   12 | 0   17-Nov-18 18:30   31
VA - Most Wanted Drum & Bass 2018 (2018) MP3
 396 MB   7 | 0   02-Jul-18 18:30   40


   
Current time is: 16-Jun 00:10 :: All times are UTC + 3