Информация о фильме
Название: В то же время, в следующем году
Оригинальное название: Same Time, Next Year
Год выхода: 1978
Жанр: Драма, мелодрама, комедия
Режиссер: Роберт Маллиган
В ролях: Эллен Бёрстин, Алан Алда, Эйван Бонар, Берни Каби, Космо Сардо
О фильме:
"В то же время, в следующем году" - можно назвать учебником, приводящим пример, как надо успешно переносить сценическую пьесу на большой экран. Производство пьесы Бернарда Слэйда под тонкой и чувствительной режиссурой Роберта Маллигэна включает в себя все, что Вы хотели бы получить от такого фильма. И украшает его два прекрасных исполнителя главных ролей - Эллен Берстин и Алан Алда. Действие начинается в 1951 году на курорте в Северной Калифорнии. Берстин, 24-летняя домохозяйка из Окленда, и Алда, 27-летний бухгалтер из Нью-Джерси, знакомятся за ужином, сходятся ближе, и возникает любовный роман. На следующее утро они просыпаются в одной кровати, говорят о том, что произошло, оба осознают, что, когда они оба будут счастливо женаты с шестью детьми и так далее, оба будут любить друг друга. Они заключают пакт встретиться на том же курорте каждый год, а именно это они и делают и об этом и рассказывает фильм. Мы видим, как каждые пять или шесть лет они адаптируются к произошедшими с ними изменениями. Что всегда остается по прошествии многих лет, так это глубокая любовь, которую они разделяют. Очень приятно посмотреть фильм о двух людях, которые любят друг друга так сильно и так долго.
Официальный сайт
b]Страна: США
Студия: The Mirisch Corporation, Universal Pictures
Продолжительность: 01:58:33
Перевод: Профессиональный двухголосый
Файл
Кодек: x264
Качество: WEB-DL 1080p
Видео: MPEG-4 AVC, 13.7 Мбит/с, 1920x1080
Аудио №1: Русский | AC3, 2 ch, 160 Кбит/с
Аудио №2: Английский | EAC3, 2 ch, 224 Кбит/с
Субтитры: Английские

инфо-файл

Формат : Matroska
Версия формата : Version 2
Размер файла : 11,9 Гбайт
Продолжительность : 1 ч. 58 м.
Режим общего битрейта : Переменный
Общий поток : 14,3 Мбит/сек
Название фильма : Same.Time.Next.Year.1978.1080p.WEB-DL.by.zzZGVvv
Дата кодирования : UTC 2019-03-15 11:12:13
Программа кодирования : mkvmerge v5.8.0 ('No Sleep / Pillow') built on Sep 2 2012 15:37:04
Библиотека кодирования : libebml v1.2.3 + libmatroska v1.3.0
Attachment : Yes
Видео
Идентификатор : 1
Формат : AVC
Формат/Информация : Advanced Video Codec
Профиль формата : [email protected]
Параметр CABAC формата : Да
Параметр ReFrames формата : 4 кадра
Идентификатор кодека : V_MPEG4/ISO/AVC
Продолжительность : 1 ч. 58 м.
Вид битрейта : Переменный
Битрейт : 13,7 Мбит/сек
Максимальный битрейт : 15,0 Мбит/сек
Ширина : 1920 пикселей
Высота : 1080 пикселей
Соотношение сторон : 16:9
Режим частоты кадров : Постоянный
Частота кадров : 23,976 кадра/сек
Цветовое пространство : YUV
Субдискретизация насыщенности : 4:2:0
Битовая глубина : 8 бит
Тип развёртки : Прогрессивная
Бит/(Пиксели*Кадры) : 0.275
Размер потока : 11,3 Гбайт (95%)
Заголовок : Same.Time.Next.Year.1978
Язык : English
Default : Да
Forced : Нет
Основные цвета : BT.709
Характеристики трансфера : BT.709
Коэффициенты матрицы : BT.709
Аудио #1
Идентификатор : 2
Формат : AC-3
Формат/Информация : Audio Coding 3
Расширение режима : CM (complete main)
Параметр Endianness формата : Big
Идентификатор кодека : A_AC3
Продолжительность : 1 ч. 58 м.
Вид битрейта : Постоянный
Битрейт : 160 Кбит/сек
Каналы : 2 канала
Расположение каналов : Front: L R
Частота : 48,0 КГц
Битовая глубина : 16 бит
Метод сжатия : С потерями
Размер потока : 136 Мбайт (1%)
Заголовок : DVO
Язык : Russian
Default : Да
Forced : Нет
Аудио #2
Идентификатор : 3
Формат : E-AC-3
Формат/Информация : Audio Coding 3
Параметр Endianness формата : Big
Идентификатор кодека : A_EAC3
Продолжительность : 1 ч. 58 м.
Вид битрейта : Постоянный
Битрейт : 224 Кбит/сек
Каналы : 2 канала
Расположение каналов : Front: L R
Частота : 48,0 КГц
Метод сжатия : С потерями
Размер потока : 190 Мбайт (2%)
Язык : English
Default : Нет
Forced : Нет
Текст #1
Идентификатор : 4
Формат : UTF-8
Идентификатор кодека : S_TEXT/UTF8
Идентификатор кодека/Информация : UTF-8 Plain Text
Язык : English
Default : Нет
Forced : Нет
Текст #2
Идентификатор : 5
Формат : UTF-8
Идентификатор кодека : S_TEXT/UTF8
Идентификатор кодека/Информация : UTF-8 Plain Text
Заголовок : SDH
Язык : English
Default : Нет
Forced : Нет
Меню
00:00:00.000 : en:01. Hello (Main Titles)
00:04:26.544 : en:02. 1951, Feeling Guilty
00:11:25.530 : en:03. I Think I'm in Love
00:16:40.011 : en:04. Totally Honest
00:26:16.421 : en:05. I'll Show You Mine
00:30:34.846 : en:06. 1956, Still in Love
00:41:19.557 : en:07. Willing to Pay the Price
00:45:12.524 : en:08. 1961, Pregnant
00:50:52.197 : en:09. Not Dead, Just Resting
00:58:35.960 : en:10. Premature Labor
01:06:56.761 : en:11. 1966, Sex & Politics
01:11:22.761 : en:12. Uptight
01:18:22.580 : en:13. I Don't Know You
01:25:05.717 : en:14. 1972, Negative Vibes
01:31:31.036 : en:15. Drifting Apart
01:42:42.774 : en:16. 1977, Nothing Changes
01:48:16.674 : en:17. Will You Marry Me?
01:56:46.383 : en:18. End Titles
Релиз от:

If you like the topic, please click share to help develop our site.

To download the file disable ad blocking, and reload the page.

disable adblock How to disable ad blocking?

Download by magnet link 11.88 GB Download Torrent

Login using:

Similar topics

Несносные леди / Mother's Day (2016) WEB-DLRip | iTunes
 1.36 GB   58 | 0   09-Jul-16 21:06   85
Путь страсти / Passion Lane (2001) DVDRip | P2
 1.45 GB   0 | 2   14-Apr-17 15:20   42
К-911: Собачья работа 2 / K-911 (1999) BDRip 720p | P, P2, A
 4.91 GB   0 | 0   30-Apr-17 22:30   12


   
Current time is: 20-Jun 18:01 :: All times are UTC + 3