Индейский воинThe Indian Fighter«The Indian Fighter and the Girl...a love as fierce as a fire arrow!»- Страна: США
Жанр: вестерн
Год выпуска: 1955
Продолжительность: 01:28:22
Перевод: Профессиональный (многоголосый, закадровый)
Субтитры: английские, немецкие.-Режиссер: Андре Де Тот / André De Toth-В ролях: Кирк Дуглас (Johnny Hawks), Эльза Мартинелли (Onahti), Уолтер Мэттау (Wes Todd), Диана Дуглас (Susan Rogers), Уолтер Абель (Captain Trask), Лон Чейни мл. (Chivington), Эдуард Франц (Red Cloud), Алан Хейл мл. (Will Crabtree), Элиша Кук мл. (Briggs), Рэй Тил (Morgan), Фрэнк Кэди (Trader Joe), Майкл Винкельман (Tommy Rogers)-Описание: Орегон. 1870 год. Вождь племени Сиу «Красное облако» любит родной край и не желает присутствия чужаков. Он объявил войну белым переселенцам за то, что те спаивают его племя, выменивая золото на дешевое виски, и хотят захватить золотоносный ручей. Джонни Хоукс, в свое время лучший друг индейцев, возвращается на дикий запад после гражданской войны, с целью вернуться к мирной жизни.- - - -Качество: BDRip 720p
Контейнер: MKV
Видео: MPEG-4 AVC, 1280x542 (2.35:1), 10000 kbps, 23,976 fps, 0,601 bpp
Аудио №1: русский / AC3 / 2.0 / 48 kHz / 192 kbps / MVO ( HTB+ )
Аудио №2: русский / AC3 / 2.0 / 48 kHz / 192 kbps / MVO ( Светла )
Аудио №3: английский / AC3 / 2.0 / 48 kHz / 192 kbps
Аудио №4: немецкий / AC3 / 2.0 / 48 kHz / 192 kbps
Навигация по главам: есть-

Media Info

**************************************************************
x264 [info]: frame I:848 Avg QP:18.07 size:141296
x264 [info]: frame P:23907 Avg QP:20.10 size: 81729
x264 [info]: frame B:102370 Avg QP:21.98 size: 44472
**************************************************************
Формат : Matroska
Версия формата : Version 2
Размер файла : 6,65 Гбайт
Продолжительность : 1 ч. 28 м.
Общий поток : 10,8 Мбит/сек
Название фильма : = Индейский воин / The Indian Fighter (1955) BDRip 720p - KORSAR =
Дата кодирования : UTC 2019-02-28 15:46:59
Программа кодирования : mkvmerge v5.8.0 ('No Sleep / Pillow') built on Sep 2 2012 15:37:04
Библиотека кодирования : libebml v1.2.3 + libmatroska v1.3.0
Attachment : Yes
Видео
Идентификатор : 1
Формат : AVC
Формат/Информация : Advanced Video Codec
Профиль формата : [email protected]
Параметр CABAC формата : Да
Параметр ReFrames формата : 12 кадров
Идентификатор кодека : V_MPEG4/ISO/AVC
Продолжительность : 1 ч. 28 м.
Битрейт : 10000 Кбит/сек
Ширина : 1280 пикселей
Высота : 542 пикселя
Соотношение сторон : 2,35:1
Режим частоты кадров : Постоянный
Частота кадров : 23,976 кадра/сек
Цветовое пространство : YUV
Субдискретизация насыщенности : 4:2:0
Битовая глубина : 8 бит
Тип развёртки : Прогрессивная
Бит/(Пиксели*Кадры) : 0.601
Размер потока : 6,04 Гбайт (91%)
Заголовок : Индейский воин / The Indian Fighter (1955) BDRip 720p - KORSAR
Библиотека кодирования : x264 core 152 r2851kMod ba24899
Настройки программы : cabac=1 / ref=12 / deblock=1:-2:-2 / analyse=0x3:0x113 / me=umh / subme=11 / psy=1 / fade_compensate=0.00 / psy_rd=1.00:0.00 / mixed_ref=1 / me_range=48 / chroma_me=1 / trellis=2 / 8x8dct=1 / cqm=0 / deadzone=21,11 / fast_pskip=0 / chroma_qp_offset=-2 / threads=12 / lookahead_threads=3 / sliced_threads=0 / nr=0 / decimate=0 / interlaced=0 / bluray_compat=0 / constrained_intra=0 / bframes=14 / b_pyramid=2 / b_adapt=2 / b_bias=0 / direct=3 / weightb=1 / open_gop=0 / weightp=2 / keyint=240 / keyint_min=23 / scenecut=40 / intra_refresh=0 / rc_lookahead=60 / rc=2pass / mbtree=0 / bitrate=10000 / ratetol=1.0 / qcomp=0.66 / qpmin=0 / qpmax=39 / qpstep=4 / cplxblur=20.0 / qblur=0.5 / vbv_maxrate=50000 / vbv_bufsize=62500 / nal_hrd=none / filler=0 / ip_ratio=1.25 / pb_ratio=1.30 / aq=3:0.80
Язык : English
Default : Да
Forced : Нет
Основные цвета : BT.709
Характеристики трансфера : BT.709
Коэффициенты матрицы : BT.709
Аудио #1
Идентификатор : 2
Формат : AC-3
Формат/Информация : Audio Coding 3
Расширение режима : CM (complete main)
Параметр Endianness формата : Big
Идентификатор кодека : A_AC3
Продолжительность : 1 ч. 28 м.
Вид битрейта : Постоянный
Битрейт : 192 Кбит/сек
Каналы : 2 канала
Расположение каналов : Front: L R
Частота : 48,0 КГц
Битовая глубина : 16 бит
Метод сжатия : С потерями
Размер потока : 121 Мбайт (2%)
Заголовок : MVO ( HTB+ )
Язык : Russian
Default : Да
Forced : Нет
Аудио #2
Идентификатор : 3
Формат : AC-3
Формат/Информация : Audio Coding 3
Расширение режима : CM (complete main)
Параметр Endianness формата : Big
Идентификатор кодека : A_AC3
Продолжительность : 1 ч. 28 м.
Вид битрейта : Постоянный
Битрейт : 192 Кбит/сек
Каналы : 2 канала
Расположение каналов : Front: L R
Частота : 48,0 КГц
Битовая глубина : 16 бит
Метод сжатия : С потерями
Размер потока : 121 Мбайт (2%)
Заголовок : MVO ( Светла )
Язык : Russian
Default : Нет
Forced : Нет
Аудио #3
Идентификатор : 4
Формат : AC-3
Формат/Информация : Audio Coding 3
Расширение режима : CM (complete main)
Параметр Endianness формата : Big
Идентификатор кодека : A_AC3
Продолжительность : 1 ч. 28 м.
Вид битрейта : Постоянный
Битрейт : 192 Кбит/сек
Каналы : 2 канала
Расположение каналов : Front: L R
Частота : 48,0 КГц
Битовая глубина : 16 бит
Метод сжатия : С потерями
Размер потока : 121 Мбайт (2%)
Язык : English
Default : Нет
Forced : Нет
Аудио #4
Идентификатор : 5
Формат : AC-3
Формат/Информация : Audio Coding 3
Расширение режима : CM (complete main)
Параметр Endianness формата : Big
Идентификатор кодека : A_AC3
Продолжительность : 1 ч. 28 м.
Вид битрейта : Постоянный
Битрейт : 192 Кбит/сек
Каналы : 2 канала
Расположение каналов : Front: L R
Частота : 48,0 КГц
Битовая глубина : 16 бит
Метод сжатия : С потерями
Размер потока : 121 Мбайт (2%)
Язык : German
Default : Нет
Forced : Нет
Текст #1
Идентификатор : 6
Формат : UTF-8
Идентификатор кодека : S_TEXT/UTF8
Идентификатор кодека/Информация : UTF-8 Plain Text
Язык : English
Default : Нет
Forced : Нет
Текст #2
Идентификатор : 7
Формат : UTF-8
Идентификатор кодека : S_TEXT/UTF8
Идентификатор кодека/Информация : UTF-8 Plain Text
Язык : German
Default : Нет
Forced : Нет
Меню
00:00:00.000 : en:00:00:00.000
00:10:17.950 : en:00:10:17.950
00:22:11.121 : en:00:22:11.121
00:33:44.856 : en:00:33:44.856
00:46:34.249 : en:00:46:34.249
00:56:04.778 : en:00:56:04.778
01:09:20.364 : en:01:09:20.364
01:16:08.730 : en:01:16:08.730
01:27:28.785 : en:01:27:28.785
01:28:22.213 : en:01:28:22.213
-

Скриншоты



If you like the topic, please click share to help develop our site.

To download the file disable ad blocking, and reload the page.

disable adblock How to disable ad blocking?

Download by magnet link 6.65 GB Download Torrent

Login using:

Similar topics



   
Current time is: 20-Jun 19:01 :: All times are UTC + 3