AUDIOTEC >
Жанр: Psychedelic / Full On
Год выпуска диска: 2006
Производитель диска: Utopia Records
Аудио кодек: FLAC
Тип рипа: tracks+.cue
Битрейт аудио: lossless
Продолжительность: 01:09:04
Трэклист:
01. Audiotec - Creation [07:26]
02. Audiotec - Liquid World [07:37]
03. Audiotec - Freak Show [07:15]
04. Audiotec - Dj's Lovers [07:32]
05. Audiotec - Down Of Time [7:52]
06. Audiotec - Deep Up [7:52]
07. Audiotec - L.S.Dream [8:33]
08. Audiotec - Waves [7:14]
09. Audiotec - What Is Reality [7:54]

Доп. информация

Including explosive collaborations with Beat Hackers, Perlock, and Generic Syndrome.The phenomenal success of Audiotec (Israeli-born Miki Damski) and 'The Magic of Love', his 2004 fulllength debut album onUtopia Records, brought a lot of attention to this multi-faced talent and highly sought-after DJ artist.'Freak Show', Autiotecs anticipated second album, picks up where 'Magic' left off. It is a brilliant result ofan intense year long process of writing and producing while rocking Trance festivals all over Europe, Brazil and Japan.Freak Show's fabulously unique powerful energy, which is characterized by an especially potent full on style,features nine carefully selected tracks.

Eac log.

Exact Audio Copy V0.99 prebeta 5 from 4. May 2009
EAC extraction logfile from 27. August 2009, 20:02
Audiotec / Freak Show
Used drive : Optiarc DVD RW AD-7170A Adapter: 1 ID: 0
Read mode : SecureUtilize accurate stream : YesDefeat audio cache : YesMake use of C2 pointers : No
Read offset correction : 48Overread into Lead-In and Lead-Out : NoFill up missing offset samples with silence : YesDelete leading and trailing silent blocks : NoNull samples used in CRC calculations : YesUsed interface : Native Win32 interface for Win NT & 2000Gap handling : Appended to previous track
Used output format : User Defined EncoderSelected bitrate : 1024 kBit/sQuality : HighAdd ID3 tag : NoCommand line compressor : C:\Program Files\Exact Audio Copy\Flac\flac.exeAdditional command line options : -8 -V -T "ARTIST=%a" -T "TITLE=%t" -T "ALBUM=%g" -T "DATE=%y" -T "TRACKNUMBER=%n" -T "GENRE=%m" -T "COMMENT=EAC FLAC -8" %s
TOC of the extracted CD
Track | Start | Length | Start sector | End sector --------------------------------------------------------- 1 | 0:00.00 | 7:26.44 | 0 | 33493 2 | 7:26.44 | 7:37.41 | 33494 | 67809 3 | 15:04.10 | 7:15.49 | 67810 | 100483 4 | 22:19.59 | 7:34.15 | 100484 | 134548 5 | 29:53.74 | 7:52.31 | 134549 | 169979 6 | 37:46.30 | 7:52.60 | 169980 | 205439 7 | 45:39.15 | 8:33.59 | 205440 | 243973 8 | 54:12.74 | 7:14.16 | 243974 | 276539 9 | 61:27.15 | 7:54.68 | 276540 | 312157
Track 1
Filename C:\Audiotec - Freak Show\01. Audiotec – Creation 143.wav
Pre-gap length 0:00:02.00
Peak level 98.9 % Track quality 100.0 % Test CRC EF8D1CCB Copy CRC EF8D1CCB Accurately ripped (confidence 2) [966DE298] Copy OK
Track 2
Filename C:\Audiotec - Freak Show\02. Audiotec – Liquid World 143.wav
Pre-gap length 0:00:02.00
Peak level 98.9 % Track quality 100.0 % Test CRC A6C6F255 Copy CRC A6C6F255 Accurately ripped (confidence 2) [B333166C] Copy OK
Track 3
Filename C:\Audiotec - Freak Show\03. Audiotec – Freak Show 145.wav
Pre-gap length 0:00:02.00
Peak level 98.9 % Track quality 99.4 % Test CRC 6674CF3A Copy CRC 6674CF3A Accurately ripped (confidence 2) [5D7E6B36] Copy OK
Track 4
Filename C:\Audiotec - Freak Show\04. Audiotec – Dj's Lovers 145.wav
Pre-gap length 0:00:02.00
Peak level 98.9 % Track quality 100.0 % Test CRC 8F07BDB0 Copy CRC 8F07BDB0 Accurately ripped (confidence 2) [248BFC63] Copy OK
Track 5
Filename C:\Audiotec - Freak Show\05. Audiotec – Down of Time 145.wav
Pre-gap length 0:00:02.00
Peak level 98.9 % Track quality 100.0 % Test CRC DAFF2831 Copy CRC DAFF2831 Accurately ripped (confidence 2) [F7249653] Copy OK
Track 6
Filename C:\Audiotec - Freak Show\06. Audiotec – Deep Up 146.wav
Pre-gap length 0:00:02.00
Peak level 98.9 % Track quality 99.8 % Test CRC 328B6528 Copy CRC 328B6528 Accurately ripped (confidence 2) [8DF72C82] Copy OK
Track 7
Filename C:\Audiotec - Freak Show\07. Audiotec – L.S.Dream 145.wav
Pre-gap length 0:00:02.00
Peak level 98.9 % Track quality 100.0 % Test CRC EA1C969F Copy CRC EA1C969F Accurately ripped (confidence 2) [F32F86C9] Copy OK
Track 8
Filename C:\Audiotec - Freak Show\08. Audiotec – Waves 144.wav
Pre-gap length 0:00:02.00
Peak level 98.9 % Track quality 100.0 % Test CRC 876CA2D8 Copy CRC 876CA2D8 Accurately ripped (confidence 2) [41086406] Copy OK
Track 9
Filename C:\Audiotec - Freak Show\09. Audiotec – What is Reality 145.wav
Pre-gap length 0:00:02.00
Peak level 98.9 % Track quality 100.0 % Test CRC 2BE819B5 Copy CRC 2BE819B5 Accurately ripped (confidence 2) [6AC03DE1] Copy OK
All tracks accurately ripped
No errors occurred
End of status report

Audiochecker log.

AUDIOCHECKER v2.0 beta (build 457) - by Dester - [email protected]~~~~~~~~~~~~~~~~~~~~~~~~~~~~~~~~~~
Начато: четверг, 27. 08. 2009. - 20:03.52Найдено файлов: 9
1 -===- C:\Audiotec - Freak Show\01. Audiotec – Creation 143.flac Извлечение успешно выполнено Заключение: этот трек - CDDA с вероятностью 100% Временный файл удалён.
2 -===- C:\Audiotec - Freak Show\02. Audiotec – Liquid World 143.flac Извлечение успешно выполнено Заключение: этот трек - CDDA с вероятностью 100% Временный файл удалён.
3 -===- C:\Audiotec - Freak Show\03. Audiotec – Freak Show 145.flac Извлечение успешно выполнено Заключение: этот трек - CDDA с вероятностью 100% Временный файл удалён.
4 -===- C:\Audiotec - Freak Show\04. Audiotec – Dj's Lovers 145.flac Извлечение успешно выполнено Заключение: этот трек - CDDA с вероятностью 100% Временный файл удалён.
5 -===- C:\ Audiotec - Freak Show\05. Audiotec – Down of Time 145.flac Извлечение успешно выполнено Заключение: этот трек - CDDA с вероятностью 100% Временный файл удалён.
6 -===- C:\Audiotec - Freak Show\06. Audiotec – Deep Up 146.flac Извлечение успешно выполнено Заключение: этот трек - CDDA с вероятностью 99% Временный файл удалён.
7 -===- C:\Audiotec - Freak Show\07. Audiotec – L.S.Dream 145.flac Извлечение успешно выполнено Заключение: этот трек - CDDA с вероятностью 100% Временный файл удалён.
8 -===- C:\Audiotec - Freak Show\08. Audiotec – Waves 144.flac Извлечение успешно выполнено Заключение: этот трек - CDDA с вероятностью 100% Временный файл удалён.
9 -===- C:\Audiotec - Freak Show\09. Audiotec – What is Reality 145.flac Извлечение успешно выполнено Заключение: этот трек - CDDA с вероятностью 100% Временный файл удалён.
Завершено: четверг, 27. 08. 2009. - 20:12.22 (Время операции: 0:08.29)

Cue

REM GENRE PsychedelicREM DATE 2006REM DISCID 88104209REM COMMENT "ExactAudioCopy v0.99pb5"PERFORMER "Audiotec"TITLE "Freak Show"FILE "01. Audiotec – Creation 143.wav" WAVE  TRACK 01 AUDIO    TITLE "Creation 143"    PERFORMER "Audiotec"    FLAGS DCP    INDEX 01 00:00:00  TRACK 02 AUDIO    TITLE "Liquid World 143"    PERFORMER "Audiotec"    FLAGS DCP    INDEX 00 07:24:44FILE "02. Audiotec – Liquid World 143.wav" WAVE    INDEX 01 00:00:00  TRACK 03 AUDIO    TITLE "Freak Show 145"    PERFORMER "Audiotec"    FLAGS DCP    INDEX 00 07:35:41FILE "03. Audiotec – Freak Show 145.wav" WAVE    INDEX 01 00:00:00  TRACK 04 AUDIO    TITLE "Dj's Lovers 145"    PERFORMER "Audiotec"    FLAGS DCP    INDEX 00 07:13:49FILE "04. Audiotec – Dj's Lovers 145.wav" WAVE    INDEX 01 00:00:00  TRACK 05 AUDIO    TITLE "Down of Time 145"    PERFORMER "Audiotec"    FLAGS DCP    INDEX 00 07:32:15FILE "05. Audiotec – Down of Time 145.wav" WAVE    INDEX 01 00:00:00  TRACK 06 AUDIO    TITLE "Deep Up 146"    PERFORMER "Audiotec"    FLAGS DCP    INDEX 00 07:50:31FILE "06. Audiotec – Deep Up 146.wav" WAVE    INDEX 01 00:00:00  TRACK 07 AUDIO    TITLE "L.S.Dream 145"    PERFORMER "Audiotec"    FLAGS DCP    INDEX 00 07:50:60FILE "07. Audiotec – L.S.Dream 145.wav" WAVE    INDEX 01 00:00:00  TRACK 08 AUDIO    TITLE "Waves 144"    PERFORMER "Audiotec"    FLAGS DCP    INDEX 00 08:31:59FILE "08. Audiotec – Waves 144.wav" WAVE    INDEX 01 00:00:00  TRACK 09 AUDIO    TITLE "What is Reality? 145"    PERFORMER "Audiotec"    FLAGS DCP    INDEX 00 07:12:16FILE "09. Audiotec – What is Reality  145.wav" WAVE    INDEX 01 00:00:00

Cover

Источник рипа: Фирменный диск

If you like the topic, please click share to help develop our site.

To download the file disable ad blocking, and reload the page.

disable adblock How to disable ad blocking?

Download by magnet link 485 MB Download Torrent

Login using:

Similar topics



   
Current time is: 20-Jun 18:10 :: All times are UTC + 3