Axis Mundi
"One Foot In Fantasy"
-- Жанр: Dark Psytrance
Страна-производитель диска: US
Год издания диска: 2010
Издатель (лейбл): Anomalistic Records
Номер по каталогу: ANOMCD003
Страна: US
Аудио кодек: FLAC (*.flac)
Тип рипа: image+.cue
Битрейт аудио: lossless
Продолжительность: 78:04
Источник (релизер): Собственный диск
Наличие сканов в содержимом раздачи: нет-Треклист:-01. Does No Play Well With Others
02. Turn Your Mind Off
03. The Grudge Of Dwarfking Goldemar
04. Twigs Of The World Tree
05. Translated Configuration Location
06. One Foot In Fantasy
07. Psychonaut's Gambit
08. Hermes Was Right
09. For Dakota
--

Лог создания рипа

Exact Audio Copy V0.99 prebeta 5 from 4. May 2009
EAC extraction logfile from 27. April 2011, 17:34
Axis Mundi / One Foot In Fantasy
Used drive : Optiarc DVD RW AD-7241S Adapter: 2 ID: 1
Read mode : SecureUtilize accurate stream : YesDefeat audio cache : YesMake use of C2 pointers : No
Read offset correction : 48Overread into Lead-In and Lead-Out : NoFill up missing offset samples with silence : YesDelete leading and trailing silent blocks : NoNull samples used in CRC calculations : YesUsed interface : Native Win32 interface for Win NT & 2000
Used output format : User Defined EncoderSelected bitrate : 1024 kBit/sQuality : HighAdd ID3 tag : NoCommand line compressor : C:\Program Files\Exact Audio Copy\Flac\flac.exeAdditional command line options : -T "DATE=%y" -T "GENRE=%m" -8 -V %s
TOC of the extracted CD
Track | Start | Length | Start sector | End sector --------------------------------------------------------- 1 | 0:00.00 | 7:49.12 | 0 | 35186 2 | 7:49.12 | 7:44.63 | 35187 | 70049 3 | 15:34.00 | 8:00.46 | 70050 | 106095 4 | 23:34.46 | 10:30.56 | 106096 | 153401 5 | 34:05.27 | 10:41.60 | 153402 | 201536 6 | 44:47.12 | 9:25.34 | 201537 | 243945 7 | 54:12.46 | 7:26.63 | 243946 | 277458 8 | 61:39.34 | 7:53.49 | 277459 | 312982 9 | 69:33.08 | 8:31.54 | 312983 | 351361
Range status and errors
Selected range
Filename C:\Axis Mundi - One Foot In Fantasy (Anomalistic Records [ANOMCD003]) (2010) [FLAC]\Axis Mundi - One Foot In Fantasy.wav
Peak level 100.0 % Range quality 100.0 % Test CRC 5DEA6223 Copy CRC 5DEA6223 Copy OK
No errors occurred
AccurateRip summary
Track 1 not present in databaseTrack 2 not present in databaseTrack 3 not present in databaseTrack 4 not present in databaseTrack 5 not present in databaseTrack 6 not present in databaseTrack 7 not present in databaseTrack 8 not present in databaseTrack 9 not present in database
None of the tracks are present in the AccurateRip database
End of status report

Содержание индексной карты (.CUE)

REM GENRE PsychedelicREM DATE 2010REM DISCID 7C124C09REM COMMENT "ExactAudioCopy v0.99pb5"PERFORMER "Axis Mundi"TITLE "One Foot In Fantasy"FILE "Axis Mundi - One Foot In Fantasy.flac" WAVE  TRACK 01 AUDIO    TITLE "Does Not Play Well With Others"    PERFORMER "Axis Mundi"    FLAGS DCP    INDEX 01 00:00:00  TRACK 02 AUDIO    TITLE "Turn Your Mind Off"    PERFORMER "Axis Mundi"    FLAGS DCP    INDEX 00 07:47:12    INDEX 01 07:49:12  TRACK 03 AUDIO    TITLE "The Grudge Of Dwarfking Goldemar"    PERFORMER "Axis Mundi"    FLAGS DCP    INDEX 00 15:32:00    INDEX 01 15:34:00  TRACK 04 AUDIO    TITLE "Twigs Of The World Tree"    PERFORMER "Axis Mundi"    FLAGS DCP    INDEX 00 23:32:46    INDEX 01 23:34:46  TRACK 05 AUDIO    TITLE "Translated Location Configuration"    PERFORMER "Axis Mundi"    FLAGS DCP    INDEX 00 34:03:27    INDEX 01 34:05:27  TRACK 06 AUDIO    TITLE "One Foot In Fantasy"    PERFORMER "Axis Mundi"    FLAGS DCP    INDEX 00 44:45:12    INDEX 01 44:47:12  TRACK 07 AUDIO    TITLE "Psychonaut's Gambit"    PERFORMER "Axis Mundi"    FLAGS DCP    INDEX 00 54:10:46    INDEX 01 54:12:46  TRACK 08 AUDIO    TITLE "Hermes Was Right"    PERFORMER "Axis Mundi"    FLAGS DCP    INDEX 00 61:37:34    INDEX 01 61:39:34  TRACK 09 AUDIO    TITLE "For Dakota"    PERFORMER "Axis Mundi"    FLAGS DCP    INDEX 00 69:31:08    INDEX 01 69:33:08

If you like the topic, please click share to help develop our site.

To download the file disable ad blocking, and reload the page.

disable adblock How to disable ad blocking?

Download by magnet link 548 MB Download Torrent

Login using:

Similar topics

(Psytrance) Mandragora - Disc 2 - 2018, MP3, 320 kbps
 100 MB   0 | 0   15-Aug-18 11:20   47
(Psytrance) Captain Hook - Origin - 2018, MP3, 320 kbps
 184 MB   0 | 0   29-Nov-18 11:10   46
(Psy-Trance) Juno Reactor - The Mutant Theatre (2018), MP3, 320 kbps
 154 MB   6 | 0   21-Jun-18 17:10   46


   
Current time is: 16-Jun 00:08 :: All times are UTC + 3