The Weeknd / Starboy
Жанр: R&B / Soul
Носитель: CD
Год издания: 2016
Издатель (лейбл): Republic Records
Номер по каталогу: B0026150-02
Аудиокодек: FLAC (*.flac)
Тип рипа: tracks+.cue
Битрейт аудио: lossless
Продолжительность: 01:12:41
Источник: обмен
Наличие сканов в содержимом раздачи: нет
Треклист:
01. Starboy (feat. Daft Punk) (3:50)
02. Party Monster (4:09)
03. False Alarm (3:40)
04. Reminder (3:39)
05. Rockin’ (3:53)
06. Secrets (4:26)
07. True Colors (3:26)
08. Stargirl Interlude (feat. Lana Del Rey) (1:52)
09. Sidewalks (feat. Kendrick Lamar) (3:51)
10. Six Feet Under (3:58)
11. Love To Lay (3:43)
12. A Lonely Night (3:40)
13. Attention (3:18)
14. Ordinary Life (3:42)
15. Nothing Without You (3:19)
16. All I Know (feat. Future) (5:21)
17. Die For You (4:20)
18. I Feel It Coming (feat. Daft Punk) (4:29)
19. Starboy (Kygo Remix) (4:05)

Лог создания рипа

Exact Audio Copy V1.1 from 23. June 2015
EAC extraction logfile from 2. December 2016, 11:19
The Weeknd / Starboy
Used drive : MATSHITADVD-RAM UJ8HC Adapter: 1 ID: 0
Read mode : SecureUtilize accurate stream : YesDefeat audio cache : YesMake use of C2 pointers : No
Read offset correction : 6Overread into Lead-In and Lead-Out : NoFill up missing offset samples with silence : YesDelete leading and trailing silent blocks : NoNull samples used in CRC calculations : YesUsed interface : Native Win32 interface for Win NT & 2000Gap handling : Appended to previous track
Used output format : User Defined EncoderSelected bitrate : 1024 kBit/sQuality : HighAdd ID3 tag : NoCommand line compressor : C:\Program Files (x86)\Exact Audio Copy\FLAC\FLAC.EXEAdditional command line options : -8 -V -T "ARTIST=%artist%" -T "TITLE=%title%" -T "ALBUM=%albumtitle%" -T "DATE=%year%" -T "TRACKNUMBER=%tracknr%" -T "GENRE=%genre%" -T "PERFORMER=%albuminterpret%" -T "COMPOSER=%composer%" %haslyrics%--tag-from-file=LYRICS="%lyricsfile%"%haslyrics% -T "ALBUMARTIST=%albumartist%" -T "DISCNUMBER=%cdnumber%" -T "TOTALDISCS=%totalcds%" -T "TOTALTRACKS=%numtracks%" -T "COMMENT=%comment%" %source% -o %dest%
TOC of the extracted CD
Track | Start | Length | Start sector | End sector --------------------------------------------------------- 1 | 0:00.00 | 3:50.34 | 0 | 17283 2 | 3:50.34 | 4:09.16 | 17284 | 35974 3 | 7:59.50 | 3:40.23 | 35975 | 52497 4 | 11:39.73 | 3:38.66 | 52498 | 68913 5 | 15:18.64 | 3:52.66 | 68914 | 86379 6 | 19:11.55 | 4:25.45 | 86380 | 106299 7 | 23:37.25 | 3:26.02 | 106300 | 121751 8 | 27:03.27 | 1:51.47 | 121752 | 130123 9 | 28:54.74 | 3:51.27 | 130124 | 147475 10 | 32:46.26 | 3:57.43 | 147476 | 165293 11 | 36:43.69 | 3:43.22 | 165294 | 182040 12 | 40:27.16 | 3:40.13 | 182041 | 198553 13 | 44:07.29 | 3:17.49 | 198554 | 213377 14 | 47:25.03 | 3:41.69 | 213378 | 230021 15 | 51:06.72 | 3:18.49 | 230022 | 244920 16 | 54:25.46 | 5:21.02 | 244921 | 268997 17 | 59:46.48 | 4:20.19 | 268998 | 288516 18 | 64:06.67 | 4:29.13 | 288517 | 308704 19 | 68:36.05 | 4:04.57 | 308705 | 327061
Track 1
Filename G:\My Storage\Music\New Lossless Rips\The Weeknd (My Own 100% FLAC Rips)\(2016) Starboy {Target Exclusive Bonus Track Edition}\01 - Starboy.wav
Pre-gap length 0:00:02.00
Peak level 95.9 % Extraction speed 2.7 X Track quality 100.0 % Test CRC 3A077422 Copy CRC 3A077422 Track not present in AccurateRip database Copy OK
Track 2
Filename G:\My Storage\Music\New Lossless Rips\The Weeknd (My Own 100% FLAC Rips)\(2016) Starboy {Target Exclusive Bonus Track Edition}\02 - Party Monster.wav
Peak level 99.8 % Extraction speed 3.0 X Track quality 100.0 % Test CRC 6AB75B21 Copy CRC 6AB75B21 Track not present in AccurateRip database Copy OK
Track 3
Filename G:\My Storage\Music\New Lossless Rips\The Weeknd (My Own 100% FLAC Rips)\(2016) Starboy {Target Exclusive Bonus Track Edition}\03 - False Alarm.wav
Peak level 99.8 % Extraction speed 3.2 X Track quality 100.0 % Test CRC 8D78B14F Copy CRC 8D78B14F Track not present in AccurateRip database Copy OK
Track 4
Filename G:\My Storage\Music\New Lossless Rips\The Weeknd (My Own 100% FLAC Rips)\(2016) Starboy {Target Exclusive Bonus Track Edition}\04 - Reminder.wav
Peak level 99.8 % Extraction speed 3.4 X Track quality 100.0 % Test CRC 70223AC3 Copy CRC 70223AC3 Track not present in AccurateRip database Copy OK
Track 5
Filename G:\My Storage\Music\New Lossless Rips\The Weeknd (My Own 100% FLAC Rips)\(2016) Starboy {Target Exclusive Bonus Track Edition}\05 - Rockin'.wav
Peak level 99.8 % Extraction speed 3.6 X Track quality 100.0 % Test CRC 616FDA01 Copy CRC 616FDA01 Track not present in AccurateRip database Copy OK
Track 6
Filename G:\My Storage\Music\New Lossless Rips\The Weeknd (My Own 100% FLAC Rips)\(2016) Starboy {Target Exclusive Bonus Track Edition}\06 - Secrets.wav
Peak level 95.0 % Extraction speed 3.3 X Track quality 99.9 % Test CRC 12AEBA49 Copy CRC 12AEBA49 Track not present in AccurateRip database Copy OK
Track 7
Filename G:\My Storage\Music\New Lossless Rips\The Weeknd (My Own 100% FLAC Rips)\(2016) Starboy {Target Exclusive Bonus Track Edition}\07 - True Colors.wav
Peak level 99.8 % Extraction speed 4.0 X Track quality 100.0 % Test CRC DEDDE084 Copy CRC DEDDE084 Track not present in AccurateRip database Copy OK
Track 8
Filename G:\My Storage\Music\New Lossless Rips\The Weeknd (My Own 100% FLAC Rips)\(2016) Starboy {Target Exclusive Bonus Track Edition}\08 - Stargirl Interlude.wav
Peak level 94.6 % Extraction speed 3.6 X Track quality 100.0 % Test CRC D40052D1 Copy CRC D40052D1 Track not present in AccurateRip database Copy OK
Track 9
Filename G:\My Storage\Music\New Lossless Rips\The Weeknd (My Own 100% FLAC Rips)\(2016) Starboy {Target Exclusive Bonus Track Edition}\09 - Sidewalks.wav
Peak level 99.8 % Extraction speed 4.2 X Track quality 100.0 % Test CRC 0A2C6613 Copy CRC 0A2C6613 Track not present in AccurateRip database Copy OK
Track 10
Filename G:\My Storage\Music\New Lossless Rips\The Weeknd (My Own 100% FLAC Rips)\(2016) Starboy {Target Exclusive Bonus Track Edition}\10 - Six Feet Under.wav
Peak level 99.8 % Extraction speed 4.4 X Track quality 100.0 % Test CRC 7323728D Copy CRC 7323728D Track not present in AccurateRip database Copy OK
Track 11
Filename G:\My Storage\Music\New Lossless Rips\The Weeknd (My Own 100% FLAC Rips)\(2016) Starboy {Target Exclusive Bonus Track Edition}\11 - Love to Lay.wav
Peak level 99.8 % Extraction speed 4.5 X Track quality 100.0 % Test CRC 37B056B0 Copy CRC 37B056B0 Track not present in AccurateRip database Copy OK
Track 12
Filename G:\My Storage\Music\New Lossless Rips\The Weeknd (My Own 100% FLAC Rips)\(2016) Starboy {Target Exclusive Bonus Track Edition}\12 - A Lonely Night.wav
Peak level 99.8 % Extraction speed 4.7 X Track quality 100.0 % Test CRC 6EFDFC31 Copy CRC 6EFDFC31 Track not present in AccurateRip database Copy OK
Track 13
Filename G:\My Storage\Music\New Lossless Rips\The Weeknd (My Own 100% FLAC Rips)\(2016) Starboy {Target Exclusive Bonus Track Edition}\13 - Attention.wav
Peak level 95.2 % Extraction speed 4.8 X Track quality 100.0 % Test CRC E696EE82 Copy CRC E696EE82 Track not present in AccurateRip database Copy OK
Track 14
Filename G:\My Storage\Music\New Lossless Rips\The Weeknd (My Own 100% FLAC Rips)\(2016) Starboy {Target Exclusive Bonus Track Edition}\14 - Ordinary Life.wav
Peak level 95.0 % Extraction speed 5.0 X Track quality 100.0 % Test CRC D06D03DE Copy CRC D06D03DE Track not present in AccurateRip database Copy OK
Track 15
Filename G:\My Storage\Music\New Lossless Rips\The Weeknd (My Own 100% FLAC Rips)\(2016) Starboy {Target Exclusive Bonus Track Edition}\15 - Nothing Without You.wav
Peak level 99.8 % Extraction speed 5.0 X Track quality 100.0 % Test CRC 7DE62539 Copy CRC 7DE62539 Track not present in AccurateRip database Copy OK
Track 16
Filename G:\My Storage\Music\New Lossless Rips\The Weeknd (My Own 100% FLAC Rips)\(2016) Starboy {Target Exclusive Bonus Track Edition}\16 - All I Know.wav
Peak level 99.8 % Extraction speed 4.7 X Track quality 99.9 % Test CRC 52908E48 Copy CRC 52908E48 Track not present in AccurateRip database Copy OK
Track 17
Filename G:\My Storage\Music\New Lossless Rips\The Weeknd (My Own 100% FLAC Rips)\(2016) Starboy {Target Exclusive Bonus Track Edition}\17 - Die for You.wav
Peak level 99.8 % Extraction speed 4.6 X Track quality 99.9 % Test CRC BB9798DA Copy CRC BB9798DA Track not present in AccurateRip database Copy OK
Track 18
Filename G:\My Storage\Music\New Lossless Rips\The Weeknd (My Own 100% FLAC Rips)\(2016) Starboy {Target Exclusive Bonus Track Edition}\18 - I Feel It Coming.wav
Peak level 99.8 % Extraction speed 5.6 X Track quality 100.0 % Test CRC A646EA66 Copy CRC A646EA66 Track not present in AccurateRip database Copy OK
Track 19
Filename G:\My Storage\Music\New Lossless Rips\The Weeknd (My Own 100% FLAC Rips)\(2016) Starboy {Target Exclusive Bonus Track Edition}\19 - Starboy [Kygo Remix].wav
Peak level 99.8 % Extraction speed 5.7 X Track quality 100.0 % Test CRC A6AD33CD Copy CRC A6AD33CD Track not present in AccurateRip database Copy OK
None of the tracks are present in the AccurateRip database
No errors occurred
End of status report
---- CUETools DB Plugin V2.1.6
[CTDB TOCID: fbEDHkLvZDEq7PMMoNO_R4QCcg0-] foundSubmit result: fbEDHkLvZDEq7PMMoNO_R4QCcg0- has been confirmedTrack | CTDB Status 1 | (5/5) Accurately ripped 2 | (5/5) Accurately ripped 3 | (5/5) Accurately ripped 4 | (5/5) Accurately ripped 5 | (5/5) Accurately ripped 6 | (5/5) Accurately ripped 7 | (5/5) Accurately ripped 8 | (5/5) Accurately ripped 9 | (5/5) Accurately ripped 10 | (5/5) Accurately ripped 11 | (5/5) Accurately ripped 12 | (5/5) Accurately ripped 13 | (5/5) Accurately ripped 14 | (5/5) Accurately ripped 15 | (5/5) Accurately ripped 16 | (5/5) Accurately ripped 17 | (5/5) Accurately ripped 18 | (5/5) Accurately ripped 19 | (5/5) Accurately ripped
==== Log checksum EC7E12C92B33A468E0F59814CD45F0F9A2333FD060D6BABB3D000938B60F6894 ====

Содержание индексной карты (.CUE)

REM GENRE PBR&BREM DATE 2016REM DISCID 1E110813REM COMMENT "ExactAudioCopy v1.1"CATALOG 0602557319927PERFORMER "The Weeknd"TITLE "Starboy"FILE "01 - Starboy.wav" WAVE  TRACK 01 AUDIO    TITLE "Starboy"    PERFORMER "The Weeknd"    ISRC USUG11600976    INDEX 01 00:00:00FILE "02 - Party Monster.wav" WAVE  TRACK 02 AUDIO    TITLE "Party Monster"    PERFORMER "The Weeknd"    ISRC USUG11600997    INDEX 01 00:00:00FILE "03 - False Alarm.wav" WAVE  TRACK 03 AUDIO    TITLE "False Alarm"    PERFORMER "The Weeknd"    ISRC USUG11600975    INDEX 01 00:00:00FILE "04 - Reminder.wav" WAVE  TRACK 04 AUDIO    TITLE "Reminder"    PERFORMER "The Weeknd"    ISRC USUG11600998    INDEX 01 00:00:00FILE "05 - Rockin'.wav" WAVE  TRACK 05 AUDIO    TITLE "Rockin'"    PERFORMER "The Weeknd"    ISRC USUG11600999    INDEX 01 00:00:00FILE "06 - Secrets.wav" WAVE  TRACK 06 AUDIO    TITLE "Secrets"    PERFORMER "The Weeknd"    ISRC USUG11601000    INDEX 01 00:00:00FILE "07 - True Colors.wav" WAVE  TRACK 07 AUDIO    TITLE "True Colors"    PERFORMER "The Weeknd"    ISRC USUG11601001    INDEX 01 00:00:00FILE "08 - Stargirl Interlude.wav" WAVE  TRACK 08 AUDIO    TITLE "Stargirl Interlude"    PERFORMER "The Weeknd"    ISRC USUG11601002    INDEX 01 00:00:00FILE "09 - Sidewalks.wav" WAVE  TRACK 09 AUDIO    TITLE "Sidewalks"    PERFORMER "The Weeknd"    ISRC USUG11601003    INDEX 01 00:00:00FILE "10 - Six Feet Under.wav" WAVE  TRACK 10 AUDIO    TITLE "Six Feet Under"    PERFORMER "The Weeknd"    ISRC USUG11601004    INDEX 01 00:00:00FILE "11 - Love to Lay.wav" WAVE  TRACK 11 AUDIO    TITLE "Love to Lay"    PERFORMER "The Weeknd"    ISRC USUG11601005    INDEX 01 00:00:00FILE "12 - A Lonely Night.wav" WAVE  TRACK 12 AUDIO    TITLE "A Lonely Night"    PERFORMER "The Weeknd"    ISRC USUG11601006    INDEX 01 00:00:00FILE "13 - Attention.wav" WAVE  TRACK 13 AUDIO    TITLE "Attention"    PERFORMER "The Weeknd"    ISRC USUG11601007    INDEX 01 00:00:00FILE "14 - Ordinary Life.wav" WAVE  TRACK 14 AUDIO    TITLE "Ordinary Life"    PERFORMER "The Weeknd"    ISRC USUG11601008    INDEX 01 00:00:00FILE "15 - Nothing Without You.wav" WAVE  TRACK 15 AUDIO    TITLE "Nothing Without You"    PERFORMER "The Weeknd"    ISRC USUG11601009    INDEX 01 00:00:00FILE "16 - All I Know.wav" WAVE  TRACK 16 AUDIO    TITLE "All I Know"    PERFORMER "The Weeknd"    ISRC USUG11601010    INDEX 01 00:00:00FILE "17 - Die for You.wav" WAVE  TRACK 17 AUDIO    TITLE "Die for You"    PERFORMER "The Weeknd"    ISRC USUG11601011    INDEX 01 00:00:00FILE "18 - I Feel It Coming.wav" WAVE  TRACK 18 AUDIO    TITLE "I Feel It Coming"    PERFORMER "The Weeknd"    ISRC USUG11601012    INDEX 01 00:00:00FILE "19 - Starboy [Kygo Remix].wav" WAVE  TRACK 19 AUDIO    TITLE "Starboy [Kygo Remix]"    PERFORMER "The Weeknd"    ISRC USUG11601353    INDEX 01 00:00:00

Доп. информация

CD с бонус-треком продавался исключительно в магазинах Target.

If you like the topic, please click share to help develop our site.

To download the file disable ad blocking, and reload the page.

disable adblock How to disable ad blocking?

Download by magnet link 478 MB Download Torrent

Login using:



   
Current time is: 15-Jun 23:31 :: All times are UTC + 3