Флинтстоуны встречают Рокулу и Франкенстоуна / The Flintstones Meet Rockula and Frankenstone
Страна: США
Жанр: комедия, семейный
Продолжительность: 00:48:34
Год выпуска: 1979
Перевод 1: Профессиональный (дублированный) Нева-1
Перевод 2: Авторский (одноголосый закадровый) Алексей Михалёв
Русские субтитры: нет
Режиссёр: Рэй Паттерсон / Ray Patterson
Описание: Семья Флинтстоунов, живущих в каменном веке, но в полном соответствии с американским образом жизни, готовится к викторине с костюмами, на которой мистер Флинтстоун, как всегда, блеснет своим гранитным умом. В результате они выигрывают путевку в Роксильванию. Их неизменные друзья и соседи едут вместе с ними. Там в старинном, страшном замке они и встречаются с Рокулой и Франкенстоуном.
Дополнительная информация: Дубляж с VHSRip от V-7677. Оцифровка перевода Михалёва - bora86bora. Синхронизация звука - Dreven.
Семпл: http://sendfile.su/1482055
Качество: WEBRip 1080p
Формат: MKV
Видео: 1440x1080 (4:3), 23.976 fps, AVC, ~10.2 Mbps, 0.273 bits/pixel
Аудио 1: Russian, 48.0 KHz, AC3, 2 ch, 224 Kbps - Нева-1
Аудио 2: Russian, 48.0 KHz, FLAC, 1 ch, 408 Kbps - Алексей Михалёв
Аудио 3: English, 48.0 KHz, AC3+, 2 ch, 224 Kbps
Субтитры: английские

Подробные технические данные

GeneralUnique ID                   : 167539143054257169021183742027598228325 (0x7E0ADD80CBB5C6EA19769B8291216B65)Complete name               : C:\The Flintstones Meet Rockula and Frankenstone.mkvFormat                      : MatroskaFormat version              : Version 4 / Version 2File size                   : 3.82 GiBDuration                    : 48 min 34 sOverall bit rate mode       : VariableOverall bit rate            : 11.2 Mb/sEncoded date                : UTC 2019-03-15 10:29:02Writing application         : mkvmerge v32.0.0 ('Astral Progressions') 64-bitWriting library             : libebml v1.3.7 + libmatroska v1.5.0
VideoID : 1Format : AVCFormat/Info : Advanced Video CodecFormat profile : [email protected] settings : CABAC / 4 Ref FramesFormat settings, CABAC : YesFormat settings, ReFrames : 4 framesCodec ID : V_MPEG4/ISO/AVCDuration : 48 min 31 sBit rate mode : VariableBit rate : 10.4 Mb/sMaximum bit rate : 15.0 Mb/sWidth : 1 440 pixelsHeight : 1 080 pixelsDisplay aspect ratio : 4:3Frame rate mode : ConstantFrame rate : 23.976 (24000/1001) FPSColor space : YUVChroma subsampling : 4:2:0Bit depth : 8 bitsScan type : ProgressiveBits/(Pixel*Frame) : 0.279Stream size : 3.52 GiB (92%)Language : EnglishDefault : YesForced : NoColor range : LimitedColor primaries : BT.709Transfer characteristics : BT.709Matrix coefficients : BT.709
Audio #1ID : 2Format : AC-3Format/Info : Audio Coding 3Commercial name : Dolby DigitalCodec ID : A_AC3Duration : 48 min 34 sBit rate mode : ConstantBit rate : 224 kb/sChannel(s) : 2 channelsChannel layout : L RSampling rate : 48.0 kHzFrame rate : 31.250 FPS (1536 SPF)Bit depth : 16 bitsCompression mode : LossyStream size : 77.8 MiB (2%)Title : Нева-1Language : RussianService kind : Complete MainDefault : YesForced : No
Audio #2ID : 3Format : FLACFormat/Info : Free Lossless Audio CodecCodec ID : A_FLACDuration : 48 min 34 sBit rate mode : VariableBit rate : 408 kb/sChannel(s) : 1 channelChannel layout : CSampling rate : 48.0 kHzFrame rate : 11.719 FPS (4096 SPF)Bit depth : 16 bitsCompression mode : LosslessStream size : 142 MiB (4%)Title : Алексей МихалёвWriting library : libFLAC 20080709 (UTC 2008-07-09)Language : RussianDefault : NoForced : No
Audio #3ID : 4Format : E-AC-3Format/Info : Enhanced AC-3Commercial name : Dolby Digital PlusCodec ID : A_EAC3Duration : 48 min 31 sBit rate mode : ConstantBit rate : 224 kb/sChannel(s) : 2 channelsChannel layout : L RSampling rate : 48.0 kHzFrame rate : 31.250 FPS (1536 SPF)Compression mode : LossyStream size : 77.7 MiB (2%)Language : EnglishService kind : Complete MainDefault : NoForced : No
TextID : 5Format : UTF-8Codec ID : S_TEXT/UTF8Codec ID/Info : UTF-8 Plain TextDuration : 47 min 58 sBit rate : 90 b/sCount of elements : 1030Stream size : 31.8 KiB (0%)Language : EnglishDefault : NoForced : No

Скриншоты


If you like the topic, please click share to help develop our site.

To download the file disable ad blocking, and reload the page.

disable adblock How to disable ad blocking?

Download by magnet link 3.82 GB Download Torrent

Login using:

Similar topics



   
Current time is: 15-Jun 23:43 :: All times are UTC + 3