Syderalus


Discography
Жанр: Prog Rock/Prog Metal
Носитель: WEB
Год издания: 2014-2018
Страна исполнителя (группы): Argentina
Аудиокодек: FLAC (*.flac)
Тип рипа: tracks
Битрейт аудио: lossless
Продолжительность: 01:52:51
Источник: собственная покупка
Наличие сканов в содержимом раздачи:
да (Inner Silence) pdf+png 24-бит

2014 - SyderaluS [45:27]


01. Dork [00:14:31]
02. Wrong Number [00:14:32]
03. Vegital Moun [00:16:24]
Состав:
Nico Auvieux - Guitarra / FX
Fernando Ferro - Guitarra / Voz
Augusto Gallegos - Bajo / FX
Isaac Llovera - Batería / Voz / Teclados
Músicos invitados:
Caeto Veliz - Guitarra / Coros en "Dork - E"
Adrian Llovera - Voz en "Wrong Number - The Light"
Released October 13, 2014

Лог проверки качества

-----------------------
DON'T MODIFY THIS FILE
-----------------------
PERFORMER: auCDtect Task Manager, ver. 1.6.0 RC1 build 1.6.0.1Copyright (c) 2008-2010 y-soft. All rights reservedhttp://y-soft.org
ANALYZER: auCDtect: CD records authenticity detector, version 0.8.2Copyright (c) 2004 Oleg Berngardt. All rights reserved.Copyright (c) 2004 Alexander Djourik. All rights reserved.
FILE: Syderalus - SyderaluS - 03 Vegital Moun.flac Size: 106301368 Hash: 77BA1250DE11DA383B7E95EF89484135 Accuracy: -m0 Conclusion: CDDA 100% Signature: B0BF12C0927639CCDDE06EDEFECE9F43C8D488B5FILE: Syderalus - SyderaluS - 02 Wrong Number.flac Size: 103410789 Hash: 6F349650809A82A6EFC0713011B40D56 Accuracy: -m0 Conclusion: CDDA 99% Signature: 90C3BC8D371E3D5583DAB46DB3FE43CCE8766656FILE: Syderalus - SyderaluS - 01 Dork.flac Size: 88342732 Hash: 8DA00493B7736C0CA6A2E3F06A2B5103 Accuracy: -m0 Conclusion: CDDA 100% Signature: 572D1974CF6AA4FA033B6E4880E388763572294B

DRM log

foobar2000 1.3.12 / Dynamic Range Meter 1.1.1log date: 2019-03-17 09:00:41
--------------------------------------------------------------------------------Analyzed: Syderalus / SyderaluS--------------------------------------------------------------------------------
DR Peak RMS Duration Track--------------------------------------------------------------------------------DR8 -0.10 dB -11.33 dB 14:31 01-DorkDR6 -0.10 dB -8.51 dB 14:32 02-Wrong NumberDR6 -0.10 dB -9.26 dB 16:24 03-Vegital Moun--------------------------------------------------------------------------------
Number of tracks: 3Official DR value: DR6
Samplerate: 44100 HzChannels: 2Bits per sample: 16Bitrate: 863 kbpsCodec: FLAC================================================================================

2018 - Inner Silence [01:07:23]


01. Age of Reason [00:05:31]
02. Think About It! [00:07:01]
03. Leaving the Seas of Nowhere [00:03:08]
04. I Am the One [00:05:44]
05. The Facts [00:20:14]
06. Keeper [00:05:47]
07. The Seed [00:04:21]
08. Revealed [00:07:29]
09. Entering to the Seas of Nowhere [00:08:03]
Состав:
Nico Auvieux - Guitarra Eléctrica/Acústica/Clásica
Augusto Gallegos - Bajo/Letras
Isaac Llovera - Voz/Batería/Teclados/Guitarra/Bajo
Artistas invitados:
Diego Ramiro Papiz - Relatos / Coros en "Entering in the Seas of Nowhere"
Adrián Llovera, Franco Llovera, Renzo Cecenarro - Coros en "Entering in the Seas of Nowhere"
Released December 13, 2018

Лог проверки качества

-----------------------
DON'T MODIFY THIS FILE
-----------------------
PERFORMER: auCDtect Task Manager, ver. 1.6.0 RC1 build 1.6.0.1Copyright (c) 2008-2010 y-soft. All rights reservedhttp://y-soft.org
ANALYZER: auCDtect: CD records authenticity detector, version 0.8.2Copyright (c) 2004 Oleg Berngardt. All rights reserved.Copyright (c) 2004 Alexander Djourik. All rights reserved.
FILE: Syderalus - Inner Silence - 09 Entering to the Seas of Nowhere.flac Size: 52795344 Hash: 259E418EE62DF9A2CDAAA9232A681A76 Accuracy: -m0 Conclusion: CDDA 100% Signature: 5B6A9C3602ACA03387B5C75C41BF724B3828717EFILE: Syderalus - Inner Silence - 08 Revealed.flac Size: 54006364 Hash: DC0A2E4933805BE6B159AD8788058A2D Accuracy: -m0 Conclusion: CDDA 100% Signature: 272562F2FC94B0213E5235E37F2CE3D347A8E97DFILE: Syderalus - Inner Silence - 07 The Seed.flac Size: 33883809 Hash: 2BBE03C1C4E38D29903F374754A1C03F Accuracy: -m0 Conclusion: CDDA 100% Signature: F4F794F5E9E10782CC3E017C7BBF34F4E5942C06FILE: Syderalus - Inner Silence - 06 Keeper.flac Size: 40482641 Hash: 26DF55A398925A86396A662A769A9BD4 Accuracy: -m0 Conclusion: CDDA 100% Signature: 4A8BE8BAD1E96446DDA22DC5680EB892CA90F726FILE: Syderalus - Inner Silence - 05 The Facts.flac Size: 120608812 Hash: 4420A48C0A3A1326419F1075F180617B Accuracy: -m0 Conclusion: CDDA 100% Signature: 89F5F82534A150829694AFF773B3B443C29FF930FILE: Syderalus - Inner Silence - 04 I Am the One.flac Size: 37865820 Hash: 7A8A4D3EC624E7876EAEB817981822ED Accuracy: -m0 Conclusion: CDDA 100% Signature: 29044813FF7DED42BCC63E454FCEBC60EBAED0A2FILE: Syderalus - Inner Silence - 03 Leaving the Seas of Nowhere.flac Size: 12510833 Hash: 2C4D57023588C605AE137EE60ED03D80 Accuracy: -m0 Conclusion: CDDA 100% Signature: C68EC905913AF7A28701DE163A7D00808381B6B2FILE: Syderalus - Inner Silence - 02 Think About It!.flac Size: 49617067 Hash: E17D1735BF2E5EB3BEDC77DC34605FC1 Accuracy: -m0 Conclusion: CDDA 100% Signature: 60BD9EAA13709659E3A56C4900E1E9CA7F84D5E6FILE: Syderalus - Inner Silence - 01 Age of Reason.flac Size: 42451241 Hash: 7921A7FA959DC356466F316D60DC9471 Accuracy: -m0 Conclusion: CDDA 100% Signature: 29AFCDDE5B652659C7293D64A258CDDC8D18A4CF

DRM log

foobar2000 1.3.12 / Dynamic Range Meter 1.1.1log date: 2019-03-17 09:07:53
--------------------------------------------------------------------------------Analyzed: Syderalus / Inner Silence--------------------------------------------------------------------------------
DR Peak RMS Duration Track--------------------------------------------------------------------------------DR4 -0.03 dB -6.46 dB 5:32 01-Age of ReasonDR6 -0.10 dB -7.92 dB 7:01 02-Think About It!DR12 -3.06 dB -19.91 dB 3:09 03-Leaving the Seas of NowhereDR7 -0.11 dB -10.04 dB 5:45 04-I Am the OneDR6 -0.05 dB -10.38 dB 20:15 05-The FactsDR6 0.00 dB -8.59 dB 5:48 06-KeeperDR3 -0.04 dB -4.56 dB 4:21 07-The SeedDR6 -0.02 dB -8.16 dB 7:30 08-RevealedDR5 -0.04 dB -7.98 dB 8:03 09-Entering to the Seas of Nowhere--------------------------------------------------------------------------------
Number of tracks: 9Official DR value: DR6
Samplerate: 44100 HzChannels: 2Bits per sample: 16Bitrate: 873 kbpsCodec: FLAC================================================================================


О группе узнал от Валеры (Копысов), за что ему отдельная благодарность.

If you like the topic, please click share to help develop our site.

To download the file disable ad blocking, and reload the page.

disable adblock How to disable ad blocking?

Download by magnet link 736 MB Download Torrent

Login using:

Similar topics

(Progressive Metal/Rock) Symphony Of Pain - Virology - 2019, MP3, 320 kbps
 106 MB   0 | 0   12-Jun-19 03:25   0
(Progressive Rock | Metal) Avandra - Descender - 2019, MP3, 320 kbps
 137 MB   0 | 0   27-May-19 15:55   2


   
Current time is: 20-Jun 18:22 :: All times are UTC + 3