Besatt - 2010 - Diabolic Altar (EP)
Жанр: Black Metal
Носитель: CD
Страна-производитель диска (релиза): Mexico (highly likely)
Год издания: 2010
Издатель (лейбл): Azermedoth Records / Sphera Noctis Records / Omeyocan Productions
Номер по каталогу: AZH-CD-078 / SNR-CD-002 / OME-CD-010
Страна исполнителя (группы): Poland
Аудиокодек: FLAC (*.flac)
Тип рипа: image+.cue
Битрейт аудио: lossless
Продолжительность: 21:53
Источник: собственный рип
Наличие сканов в содержимом раздачи: да
Треклист:
1 Antichrist Triumphant
2 Mad Minds
3 Discreated But Reborn
4 Diabolic Altar
5 Ave Master Lucifer (Live)

Лог создания рипа

Exact Audio Copy V1.0 beta 4 from 7. December 2014
Отчёт EAC об извлечении, выполненном 15. марта 2019, 13:14
Besatt / Diabolic Altar
Дисковод: PIONEER BD-RW BDR-207D Adapter: 1 ID: 0
Режим чтения : ДостоверностьИспользование точного потока : ДаОтключение кэша аудио : ДаИспользование указателей C2 : Нет
Коррекция смещения при чтении : 667Способность читать области Lead-in и Lead-out : НетЗаполнение пропущенных сэмплов тишиной : ДаУдаление блоков с тишиной в начале и конце : НетПри вычислениях CRC использовались нулевые сэмплы : ДаИнтерфейс : Встроенный Win32-интерфейс для Win NT/2000
Выходной формат : Пользовательский кодировщикВыбранный битрейт : 1024 kBit/sКачество : ВысокийДобавление ID3-тега : НетУтилита сжатия : C:\Program Files (x86)\Exact Audio Copy\Flac\flac.exeДополнительные параметры : -V -8 -T "Date=%year%" -T "Genre=%genre%" %source%
TOC извлечённого CD
Трек | Старт | Длительность | Начальный сектор | Конечный сектор --------------------------------------------------------------------- 1 | 0:00.00 | 5:05.09 | 0 | 22883 2 | 5:05.09 | 5:04.74 | 22884 | 45757 3 | 10:10.08 | 4:29.69 | 45758 | 66001 4 | 14:40.02 | 4:34.35 | 66002 | 86586 5 | 19:14.37 | 2:38.17 | 86587 | 98453
Характеристики диапазона извлечения и сообщения об ошибках
Выбранный диапазон
Имя файла F:\BFM\Besatt - Diabolic Altar\Besatt - Diabolic Altar.wav
Пиковый уровень 26.4 % Скорость извлечения 5.6 X Качество диапазона 99.9 % CRC теста 79366D10 CRC копии 79366D10 Копирование... OK
Ошибок не произошло
AccurateRip: сводка
Трек 1 отсутствует в базе данныхТрек 2 отсутствует в базе данныхТрек 3 отсутствует в базе данныхТрек 4 отсутствует в базе данныхТрек 5 отсутствует в базе данных
Ни одного трека нет в базе AccurateRip
Конец отчёта
==== Контрольная сумма отчёта 7205EE022C4B5136935DB858710195E8D405D7B677B26A46B39A6C315E9F449B ====

Об альбоме (сборнике)

https://www.metal-archives.com/albums/Besatt/Diabolic_Altar/447004

Состав

Beldaroh - Vocals, Bass
Fulmineus - Vocals, Guitars
Morbid - Drums

If you like the topic, please click share to help develop our site.

To download the file disable ad blocking, and reload the page.

disable adblock How to disable ad blocking?

Download by magnet link 141 MB Download Torrent

Login using:

Similar topics

(Black Metal) [CD] Darkthrone - Old Star - 2019, FLAC (tracks), lossless
 295 MB   0 | 0   30-May-19 16:50   2


   
Current time is: 20-Jun 18:01 :: All times are UTC + 3