Im Nebel / Vitriol
Жанр: Symphonic Black Metal, Progressive Metal
Носитель: CD
Страна-производитель диска (релиза): Russia
Год издания: 2008
Издатель (лейбл): Haarbn
Номер по каталогу: Haarbn 013
Страна исполнителя (группы): Georgia
Аудиокодек: FLAC (*.flac)
Тип рипа: tracks+.cue
Битрейт аудио: lossless
Продолжительность: 34:14
Источник: собственный рип
Наличие сканов в содержимом раздачи: нет
Треклист:
1. Intro 01:36
2. Incosistent Thoughts 02:15
3. Faded Mankind 05:22
4. Zeitgeist 07:48
5. Unbeliever's Script 06:10
6. The Journey To The Center Of I 07:18
7. Exodus 03:45

Лог создания рипа

X Lossless Decoder version 20181019 (151.1)
XLD extraction logfile from 2019-03-09 21:47:27 +0300
IM NEBEL / Vitriol
Used drive : HL-DT-ST DVDRW GX40N (revision RQ00)Media type : Pressed CD
Ripper mode : CDParanoia III 10.2Disable audio cache : OK for the drive with a cache less than 2750KiBMake use of C2 pointers : NORead offset correction : 6Max retry count : 20Gap status : Analyzed, Appended (except HTOA)
TOC of the extracted CD Track | Start | Length | Start sector | End sector --------------------------------------------------------- 1 | 00:00:00 | 01:36:37 | 0 | 7236 2 | 01:36:37 | 02:15:01 | 7237 | 17362 3 | 03:51:38 | 05:22:46 | 17363 | 41558 4 | 09:14:09 | 07:47:74 | 41559 | 76657 5 | 17:02:08 | 06:10:37 | 76658 | 104444 6 | 23:12:45 | 07:18:37 | 104445 | 137331 7 | 30:31:07 | 03:44:74 | 137332 | 154205
AccurateRip Summary (DiscID: 000838b0-003474a4-52080807) Track 01 : OK (v2, confidence 2/2) Track 02 : OK (v2, confidence 2/2) Track 03 : OK (v2, confidence 2/2) Track 04 : OK (v2, confidence 2/2) Track 05 : OK (v2, confidence 2/2) Track 06 : OK (v2, confidence 2/2) Track 07 : OK (v2, confidence 2/2) ->All tracks accurately ripped.
All Tracks Statistics Read error : 0 Skipped (treated as error) : 0 Edge jitter error (maybe fixed) : 0 Atom jitter error (maybe fixed) : 0 Drift error (maybe fixed) : 0 Dropped bytes error (maybe fixed) : 0 Duplicated bytes error (maybe fixed) : 0
Track 01 Filename : /Volumes/Distrib/Transcode/01 IM NEBEL - Intro.flac Pre-gap length : 00:02:00
CRC32 hash (test run) : B001A6A7 CRC32 hash : B001A6A7 CRC32 hash (skip zero) : A87D6126 AccurateRip v1 signature : 72F718D4 AccurateRip v2 signature : FECC6AC0 ->Accurately ripped (v2, confidence 2/2) Statistics Read error : 0 Skipped (treated as error) : 0 Edge jitter error (maybe fixed) : 0 Atom jitter error (maybe fixed) : 0 Drift error (maybe fixed) : 0 Dropped bytes error (maybe fixed) : 0 Duplicated bytes error (maybe fixed) : 0 Inconsistency in error sectors : 0
Track 02 Filename : /Volumes/Distrib/Transcode/02 IM NEBEL - Inconsistent Thoughts.flac
CRC32 hash (test run) : DFC2B4E2 CRC32 hash : DFC2B4E2 CRC32 hash (skip zero) : D7E0F21B AccurateRip v1 signature : 540293E4 AccurateRip v2 signature : 0FF090A5 ->Accurately ripped (v2, confidence 2/2) Statistics Read error : 0 Skipped (treated as error) : 0 Edge jitter error (maybe fixed) : 0 Atom jitter error (maybe fixed) : 0 Drift error (maybe fixed) : 0 Dropped bytes error (maybe fixed) : 0 Duplicated bytes error (maybe fixed) : 0 Inconsistency in error sectors : 0
Track 03 Filename : /Volumes/Distrib/Transcode/03 IM NEBEL - Faded Mankind.flac
CRC32 hash (test run) : 06C2BC90 CRC32 hash : 06C2BC90 CRC32 hash (skip zero) : 6D3D6D13 AccurateRip v1 signature : 7EEAB59E AccurateRip v2 signature : D8A39E8A ->Accurately ripped (v2, confidence 2/2) Statistics Read error : 0 Skipped (treated as error) : 0 Edge jitter error (maybe fixed) : 0 Atom jitter error (maybe fixed) : 0 Drift error (maybe fixed) : 0 Dropped bytes error (maybe fixed) : 0 Duplicated bytes error (maybe fixed) : 0 Inconsistency in error sectors : 0
Track 04 Filename : /Volumes/Distrib/Transcode/04 IM NEBEL - Zeitgeist.flac Pre-gap length : 00:02:00
CRC32 hash (test run) : C7F8BF6A CRC32 hash : C7F8BF6A CRC32 hash (skip zero) : F220E9CB AccurateRip v1 signature : 8F0E65DC AccurateRip v2 signature : 45441B74 ->Accurately ripped (v2, confidence 2/2) Statistics Read error : 0 Skipped (treated as error) : 0 Edge jitter error (maybe fixed) : 0 Atom jitter error (maybe fixed) : 0 Drift error (maybe fixed) : 0 Dropped bytes error (maybe fixed) : 0 Duplicated bytes error (maybe fixed) : 0 Inconsistency in error sectors : 0
Track 05 Filename : /Volumes/Distrib/Transcode/05 IM NEBEL - Unbeliever's Script.flac Pre-gap length : 00:02:00
CRC32 hash (test run) : 790C5A7B CRC32 hash : 790C5A7B CRC32 hash (skip zero) : E1AA5501 AccurateRip v1 signature : BA08EA6F AccurateRip v2 signature : B959BED6 ->Accurately ripped (v2, confidence 2/2) Statistics Read error : 0 Skipped (treated as error) : 0 Edge jitter error (maybe fixed) : 0 Atom jitter error (maybe fixed) : 0 Drift error (maybe fixed) : 0 Dropped bytes error (maybe fixed) : 0 Duplicated bytes error (maybe fixed) : 0 Inconsistency in error sectors : 0
Track 06 Filename : /Volumes/Distrib/Transcode/06 IM NEBEL - The Journey To The Center Of I.flac Pre-gap length : 00:02:00
CRC32 hash (test run) : 509E1B05 CRC32 hash : 509E1B05 CRC32 hash (skip zero) : 41080379 AccurateRip v1 signature : 1E3F2203 AccurateRip v2 signature : 9550F4C6 ->Accurately ripped (v2, confidence 2/2) Statistics Read error : 0 Skipped (treated as error) : 0 Edge jitter error (maybe fixed) : 0 Atom jitter error (maybe fixed) : 0 Drift error (maybe fixed) : 0 Dropped bytes error (maybe fixed) : 0 Duplicated bytes error (maybe fixed) : 0 Inconsistency in error sectors : 0
Track 07 Filename : /Volumes/Distrib/Transcode/07 IM NEBEL - Exodus.flac Pre-gap length : 00:02:00
CRC32 hash (test run) : FD32D187 CRC32 hash : FD32D187 CRC32 hash (skip zero) : A485494A AccurateRip v1 signature : C9C0A44C AccurateRip v2 signature : 719FBF68 ->Accurately ripped (v2, confidence 2/2) Statistics Read error : 0 Skipped (treated as error) : 0 Edge jitter error (maybe fixed) : 0 Atom jitter error (maybe fixed) : 0 Drift error (maybe fixed) : 0 Dropped bytes error (maybe fixed) : 0 Duplicated bytes error (maybe fixed) : 0 Inconsistency in error sectors : 0
No errors occurred
End of status report

Содержание индексной карты (.CUE)

TITLE "Vitriol"PERFORMER "IM NEBEL"REM DATE "2008-08-09"REM DISCID 52080807FILE "01 IM NEBEL - Intro.flac" WAVE  TRACK 01 AUDIO    TITLE "Intro"    PERFORMER "IM NEBEL"    FLAGS DCP    INDEX 01 00:00:00FILE "02 IM NEBEL - Inconsistent Thoughts.flac" WAVE  TRACK 02 AUDIO    TITLE "Inconsistent Thoughts"    PERFORMER "IM NEBEL"    FLAGS DCP    INDEX 01 00:00:00FILE "03 IM NEBEL - Faded Mankind.flac" WAVE  TRACK 03 AUDIO    TITLE "Faded Mankind"    PERFORMER "IM NEBEL"    FLAGS DCP    INDEX 01 00:00:00  TRACK 04 AUDIO    TITLE "Zeitgeist"    PERFORMER "IM NEBEL"    FLAGS DCP    INDEX 00 05:20:46FILE "04 IM NEBEL - Zeitgeist.flac" WAVE    INDEX 01 00:00:00  TRACK 05 AUDIO    TITLE "Unbeliever's Script"    PERFORMER "IM NEBEL"    FLAGS DCP    INDEX 00 07:45:74FILE "05 IM NEBEL - Unbeliever's Script.flac" WAVE    INDEX 01 00:00:00  TRACK 06 AUDIO    TITLE "The Journey To The Center Of I"    PERFORMER "IM NEBEL"    FLAGS DCP    INDEX 00 06:08:37FILE "06 IM NEBEL - The Journey To The Center Of I.flac" WAVE    INDEX 01 00:00:00  TRACK 07 AUDIO    TITLE "Exodus"    PERFORMER "IM NEBEL"    FLAGS DCP    INDEX 00 07:16:37FILE "07 IM NEBEL - Exodus.flac" WAVE    INDEX 01 00:00:00

Лог проверки качества

-----------------------
DON'T MODIFY THIS FILE
-----------------------
PERFORMER: auCDtect Task Manager, ver. 1.6.0 RC1 build 1.6.0.1Copyright (c) 2008-2010 y-soft. All rights reservedhttp://y-soft.org
ANALYZER: auCDtect: CD records authenticity detector, version 0.8.2Copyright (c) 2004 Oleg Berngardt. All rights reserved.Copyright (c) 2004 Alexander Djourik. All rights reserved.
FILE: 02 IM NEBEL - Inconsistent Thoughts.flac Size: 18638625 Hash: 5BB29E71C247B4527C7477DE60B51D09 Accuracy: -m0 Conclusion: CDDA 100% Signature: 4640D7F85A6F034420D4379D29B44D770AD8584CFILE: 06 IM NEBEL - The Journey To The Center Of I.flac Size: 56264653 Hash: CCEFF72866DBA44402142F407F23EBE5 Accuracy: -m0 Conclusion: MPEG 95% Signature: D35B292685B597FE0B57EC9BA9F48E4C035EB9FBFILE: 07 IM NEBEL - Exodus.flac Size: 30457812 Hash: D3CA911C0AB480F9F7EA86FE83AA4F8B Accuracy: -m0 Conclusion: CDDA 100% Signature: E3D9F5C0897E6215BBD3DBCFB322943E32D6DA73FILE: 04 IM NEBEL - Zeitgeist.flac Size: 61674780 Hash: 254DFB47E051E2568ED1B5E75A5A0B0F Accuracy: -m0 Conclusion: MPEG 95% Signature: A7ABCD729168BB3E601C8E6B3F3594376F4F3DF1FILE: 05 IM NEBEL - Unbeliever's Script.flac Size: 49224261 Hash: 981F6CC2884E76F87CDA0F0173665A90 Accuracy: -m0 Conclusion: MPEG 95% Signature: 80C7710B7C1A771B8E9854C37270D3C692856809FILE: 03 IM NEBEL - Faded Mankind.flac Size: 42144384 Hash: 53258861E7DB124A0151CE4D425454CA Accuracy: -m0 Conclusion: MPEG 95% Signature: 8C8CB0F1D553B8D48DC89D2C5B7451B640DB54F4FILE: 01 IM NEBEL - Intro.flac Size: 10313541 Hash: DE070EC2718E127895E99C94C3D95341 Accuracy: -m0 Conclusion: CDDA 100% Signature: DC2A5BA3F535DBF229F48E534804826005331B41

Скриншот спектра частот







Состав

Sergiy Ermolaev - Bass
Dmitry Mazmanov - Drums
Michael Lenz - Guitars, Vocals (clean)
Helen Chobanyan - Keyboards
Vasil Doiashvili - Vocals

If you like the topic, please click share to help develop our site.

To download the file disable ad blocking, and reload the page.

disable adblock How to disable ad blocking?

Download by magnet link 256 MB Download Torrent

Login using:

Similar topics



   
Current time is: 20-Jun 18:24 :: All times are UTC + 3