Iron Angel - Winds Of War
Жанр: Speed Metal
Носитель: CD
Страна-производитель диска: Зап. Германия
Год издания: 1988
Издатель (лейбл): SPV/STEAMHAMMER
Номер по каталогу: SPV 04-7550
Страна исполнителя (группы): Зап. Германия
Аудиокодек: FLAC (*.flac)
Тип рипа: image+.cue
Битрейт аудио: lossless
Продолжительность: 39:20
Источник (релизер): Собственный рип
Наличие сканов в содержимом раздачи: да
Треклист:
1. Winds of War (02:14)
2. Metalstorm (03:27)
3. Son of a Bitch (03:29)
4. Vicious (04:19)
5. Born to Rock (03:58)
6. Fight for Your Life (04:31)
7. Stronger than Steel (05:52)
8. Sea of Flames (05:19)
9. Creatures of Destruction (04:16)
10. Back to the Silence (01:52)

Лог создания рипа

Exact Audio Copy V1.3 from 2. September 2016
Отчёт EAC об извлечении, выполненном 16. марта 2019, 18:52
Iron Angel / Winds Of War [SPV 04-7550]
Дисковод: ASUS DRW-24B3ST Adapter: 1 ID: 0
Режим чтения : ДостоверностьИспользование точного потока : ДаОтключение кэша аудио : ДаИспользование указателей C2 : Нет
Коррекция смещения при чтении : 6Способность читать области Lead-in и Lead-out : НетЗаполнение пропущенных сэмплов тишиной : ДаУдаление блоков с тишиной в начале и конце : НетПри вычислениях CRC использовались нулевые сэмплы : ДаИнтерфейс : Встроенный Win32-интерфейс для Win NT/2000
Выходной формат : Пользовательский кодировщикВыбранный битрейт : 128 kBit/sКачество : ВысокийДобавление ID3-тега : НетУтилита сжатия : C:\Program Files (x86)\Exact Audio Copy\Flac\flac.exeДополнительные параметры : -V -8 -T "Genre=%genre%" -T "Artist=%artist%" -T "Title=%title%" -T "Album=%albumtitle%" -T "Date=%year%" -T "Tracknumber=%tracknr%" -T "Comment=%comment%" %source%
TOC извлечённого CD
Трек | Старт | Длительность | Начальный сектор | Конечный сектор --------------------------------------------------------------------- 1 | 0:00.00 | 2:14.15 | 0 | 10064 2 | 2:14.15 | 3:27.07 | 10065 | 25596 3 | 5:41.22 | 3:29.35 | 25597 | 41306 4 | 9:10.57 | 4:19.43 | 41307 | 60774 5 | 13:30.25 | 3:58.12 | 60775 | 78636 6 | 17:28.37 | 4:31.38 | 78637 | 98999 7 | 22:00.00 | 5:52.02 | 99000 | 125401 8 | 27:52.02 | 5:19.48 | 125402 | 149374 9 | 33:11.50 | 4:16.25 | 149375 | 168599 10 | 37:28.00 | 1:52.00 | 168600 | 176999
Характеристики диапазона извлечения и сообщения об ошибках
Выбранный диапазон
Имя файла Z:\Iron Angel\1986 Winds Of War\Iron Angel - Winds Of War [SPV 04-7550].wav
Пиковый уровень 87.3 % Скорость извлечения 5.2 X Качество диапазона 100.0 % CRC теста F70CECAB CRC копии F70CECAB Копирование... OK
Ошибок не произошло
AccurateRip: сводка
Трек 1 : извлечено точно (доверие 6) [DED0E777] (AR v2)Трек 2 : извлечено точно (доверие 6) [D459740E] (AR v2)Трек 3 : извлечено точно (доверие 6) [44158215] (AR v2)Трек 4 : извлечено точно (доверие 6) [3F2BC01C] (AR v2)Трек 5 : извлечено точно (доверие 6) [C9B5956B] (AR v2)Трек 6 : извлечено точно (доверие 6) [41C034DB] (AR v2)Трек 7 : извлечено точно (доверие 6) [AA02F90B] (AR v2)Трек 8 : извлечено точно (доверие 6) [26248F94] (AR v2)Трек 9 : извлечено точно (доверие 6) [CE8508C6] (AR v2)Трек 10 : извлечено точно (доверие 6) [1472650A] (AR v2)
Все треки извлечены точно
Конец отчёта
---- CUETools DB Plugin V2.1.6
[CTDB TOCID: zWldJvLFP17eA2rDGr.8H8iZTwM-] foundSubmit result: zWldJvLFP17eA2rDGr.8H8iZTwM- has been confirmedTrack | CTDB Status 1 | (5/5) Accurately ripped 2 | (5/5) Accurately ripped 3 | (5/5) Accurately ripped 4 | (5/5) Accurately ripped 5 | (5/5) Accurately ripped 6 | (5/5) Accurately ripped 7 | (5/5) Accurately ripped 8 | (5/5) Accurately ripped 9 | (5/5) Accurately ripped 10 | (5/5) Accurately ripped
==== Контрольная сумма отчёта E0C7B123CF46944B4E2B1B4A3BB3DDB80E6D058DAAF23D46CA13DCD0BD872612 ====

If you like the topic, please click share to help develop our site.

To download the file disable ad blocking, and reload the page.

disable adblock How to disable ad blocking?

Download by magnet link 273 MB Download Torrent

Login using:

Similar topics



   
Current time is: 20-Jun 18:34 :: All times are UTC + 3