Молчаливое бегствоSilent Running«Amazing companions on an incredible adventure... that journeys beyond imagination!»- Страна: США
Жанр: фантастика, драма
Год выпуска: 1972
Продолжительность: 01:29:36
Перевод: Профессиональный (полное дублирование), Профессиональный (многоголосый, закадровый), Профессиональный (двухголосый), Авторский
Субтитры: русские, английские.-Режиссер: Дуглас Трамбалл / Douglas Trumbull-В ролях: Брюс Дерн (Freeman Lowell), Клифф Поттс (John Keenan), Рон Рифкин (Marty Barker), Джесси Винт (Andy Wolf), Марк Персонс (the Drone), Стивен Браун (the Drone), Шерил Спаркс (the Drone), Ларри Вайзенхант (the Drone), Джозеф Кампанелла (Neal - Berkshire' Captain, озвучка, в титрах не указан), Рой Энджел (Anderson, озвучка, в титрах не указан)-Описание: Дело происходит на космической станции, где самоотверженные учёные из последних сил пытаются сохранить последние образцы земной флоры. Но это практически невозможно...- - - -Качество: BDRip 720p
Контейнер: MKV
Видео: MPEG-4 AVC, 1280x694 (1.85:1), 8000 kbps, 23,976 fps, 0,376 bpp
Аудио №1: русский / AC3 / 2.0 / 48 kHz / 192 kbps / Дубляж
Аудио №2: русский / AC3 / 2.0 / 48 kHz / 192 kbps / MVO
Аудио №3: русский / AC3 / 2.0 / 48 kHz / 192 kbps / DVO ( Sci-Fi )
Аудио №4: русский / AC3 / 2.0 / 48 kHz / 192 kbps / AVO ( Дольский )
Аудио №5: английский / AC3 / 2.0 / 48 kHz / 192 kbps
Навигация по главам: есть-

Media Info

**************************************************************
x264 [info]: frame I:826 Avg QP:18.04 size:126415
x264 [info]: frame P:22785 Avg QP:19.99 size: 66071
x264 [info]: frame B:105306 Avg QP:21.95 size: 35768
**************************************************************
Формат : Matroska
Версия формата : Version 2
Размер файла : 5,61 Гбайт
Продолжительность : 1 ч. 29 м.
Общий поток : 8963 Кбит/сек
Название фильма : = Молчаливое бегство / Silent Running (1972) BDRip 720p - KORSAR =
Дата кодирования : UTC 2019-03-15 15:03:47
Программа кодирования : mkvmerge v5.8.0 ('No Sleep / Pillow') built on Sep 2 2012 15:37:04
Библиотека кодирования : libebml v1.2.3 + libmatroska v1.3.0
Attachment : Yes
Видео
Идентификатор : 1
Формат : AVC
Формат/Информация : Advanced Video Codec
Профиль формата : [email protected]
Параметр CABAC формата : Да
Параметр ReFrames формата : 9 кадров
Идентификатор кодека : V_MPEG4/ISO/AVC
Продолжительность : 1 ч. 29 м.
Битрейт : 8000 Кбит/сек
Ширина : 1280 пикселей
Высота : 694 пикселя
Соотношение сторон : 1,85:1
Режим частоты кадров : Постоянный
Частота кадров : 23,976 кадра/сек
Цветовое пространство : YUV
Субдискретизация насыщенности : 4:2:0
Битовая глубина : 8 бит
Тип развёртки : Прогрессивная
Бит/(Пиксели*Кадры) : 0.376
Размер потока : 4,90 Гбайт (87%)
Заголовок : Молчаливое бегство / Silent Running (1972) BDRip 720p - KORSAR
Библиотека кодирования : x264 core 152 r2851kMod ba24899
Настройки программы : cabac=1 / ref=9 / deblock=1:-2:-2 / analyse=0x3:0x113 / me=umh / subme=11 / psy=1 / fade_compensate=0.00 / psy_rd=1.00:0.02 / mixed_ref=1 / me_range=48 / chroma_me=1 / trellis=2 / 8x8dct=1 / cqm=0 / deadzone=21,11 / fast_pskip=0 / chroma_qp_offset=-3 / threads=12 / lookahead_threads=3 / sliced_threads=0 / nr=0 / decimate=0 / interlaced=0 / bluray_compat=0 / constrained_intra=0 / bframes=14 / b_pyramid=2 / b_adapt=2 / b_bias=0 / direct=3 / weightb=1 / open_gop=0 / weightp=2 / keyint=240 / keyint_min=23 / scenecut=40 / intra_refresh=0 / rc_lookahead=60 / rc=2pass / mbtree=0 / bitrate=8000 / ratetol=1.0 / qcomp=0.64 / qpmin=0 / qpmax=39 / qpstep=4 / cplxblur=20.0 / qblur=0.5 / vbv_maxrate=50000 / vbv_bufsize=62500 / nal_hrd=none / filler=0 / ip_ratio=1.25 / pb_ratio=1.30 / aq=3:0.80
Язык : English
Default : Да
Forced : Нет
Основные цвета : BT.709
Характеристики трансфера : BT.709
Коэффициенты матрицы : BT.709
Аудио #1
Идентификатор : 2
Формат : AC-3
Формат/Информация : Audio Coding 3
Расширение режима : CM (complete main)
Параметр Endianness формата : Big
Идентификатор кодека : A_AC3
Продолжительность : 1 ч. 29 м.
Вид битрейта : Постоянный
Битрейт : 192 Кбит/сек
Каналы : 2 канала
Расположение каналов : Front: L R
Частота : 48,0 КГц
Битовая глубина : 16 бит
Метод сжатия : С потерями
Размер потока : 123 Мбайт (2%)
Заголовок : Дубляж
Язык : Russian
Default : Да
Forced : Нет
Аудио #2
Идентификатор : 3
Формат : AC-3
Формат/Информация : Audio Coding 3
Расширение режима : CM (complete main)
Параметр Endianness формата : Big
Идентификатор кодека : A_AC3
Продолжительность : 1 ч. 29 м.
Вид битрейта : Постоянный
Битрейт : 192 Кбит/сек
Каналы : 2 канала
Расположение каналов : Front: L R
Частота : 48,0 КГц
Битовая глубина : 16 бит
Метод сжатия : С потерями
Размер потока : 123 Мбайт (2%)
Заголовок : MVO
Язык : Russian
Default : Нет
Forced : Нет
Аудио #3
Идентификатор : 4
Формат : AC-3
Формат/Информация : Audio Coding 3
Расширение режима : CM (complete main)
Параметр Endianness формата : Big
Идентификатор кодека : A_AC3
Продолжительность : 1 ч. 29 м.
Вид битрейта : Постоянный
Битрейт : 192 Кбит/сек
Каналы : 2 канала
Расположение каналов : Front: L R
Частота : 48,0 КГц
Битовая глубина : 16 бит
Метод сжатия : С потерями
Размер потока : 123 Мбайт (2%)
Заголовок : DVO ( Sci-Fi )
Язык : Russian
Default : Нет
Forced : Нет
Аудио #4
Идентификатор : 5
Формат : AC-3
Формат/Информация : Audio Coding 3
Расширение режима : CM (complete main)
Параметр Endianness формата : Big
Идентификатор кодека : A_AC3
Продолжительность : 1 ч. 29 м.
Вид битрейта : Постоянный
Битрейт : 192 Кбит/сек
Каналы : 2 канала
Расположение каналов : Front: L R
Частота : 48,0 КГц
Битовая глубина : 16 бит
Метод сжатия : С потерями
Размер потока : 123 Мбайт (2%)
Заголовок : AVO ( Дольский )
Язык : Russian
Default : Нет
Forced : Нет
Аудио #5
Идентификатор : 6
Формат : AC-3
Формат/Информация : Audio Coding 3
Расширение режима : CM (complete main)
Параметр Endianness формата : Big
Идентификатор кодека : A_AC3
Продолжительность : 1 ч. 29 м.
Вид битрейта : Постоянный
Битрейт : 192 Кбит/сек
Каналы : 2 канала
Расположение каналов : Front: L R
Частота : 48,0 КГц
Битовая глубина : 16 бит
Метод сжатия : С потерями
Размер потока : 123 Мбайт (2%)
Язык : English
Default : Нет
Forced : Нет
Текст #1
Идентификатор : 7
Формат : UTF-8
Идентификатор кодека : S_TEXT/UTF8
Идентификатор кодека/Информация : UTF-8 Plain Text
Язык : Russian
Default : Нет
Forced : Нет
Текст #2
Идентификатор : 8
Формат : UTF-8
Идентификатор кодека : S_TEXT/UTF8
Идентификатор кодека/Информация : UTF-8 Plain Text
Язык : English
Default : Нет
Forced : Нет
Меню
00:00:00.000 : en:00:00:00.000
00:08:08.029 : en:00:08:08.029
00:12:48.434 : en:00:12:48.434
00:19:06.604 : en:00:19:06.604
00:29:57.921 : en:00:29:57.921
00:37:50.560 : en:00:37:50.560
00:43:16.594 : en:00:43:16.594
00:49:25.963 : en:00:49:25.963
00:53:28.497 : en:00:53:28.497
01:04:50.220 : en:01:04:50.220
01:09:42.553 : en:01:09:42.553
01:17:25.558 : en:01:17:25.558
01:22:11.802 : en:01:22:11.802
-

Скриншоты



If you like the topic, please click share to help develop our site.

To download the file disable ad blocking, and reload the page.

disable adblock How to disable ad blocking?

Download by magnet link 5.61 GB Download Torrent

Login using:

Similar topics

Креола / Kreola (1993) DVDRip | L1
 1.4 GB   0 | 1   09-Oct-16 20:33   59
Большая игра / Molly's Game (2017) BDRip 1080p от & | iTunes
 7.49 GB   19 | 0   05-Apr-18 22:30   17
Пансионат Борегар / Beauregard (2009) HDTV 1080 | P2
 9.04 GB   0 | 0   17-Jan-17 20:19   16
Призрак / Malombra (1984) DVDRip | A
 1.41 GB   6 | 0   17-Jan-17 20:50   16


   
Current time is: 20-Jun 18:07 :: All times are UTC + 3