Черные скалы
Roches Noires- Страна: Франция, Бельгия, Швейцария
Жанр: детектив, драма
Год выпуска: 2018
Продолжительность: 01:30:19Перевод: Субтитры (русский перевод ECLAIR)
Субтитры: русские, английские, французские, французские-телетекст, немецкие, нидерландские, румынские, испанские
Оригинальная аудиодорожка: французский
Режиссер: Лоран Дюссо / Laurent Dussaux
В ролях: Грегори Деранжер / Grégori Derangère (Simon Beauregard), Флор Бонавентура / Flore Bonaventura (Lisa Campion), Жером Анже / Jérôme Anger (Fabio Campion), Шарли Дюпон / Charlie Dupont (Antoine Gaube), Кароль Ришер / Carole Richert (Capucine Darcourt), Николя Грандом / Nicolas Grandhomme (Etienne Delaroche), Паскаль Ваннсон / Pascal Vannson (Marco), Джонатан Жене / Jonathan Genet (Martin)
Описание: Во время утренней пробежки по заснеженному лесу Лиза Кампион, дочь отставного офицера полиции Фабио Кампиона, обнаружила замерзший труп Жюльена, ребенка, который пропал 20 лет назад. Тогда 8-летний мальчик подсел в попутку, водитель которой впоследствии был обвинен в его убийстве, но так и не признал свою вину, а тело мальчика тогда не было найдено. Лейтенант полиции Симон Борегар, брат обвиненного в этом преступлении, направлен в затерянную в горах деревушку для расследования...
Доп. информация: Hot Bird (13.0°E) TV5MONDE Europe DVB-S

Качество видео: DVB
Формат видео: MKV
Видео: MPEG Video 2, [email protected] (16:9), 25 fps, ~3042 kbps avg, 0.293 bit/pixel
Аудио: MPEG Audio 2, 2 ch, 48 kHz, 192 kbps - французский
Формат субтитров: softsub (SRT)

Пример субтитров

100:00:09,906 --> 00:00:12,384Быстрей, Мартен!Еле идешь!
200:00:12,384 --> 00:00:18,634Мама будет ругаться,если я поздно приду.
300:00:21,864 --> 00:00:26,114Остановитесь,пожалуйста!
400:00:27,593 --> 00:00:31,188-Пойдем, он нас подвезет.-Мне нельзя.
500:00:31,188 --> 00:00:36,813-Бабушка запрещает.-А ты не говори!
600:00:40,149 --> 00:00:43,524Ну тогда до завтра.
700:01:01,345 --> 00:01:03,220Жюльен!
800:01:03,305 --> 00:01:07,034Жюльен, подожди!Ты санки забыл.
900:01:07,034 --> 00:01:08,909Жюльен!
1000:01:17,875 --> 00:01:20,50020 лет спустя
1100:01:29,064 --> 00:01:30,429Лиза!
1200:01:30,429 --> 00:01:32,554Эй, Лиза!
1300:01:33,952 --> 00:01:37,545-Что-то ты припозднилась.-Следишь за мной?
1400:01:37,545 --> 00:01:39,951Я с папой была.
1500:01:39,951 --> 00:01:42,785Мы редко видимся.
1600:01:42,785 --> 00:01:46,384-Приглашаю на ужин.-Хорошо.
1700:01:46,384 --> 00:01:49,388Раньше ты за мной бегала.
1800:01:49,388 --> 00:01:51,513Да.Но это было раньше, Антуан.
1900:01:51,513 --> 00:01:53,907Когда я мог ходить?
2000:01:53,907 --> 00:01:55,788Всего доброго.

MediaInfo

GeneralUnique ID                                : 206856689867602832721710584151875744290 (0x9B9F2639EB6F626640BAC46BFE377222)Complete name                            : [apreder]Roches_Noires(2018)DVB.mkvFormat                                   : MatroskaFormat version                           : Version 2File size                                : 2.08 GiBDuration                                 : 1 h 30 minOverall bit rate mode                    : VariableOverall bit rate                         : 3 300 kb/sMovie name                               : Roches NoiresReleased date                            : 2018-04-07Encoded date                             : UTC 2019-03-17 13:37:31Writing application                      : mkvmerge v32.0.0 ('Astral Progressions') 64-bitWriting library                          : libebml v1.3.7 + libmatroska v1.5.0Cover                                    : YesAttachments                              : cover.jpg / small_cover.jpgACTOR                                    : Gregori Derangere, Flore Bonaventura, Jerome AngerDIRECTOR                                 : Laurent DussauxGENRE                                    : Crime, Drama, MysteryIMDB                                     : tt8250728KEYWORDS                                 : ********.orgLAW_RATING                               : 16+
VideoID : 1Format : MPEG VideoFormat version : Version 2Format profile : [email protected] settings : CustomMatrix / BVOPFormat settings, BVOP : YesFormat settings, Matrix : CustomFormat settings, GOP : VariableFormat settings, picture structure : FrameCodec ID : V_MPEG2Codec ID/Info : MPEG 1 or 2 VideoDuration : 1 h 30 minBit rate mode : VariableBit rate : 3 042 kb/sMaximum bit rate : 15.0 Mb/sWidth : 720 pixelsHeight : 576 pixelsDisplay aspect ratio : 16:9Active Format Description : Letterbox 16:9 imageFrame rate mode : ConstantFrame rate : 25.000 FPSStandard : PALColor space : YUVChroma subsampling : 4:2:0Bit depth : 8 bitsScan type : InterlacedScan order : Top Field FirstCompression mode : LossyBits/(Pixel*Frame) : 0.293Stream size : 1.92 GiB (92%)Default : YesForced : No
AudioID : 2Format : MPEG AudioFormat version : Version 1Format profile : Layer 2Format settings : Joint stereo / Intensity Stereo + MS StereoCodec ID : A_MPEG/L2Codec ID/Hint : MP2Duration : 1 h 30 minBit rate mode : ConstantBit rate : 192 kb/sChannel(s) : 2 channelsSampling rate : 48.0 kHzCompression mode : LossyStream size : 124 MiB (6%)Language : FrenchDefault : YesForced : No
Text #1ID : 3Format : UTF-8Codec ID : S_TEXT/UTF8Codec ID/Info : UTF-8 Plain TextLanguage : RussianDefault : NoForced : No
Text #2ID : 4Format : UTF-8Codec ID : S_TEXT/UTF8Codec ID/Info : UTF-8 Plain TextLanguage : EnglishDefault : NoForced : No
Text #3ID : 5Format : UTF-8Codec ID : S_TEXT/UTF8Codec ID/Info : UTF-8 Plain TextLanguage : FrenchDefault : NoForced : No
Text #4ID : 6Format : UTF-8Codec ID : S_TEXT/UTF8Codec ID/Info : UTF-8 Plain TextTitle : TeletexteLanguage : FrenchDefault : NoForced : No
Text #5ID : 7Format : UTF-8Codec ID : S_TEXT/UTF8Codec ID/Info : UTF-8 Plain TextLanguage : GermanDefault : NoForced : No
Text #6ID : 8Format : UTF-8Codec ID : S_TEXT/UTF8Codec ID/Info : UTF-8 Plain TextLanguage : DutchDefault : NoForced : No
Text #7ID : 9Format : UTF-8Codec ID : S_TEXT/UTF8Codec ID/Info : UTF-8 Plain TextLanguage : romDefault : NoForced : No
Text #8ID : 10Format : UTF-8Codec ID : S_TEXT/UTF8Codec ID/Info : UTF-8 Plain TextLanguage : SpanishDefault : NoForced : No

Скриншот c названием фильма

Скриншоты


Резервные скриншоты


- [4'533]

If you like the topic, please click share to help develop our site.

To download the file disable ad blocking, and reload the page.

disable adblock How to disable ad blocking?

Download by magnet link 2.08 GB Download Torrent

Login using:

Similar topics



   
Current time is: 15-Jun 23:32 :: All times are UTC + 3