Крид 2 / Creed II
«The Legend Becomes Stronger»
6.813 / 10 7.30 / 10
- Год выпуска: 2018
Страна: США
Жанр: Драма, спорт
Продолжительность: 02:10:01
Перевод: Дублированный (Лицензия BD EUR)
Оригинальная аудиодорожка: Есть
Cубтитры: Русские форсированные, Русские, Английские
Режиссёр: Стивен Кейпл мл.
Сценарий: Сильвестр Сталлоне, Джуэл Тейлор, Чео Ходаки Кокер
Продюсер: Уильям Чартофф, Сильвестр Сталлоне, Чарльз Уинклер
Оператор: Крамер Моргенто
Композитор: Людвиг Йоранссон
Художник: Франко-Джакомо Карбоне, Ра Аранцио-Паррайн, Ilgi Candar
Монтаж: Дана И. Глауберман, Сара Хайдер, Пол Харб
В ролях: Майкл Б. Джордан, Сильвестр Сталлоне, Тесса Томпсон, Филисия Рашад, Дольф Лундгрен, Флориан Мунтяну, Расселл Хорнсби, Вуд Харрис, Майло Вентимилья, Робби Джонс
Бюджет: $50 000 000
Сборы в США: $115 710 858
Сборы в мире: + $97 900 000 = $213 610 858
Сборы в России: $1 971 560
Мировая премьера: 14 ноября 2018
Премьера (РФ): 10 января 2019, «Каро-Премьер»
Описание: Жизнь Адониса Крида превратилась в череду компромиссов. Пока он разрывается между долгом и тренировками к следующему большому бою, судьба готовит ему новую невыполнимую миссию. Будущий противник тесно связан с историей его семьи, что лишь повышает ставки перед предстоящим выходом на ринг. Рокки Бальбоа всегда будет на стороне Крида, и вместе они выйдут на битву с призраками их общего прошлого, выяснят, за что действительно стоит сражаться, и поймут, что нет ничего дороже семьи. Нужно вернуться к истокам, чтобы вспомнить, что именно сделало тебя чемпионом, и что, куда бы ты не бежал, от себя все равно не скрыться.-Качество исходника: Blu-Ray (BlueBird)
Качество: BDRip
Тип: HD (1080p)
Контейнер: M4V
Видео: H.264, 1920x800, 2.40:1, 8 000 Kbps, 23.976 (24000/1001) fps
Аудио 1: Русский/Дублированный (Лицензия BD EUR), AAC LC / 2.0 / 160 Kbps / 48.0 KHz
Аудио 2: Английский/Оригинальная дорожка , AAC LC / 2.0 / 160 Kbps / 48.0 KHz
Аудио 3: Русский/Дублированный (Лицензия BD EUR), AC-3 / 5.1 / 640 Kbps / 48.0 KHz
Аудио 4: Английский/Оригинальная дорожка , AC-3 / 5.1 / 640 Kbps / 48.0 KHz
Субтитры 1: Русские форсированные
Субтитры 2: Русские полные
Субтитры 3: Английские полные
-

iTunes Meta Tags

Sort Name: Creed II
XID: Apple:vendor_id:2018-1043955
contentID: 1440204355
Copyright: © 2018 Metro-Goldwyn-Mayer Pictures Inc. and Warner Bros. Entertainment Inc.
Screenwriters: Сильвестр Сталлоне, Джуэл Тейлор, Чео Ходаки Кокер
Producers: Уильям Чартофф, Сильвестр Сталлоне, Чарльз Уинклер
Director: Стивен Кейпл мл.
Cast: Майкл Б. Джордан, Сильвестр Сталлоне, Тесса Томпсон, Филисия Рашад, Дольф Лундгрен, Флориан Мунтяну, Расселл Хорнсби, Вуд Харрис, Майло Вентимилья, Робби Джонс
Studio: MGM
Rating Annotation: Rated PG-13 For sport action violence, language, and a scene of sensuality.
Rating: 4
Long Description: Жизнь Адониса Крида превратилась в череду компромиссов. Пока он разрывается между долгом и тренировками к следующему большому бою, судьба готовит ему новую невыполнимую миссию. Будущий противник тесно связан с историей его семьи, что лишь повышает ставки перед предстоящим выходом на ринг. Рокки Бальбоа всегда будет на стороне Крида, и вместе они выйдут на битву с призраками их общего прошлого, выяснят, за что действительно стоит сражаться, и поймут, что нет ничего дороже семьи. Нужно вернуться к истокам, чтобы вспомнить, что именно сделало тебя чемпионом, и что, куда бы ты не бежал, от себя все равно не скрыться.
Description: Жизнь Адониса Крида превратилась в череду компромиссов. Пока он разрывается между долгом и тренировками к следующему большому бою, судьба готовит ему новую невыполнимую миссию. Будущий противник тесно связан с историей его семьи, что лишь повышает ставки перед предстоящим выходом на ринг...
Release Date: 2018-11-14T08:00:00Z
Genre: Drama
Artist: Steven Caple Jr.
Name: Creed II

MediaInfo

General
Complete name                            : /Users/imac/HandBrake/Creed II (1080p HD).m4v
Format                                   : MPEG-4
Codec ID                                 : M4V  (M4V /M4A /mp42/isom)
File size                                : 8.72 GiB
Duration                                 : 2h 10mn
Overall bit rate mode                    : Variable
Overall bit rate                         : 9 600 Kbps
Movie name                               : Creed II
Performer                                : Steven Caple Jr.
Director                                 : Стивен Кейпл мл.
Actor                                    : Майкл Б. Джордан / Сильвестр Сталлоне / Тесса Томпсон / Филисия Рашад / Дольф Лундгрен / Флориан Мунтяну / Расселл Хорнсби / Вуд Харрис / Майло Вентимилья / Робби Джонс
Screenplay by                            : Сильвестр Сталлоне / Джуэл Тейлор / Чео Ходаки Кокер
Producer                                 : Уильям Чартофф / Сильвестр Сталлоне / Чарльз Уинклер
Production studio                        : MGM
Genre                                    : Drama
ContentType                              : Short Film
Description                              : Жизнь Адониса Крида превратилась в череду компромиссов. Пока он разрывается между долгом и тренировками к следующему большому бою, судьба готовит ему новую невыполнимую миссию. Будущий противник тесно связан с историей его семьи, что лишь повышает ставки перед предстоящим выходом на ринг...
Recorded date                            : UTC 2018-11-14 08:00:00
Encoded date                             : UTC 2019-03-17 12:25:49
Tagged date                              : UTC 2019-03-17 12:27:16
Copyright                                : © 2018 Metro-Goldwyn-Mayer Pictures Inc. and Warner Bros. Entertainment Inc.
Cover                                    : Yes
Rating                                   : None
Title/Sort                               : Creed II
LongDescription                          : Жизнь Адониса Крида превратилась в череду компромиссов. Пока он разрывается между долгом и тренировками к следующему большому бою, судьба готовит ему новую невыполнимую миссию. Будущий противник тесно связан с историей его семьи, что лишь повышает ставки перед предстоящим выходом на ринг. Рокки Бальбоа всегда будет на стороне Крида, и вместе они выйдут на битву с призраками их общего прошлого, выяснят, за что действительно стоит сражаться, и поймут, что нет ничего дороже семьи. Нужно вернуться к истокам, чтобы вспомнить, что именно сделало тебя чемпионом, и что, куда бы ты не бежал, от себя все равно не скрыться.
AppleStoreCatalogID                      : 1440204355
Vendor                                   : Apple:vendor_id:2018-1043955
ContentRating                            : mpaa|PG-13|300|Rated PG-13 For sport action violence, language, and a scene of sensuality.
Video #1
ID                                       : 1
Format                                   : AVC
Format/Info                              : Advanced Video Codec
Format profile                           : [email protected]
Format settings                          : CABAC / 4 Ref Frames
Format settings, CABAC                   : Yes
Format settings, ReFrames                : 4 frames
Codec ID                                 : avc1
Codec ID/Info                            : Advanced Video Coding
Duration                                 : 2h 10mn
Bit rate                                 : 8 000 Kbps
Width                                    : 1 920 pixels
Height                                   : 800 pixels
Display aspect ratio                     : 2.40:1
Frame rate mode                          : Variable
Frame rate                               : 23.976 (24000/1001) fps
Minimum frame rate                       : 23.974 fps
Maximum frame rate                       : 23.981 fps
Color space                              : YUV
Chroma subsampling                       : 4:2:0
Bit depth                                : 8 bits
Scan type                                : Progressive
Bits/(Pixel*Frame)                       : 0.217
Stream size                              : 7.26 GiB (83%)
Title                                    : Main Program
Writing library                          : x264 core 157 r2935 545de2f
Encoding settings                        : cabac=1 / ref=4 / deblock=1:-2:-2 / analyse=0x3:0x133 / me=umh / subme=10 / psy=1 / psy_rd=1.00:0.15 / mixed_ref=1 / me_range=32 / chroma_me=1 / trellis=2 / 8x8dct=1 / cqm=0 / deadzone=21,11 / fast_pskip=1 / chroma_qp_offset=-3 / threads=25 / lookahead_threads=6 / sliced_threads=0 / nr=0 / decimate=0 / interlaced=0 / bluray_compat=0 / constrained_intra=0 / bframes=16 / b_pyramid=2 / b_adapt=2 / b_bias=0 / direct=3 / weightb=1 / open_gop=0 / weightp=2 / keyint=240 / keyint_min=24 / scenecut=40 / intra_refresh=0 / rc_lookahead=40 / rc=2pass / mbtree=1 / bitrate=8000 / ratetol=1.0 / qcomp=0.70 / qpmin=0 / qpmax=69 / qpstep=4 / cplxblur=20.0 / qblur=0.5 / ip_ratio=1.40 / aq=1:1.00
Language                                 : English
Encoded date                             : UTC 2019-03-17 12:25:49
Tagged date                              : UTC 2019-03-17 12:26:14
Color range                              : Limited
Color primaries                          : BT.709
Transfer characteristics                 : BT.709
Matrix coefficients                      : BT.709
Menus                                    : 9,10
Codec configuration box                  : avcC
Video #2
ID                                       : 10
Format                                   : JPEG
Codec ID                                 : jpeg
Duration                                 : 2h 10mn
Bit rate mode                            : Variable
Bit rate                                 : 399 bps
Width                                    : 640 pixels
Height                                   : 266 pixels
Display aspect ratio                     : 2.40:1
Frame rate mode                          : Variable
Frame rate                               : 0.002 fps
Minimum frame rate                       : 0.001 fps
Maximum frame rate                       : 0.002 fps
Color space                              : YUV
Chroma subsampling                       : 4:2:0
Bit depth                                : 8 bits
Compression mode                         : Lossy
Bits/(Pixel*Frame)                       : 1.172
Stream size                              : 292 KiB (0%)
Title                                    : Chapter Images
Language                                 : English
Default                                  : No
Encoded date                             : UTC 2019-03-17 12:26:20
Tagged date                              : UTC 2019-03-17 12:26:20
Menu For                                 : 1
ColorSpace_ICC                           : RGB
Audio #1
ID                                       : 2
Format                                   : AAC LC
Format/Info                              : Advanced Audio Codec Low Complexity
Codec ID                                 : mp4a-40-2
Duration                                 : 2h 10mn
Source duration                          : 2h 10mn
Bit rate mode                            : Variable
Bit rate                                 : 156 Kbps
Maximum bit rate                         : 242 Kbps
Channel(s)                               : 2 channels
Channel layout                           : L R
Sampling rate                            : 48.0 KHz
Frame rate                               : 46.875 fps (1024 SPF)
Compression mode                         : Lossy
Stream size                              : 145 MiB (2%)
Source stream size                       : 145 MiB (2%)
Title                                    : Russian Stereo
Language                                 : Russian
Default                                  : Yes
Alternate group                          : 1
Encoded date                             : UTC 2019-03-17 12:25:49
Tagged date                              : UTC 2019-03-17 12:26:13
Menus                                    : 9
Audio #2
ID                                       : 3
Format                                   : AAC LC
Format/Info                              : Advanced Audio Codec Low Complexity
Codec ID                                 : mp4a-40-2
Duration                                 : 2h 10mn
Source duration                          : 2h 10mn
Bit rate mode                            : Variable
Bit rate                                 : 156 Kbps
Maximum bit rate                         : 248 Kbps
Channel(s)                               : 2 channels
Channel layout                           : L R
Sampling rate                            : 48.0 KHz
Frame rate                               : 46.875 fps (1024 SPF)
Compression mode                         : Lossy
Stream size                              : 145 MiB (2%)
Source stream size                       : 145 MiB (2%)
Title                                    : English Stereo
Language                                 : English
Default                                  : No
Alternate group                          : 1
Encoded date                             : UTC 2019-03-17 12:25:49
Tagged date                              : UTC 2019-03-17 12:26:13
Audio #3
ID                                       : 4
Format                                   : AC-3
Format/Info                              : Audio Coding 3
Commercial name                          : Dolby Digital
Codec ID                                 : ac-3
Duration                                 : 2h 10mn
Bit rate mode                            : Constant
Bit rate                                 : 640 Kbps
Channel(s)                               : 6 channels
Channel layout                           : L R C LFE Ls Rs
Sampling rate                            : 48.0 KHz
Frame rate                               : 31.250 fps (1536 SPF)
Bit depth                                : 16 bits
Compression mode                         : Lossy
Stream size                              : 595 MiB (7%)
Title                                    : Russian DD 5.1
Language                                 : Russian
Service kind                             : Complete Main
Default                                  : No
Alternate group                          : 1
Encoded date                             : UTC 2019-03-17 12:25:49
Tagged date                              : UTC 2019-03-17 12:26:02
Audio #4
ID                                       : 5
Format                                   : AC-3
Format/Info                              : Audio Coding 3
Commercial name                          : Dolby Digital
Codec ID                                 : ac-3
Duration                                 : 2h 10mn
Bit rate mode                            : Constant
Bit rate                                 : 640 Kbps
Channel(s)                               : 6 channels
Channel layout                           : L R C LFE Ls Rs
Sampling rate                            : 48.0 KHz
Frame rate                               : 31.250 fps (1536 SPF)
Bit depth                                : 16 bits
Compression mode                         : Lossy
Stream size                              : 595 MiB (7%)
Title                                    : English DD 5.1
Language                                 : English
Service kind                             : Complete Main
Default                                  : No
Alternate group                          : 1
Encoded date                             : UTC 2019-03-17 12:25:49
Tagged date                              : UTC 2019-03-17 12:26:02
Text #1
ID                                       : 6
Format                                   : Timed Text
Muxing mode                              : sbtl
Codec ID                                 : tx3g
Duration                                 : 1h 59mn
Bit rate mode                            : Variable
Bit rate                                 : 1 bps
Stream size                              : 712 Bytes (0%)
Title                                    : Russian forced
Language                                 : Russian
Default                                  : Yes
Forced                                   : No
Alternate group                          : 2
Encoded date                             : UTC 2019-03-17 12:25:49
Tagged date                              : UTC 2019-03-17 12:25:49
Text #2
ID                                       : 7
Format                                   : Timed Text
Muxing mode                              : sbtl
Codec ID                                 : tx3g
Duration                                 : 2h 9mn
Bit rate mode                            : Variable
Bit rate                                 : 68 bps
Stream size                              : 64.7 KiB (0%)
Title                                    : Russian full
Language                                 : Russian
Default                                  : No
Forced                                   : No
Alternate group                          : 2
Encoded date                             : UTC 2019-03-17 12:25:49
Tagged date                              : UTC 2019-03-17 12:25:49
Text #3
ID                                       : 8
Format                                   : Timed Text
Muxing mode                              : sbtl
Codec ID                                 : tx3g
Duration                                 : 2h 9mn
Bit rate mode                            : Variable
Bit rate                                 : 53 bps
Stream size                              : 50.0 KiB (0%)
Title                                    : English full
Language                                 : English
Default                                  : No
Forced                                   : No
Alternate group                          : 2
Encoded date                             : UTC 2019-03-17 12:25:49
Tagged date                              : UTC 2019-03-17 12:25:49
Menu #1
00:00:00.000                             : Capítulo 01
00:11:33.151                             : Capítulo 02
00:20:06.163                             : Capítulo 03
00:33:28.006                             : Capítulo 04
00:43:49.127                             : Capítulo 05
00:57:51.885                             : Capítulo 06
01:06:38.870                             : Capítulo 07
01:20:12.516                             : Capítulo 08
01:31:01.957                             : Capítulo 09
01:40:14.300                             : Capítulo 10
01:50:31.458                             : Capítulo 11
02:02:55.910                             : Capítulo 12
Menu #2
ID                                       : 9
Codec ID                                 : text
Duration                                 : 2h 10mn
Language                                 : English
Encoded date                             : UTC 2019-03-17 12:26:14
Tagged date                              : UTC 2019-03-17 12:26:14
Bit rate mode                            : CBR
Menu For                                 : 2,1
00:00:00.000                             : Capítulo 01
00:11:33.151                             : Capítulo 02
00:20:06.163                             : Capítulo 03
00:33:28.006                             : Capítulo 04
00:43:49.127                             : Capítulo 05
00:57:51.885                             : Capítulo 06
01:06:38.870                             : Capítulo 07
01:20:12.516                             : Capítulo 08
01:31:01.957                             : Capítulo 09
01:40:14.300                             : Capítulo 10
01:50:31.458                             : Capítulo 11
02:02:55.910                             : Capítulo 12

x264 лог

x264 [info]: frame I:1136  Avg QP:12.38  size:181724
x264 [info]: frame P:45419 Avg QP:15.75  size: 71654
x264 [info]: frame B:140469 Avg QP:15.88  size: 30880
x264 [info]: consecutive B-frames:  3.7%  4.2% 16.1% 11.0% 15.6% 40.8%  5.1%  0.5%  0.9%  0.7%  0.4%  0.1%  0.2%  0.2%  0.0%  0.0%  0.4%
x264 [info]: mb I  I16..4: 26.8% 53.4% 19.8%
x264 [info]: mb P  I16..4:  8.0% 23.8%  2.3%  P16..4: 31.9% 18.1%  8.8%  0.4%  0.2%    skip: 6.6%
x264 [info]: mb B  I16..4:  2.9%  3.1%  0.3%  B16..8: 35.1% 14.0%  3.2%  direct: 8.8%  skip:32.5%  L0:44.3% L1:40.9% BI:14.7%
x264 [info]: 8x8 transform intra:61.7% inter:42.0%
x264 [info]: direct mvs  spatial:99.1% temporal:0.9%
x264 [info]: coded y,uvDC,uvAC intra: 86.1% 85.0% 71.2% inter: 28.3% 28.1% 12.5%
x264 [info]: i16 v,h,dc,p: 16%  9% 42% 33%
x264 [info]: i8 v,h,dc,ddl,ddr,vr,hd,vl,hu: 11% 11% 22%  8%  9%  9% 10% 10% 11%
x264 [info]: i4 v,h,dc,ddl,ddr,vr,hd,vl,hu: 12% 10% 16%  9% 11% 11% 11%  9% 10%
x264 [info]: i8c dc,h,v,p: 53% 20% 16% 11%
x264 [info]: Weighted P-Frames: Y:1.7% UV:1.2%
x264 [info]: ref P L0: 55.2%  7.6% 25.8% 10.8%  0.5%  0.0%
x264 [info]: ref B L0: 82.1% 14.9%  3.0%
x264 [info]: ref B L1: 93.5%  6.5%
x264 [info]: kb/s:7998.12

Скриншоты

-

Релиз подготовлен для просмотра на Apple TV, iPad, iPhone, iPod Touch.
Для просмотра данного релиза на компьютере с ОС Windows рекомендуется использовать VLC media player

If you like the topic, please click share to help develop our site.

To download the file disable ad blocking, and reload the page.

disable adblock How to disable ad blocking?

Download by magnet link 8.72 GB Download Torrent

Login using:

Similar topics



   
Current time is: 20-Jun 19:04 :: All times are UTC + 3