Janet Seidel - The Way You Wear Your Hat
Жанр: Vocal Jazz
Носитель: CD
Страна-производитель диска (релиза): Австралия
Год издания: 1998
Издатель (лейбл): La Brava Music
Номер по каталогу: LB9801
Аудиокодек: FLAC (*.flac)
Тип рипа: tracks+.cue
Битрейт аудио: lossless
Продолжительность: 01:35:33
Источник: dalbot1980
Наличие сканов в содержимом раздачи: нет

CD1 - The Way You Wear Your Hat {49:55}

01. Lazy River (4:04)
02. Pick Yourself Up (3:00)
03. My One and Only Love (6:55)
04. Poor Butterfly (4:58)
05. Corcovado (Quiet Nights) (5:52)
06. My Foolish Heart (4:43)
07. Tenderly (3:38)
08. Manha de Carnival (6:02)
09. Someone to Watch over Me (5:23)
10. They Can't Take That Away from Me (5:20)

Лог создания рипа

Exact Audio Copy V1.3 from 2. September 2016
EAC extraction logfile from 20. July 2018, 13:21
Janet Seidel / The Way You Wear Your Hat
Used drive : BUFFALO Optical Drive Adapter: 1 ID: 0
Read mode : SecureUtilize accurate stream : YesDefeat audio cache : YesMake use of C2 pointers : No
Read offset correction : 103Overread into Lead-In and Lead-Out : NoFill up missing offset samples with silence : YesDelete leading and trailing silent blocks : NoNull samples used in CRC calculations : YesUsed interface : Native Win32 interface for Win NT & 2000Gap handling : Appended to previous track
Used output format : User Defined EncoderSelected bitrate : 1024 kBit/sQuality : HighAdd ID3 tag : NoCommand line compressor : C:\flac-1.3.2-win\flac-1.3.2-win\win64\flac.exeAdditional command line options : -8 -e -p -V -T "ARTIST=%artist%" -T "TITLE=%title%" -T "ALBUM=%albumtitle%" -T "DATE=%year%" -T "TRACKNUMBER=%tracknr%" -T "GENRE=%genre%" -T "PERFORMER=%albuminterpret%" -T "COMPOSER=%composer%" %haslyrics%--tag-from-file=LYRICS="%lyricsfile%"%haslyrics% -T "ALBUMARTIST=%albumartist%" -T "DISCNUMBER=%cdnumber%" -T "TOTALDISCS=%totalcds%" -T "TOTALTRACKS=%numtracks%" -T "COMMENT=%comment%" %source% -o %dest%
TOC of the extracted CD
Track | Start | Length | Start sector | End sector --------------------------------------------------------- 1 | 0:00.00 | 4:04.20 | 0 | 18319 2 | 4:04.20 | 2:59.72 | 18320 | 31816 3 | 7:04.17 | 6:55.03 | 31817 | 62944 4 | 13:59.20 | 4:57.67 | 62945 | 85286 5 | 18:57.12 | 5:51.45 | 85287 | 111656 6 | 24:48.57 | 4:43.20 | 111657 | 132901 7 | 29:32.02 | 3:38.18 | 132902 | 149269 8 | 33:10.20 | 6:01.60 | 149270 | 176404 9 | 39:12.05 | 5:22.67 | 176405 | 200621 10 | 44:34.72 | 5:20.10 | 200622 | 224631
Track 1
Filename C:\EAC Rips\Janet Seidel - The Way You Wear Your Hat (1998) [CD - FLAC] {La Brava Music - LB9801}\Disc 1\01 - Lazy River.wav
Pre-gap length 0:00:02.00
Peak level 96.2 % Extraction speed 2.6 X Track quality 100.0 % Test CRC 6983B47A Copy CRC 6983B47A Accurately ripped (confidence 2) [591D83F5] (AR v2) Copy OK
Track 2
Filename C:\EAC Rips\Janet Seidel - The Way You Wear Your Hat (1998) [CD - FLAC] {La Brava Music - LB9801}\Disc 1\02 - Pick Yourself Up.wav
Peak level 84.2 % Extraction speed 2.7 X Track quality 100.0 % Test CRC 226B4D13 Copy CRC 226B4D13 Accurately ripped (confidence 2) [AB606058] (AR v2) Copy OK
Track 3
Filename C:\EAC Rips\Janet Seidel - The Way You Wear Your Hat (1998) [CD - FLAC] {La Brava Music - LB9801}\Disc 1\03 - My One And Only Love.wav
Peak level 93.3 % Extraction speed 3.3 X Track quality 100.0 % Test CRC 11426A5C Copy CRC 11426A5C Accurately ripped (confidence 2) [2B7C4F8F] (AR v2) Copy OK
Track 4
Filename C:\EAC Rips\Janet Seidel - The Way You Wear Your Hat (1998) [CD - FLAC] {La Brava Music - LB9801}\Disc 1\04 - Poor Butterfly.wav
Peak level 95.5 % Extraction speed 3.6 X Track quality 100.0 % Test CRC 7A0F190C Copy CRC 7A0F190C Accurately ripped (confidence 2) [39B90170] (AR v2) Copy OK
Track 5
Filename C:\EAC Rips\Janet Seidel - The Way You Wear Your Hat (1998) [CD - FLAC] {La Brava Music - LB9801}\Disc 1\05 - Corcovado (Quiet Nights).wav
Peak level 95.4 % Extraction speed 3.2 X Track quality 99.9 % Test CRC FB3899B8 Copy CRC FB3899B8 Accurately ripped (confidence 2) [5E38FD1D] (AR v2) Copy OK
Track 6
Filename C:\EAC Rips\Janet Seidel - The Way You Wear Your Hat (1998) [CD - FLAC] {La Brava Music - LB9801}\Disc 1\06 - My Foolish Heart.wav
Peak level 93.2 % Extraction speed 4.1 X Track quality 100.0 % Test CRC D3E89C6F Copy CRC D3E89C6F Accurately ripped (confidence 2) [D3E0E0F2] (AR v2) Copy OK
Track 7
Filename C:\EAC Rips\Janet Seidel - The Way You Wear Your Hat (1998) [CD - FLAC] {La Brava Music - LB9801}\Disc 1\07 - Tenderly.wav
Peak level 98.3 % Extraction speed 4.1 X Track quality 100.0 % Test CRC 799BBB6C Copy CRC 799BBB6C Accurately ripped (confidence 2) [67F3A6C8] (AR v2) Copy OK
Track 8
Filename C:\EAC Rips\Janet Seidel - The Way You Wear Your Hat (1998) [CD - FLAC] {La Brava Music - LB9801}\Disc 1\08 - Manha De Carnival.wav
Peak level 100.0 % Extraction speed 4.6 X Track quality 100.0 % Test CRC DCBCFDCD Copy CRC DCBCFDCD Accurately ripped (confidence 2) [8BDF8E22] (AR v2) Copy OK
Track 9
Filename C:\EAC Rips\Janet Seidel - The Way You Wear Your Hat (1998) [CD - FLAC] {La Brava Music - LB9801}\Disc 1\09 - Someone To Watch Over Me.wav
Peak level 86.1 % Extraction speed 4.7 X Track quality 100.0 % Test CRC 4EF324DC Copy CRC 4EF324DC Accurately ripped (confidence 2) [E16AD169] (AR v2) Copy OK
Track 10
Filename C:\EAC Rips\Janet Seidel - The Way You Wear Your Hat (1998) [CD - FLAC] {La Brava Music - LB9801}\Disc 1\10 - They Can't Take That Away From Me.wav
Peak level 89.1 % Extraction speed 4.9 X Track quality 100.0 % Test CRC 690E3D5E Copy CRC 690E3D5E Accurately ripped (confidence 2) [0D4F486C] (AR v2) Copy OK
All tracks accurately ripped
No errors occurred
End of status report
---- CUETools DB Plugin V2.1.6
[CTDB TOCID: _EgrZ7a6_2W17LpRBRapwKcuD34-] foundSubmit result: _EgrZ7a6_2W17LpRBRapwKcuD34- has been confirmedTrack | CTDB Status 1 | (2/2) Accurately ripped 2 | (2/2) Accurately ripped 3 | (2/2) Accurately ripped 4 | (2/2) Accurately ripped 5 | (2/2) Accurately ripped 6 | (2/2) Accurately ripped 7 | (2/2) Accurately ripped 8 | (2/2) Accurately ripped 9 | (2/2) Accurately ripped 10 | (2/2) Accurately ripped
==== Log checksum 0EBD3C18F10B91225A1F4687186C7895B5E7046172153B71AB262A968C86754C ====

Содержание индексной карты (.CUE)

REM GENRE JazzREM DATE 1998REM DISCID 8E0BB30AREM COMMENT "ExactAudioCopy v1.3"PERFORMER "Janet Seidel"TITLE "The Way You Wear Your Hat"FILE "01 - Lazy River.wav" WAVE  TRACK 01 AUDIO    TITLE "Lazy River"    PERFORMER "Janet Seidel"    INDEX 01 00:00:00FILE "02 - Pick Yourself Up.wav" WAVE  TRACK 02 AUDIO    TITLE "Pick Yourself Up"    PERFORMER "Janet Seidel"    INDEX 01 00:00:00FILE "03 - My One and Only Love.wav" WAVE  TRACK 03 AUDIO    TITLE "My One and Only Love"    PERFORMER "Janet Seidel"    INDEX 01 00:00:00FILE "04 - Poor Butterfly.wav" WAVE  TRACK 04 AUDIO    TITLE "Poor Butterfly"    PERFORMER "Janet Seidel"    INDEX 01 00:00:00FILE "05 - Corcovado (Quiet Nights).wav" WAVE  TRACK 05 AUDIO    TITLE "Corcovado (Quiet Nights)"    PERFORMER "Janet Seidel"    INDEX 01 00:00:00FILE "06 - My Foolish Heart.wav" WAVE  TRACK 06 AUDIO    TITLE "My Foolish Heart"    PERFORMER "Janet Seidel"    INDEX 01 00:00:00FILE "07 - Tenderly.wav" WAVE  TRACK 07 AUDIO    TITLE "Tenderly"    PERFORMER "Janet Seidel"    INDEX 01 00:00:00FILE "08 - Manha de Carnival.wav" WAVE  TRACK 08 AUDIO    TITLE "Manha de Carnival"    PERFORMER "Janet Seidel"    INDEX 01 00:00:00FILE "09 - Someone to Watch over Me.wav" WAVE  TRACK 09 AUDIO    TITLE "Someone to Watch over Me"    PERFORMER "Janet Seidel"    INDEX 01 00:00:00FILE "10 - They Can't Take That Away from Me.wav" WAVE  TRACK 10 AUDIO    TITLE "They Can't Take That Away from Me"    PERFORMER "Janet Seidel"    INDEX 01 00:00:00

Отчет CUETools

[CUETools log; Date: 17.03.2019 15:01:15; Version: 2.1.6][CTDB TOCID: _EgrZ7a6_2W17LpRBRapwKcuD34-] found.Track | CTDB Status  1   | (5/5) Accurately ripped  2   | (5/5) Accurately ripped  3   | (5/5) Accurately ripped  4   | (5/5) Accurately ripped  5   | (5/5) Accurately ripped  6   | (5/5) Accurately ripped  7   | (5/5) Accurately ripped  8   | (5/5) Accurately ripped  9   | (5/5) Accurately ripped 10   | (5/5) Accurately ripped[AccurateRip ID: 00123781-00938ba4-8e0bb30a] found.Track   [  CRC   |   V2   ] Status 01     [ef88dc56|591d83f5] (0+2/2) Accurately ripped 02     [4bf88575|ab606058] (0+2/2) Accurately ripped 03     [54a96a59|2b7c4f8f] (0+2/2) Accurately ripped 04     [81d6e024|39b90170] (0+2/2) Accurately ripped 05     [40ecfbf8|5e38fd1d] (0+2/2) Accurately ripped 06     [fee9112e|d3e0e0f2] (0+2/2) Accurately ripped 07     [13fa8f6d|67f3a6c8] (0+2/2) Accurately ripped 08     [27c103b1|8bdf8e22] (0+2/2) Accurately ripped 09     [1ee6b1d2|e16ad169] (0+2/2) Accurately ripped 10     [c58afef1|0d4f486c] (0+2/2) Accurately ripped
Track Peak [ CRC32 ] [W/O NULL] [ LOG ] -- 99,9 [8D480D09] [345840CB] 01 96,2 [6983B47A] [4F5850AE] CRC32 02 84,2 [226B4D13] [2B8CCA8E] CRC32 03 93,3 [11426A5C] [52F84E17] CRC32 04 95,5 [7A0F190C] [57DCA1B2] CRC32 05 95,4 [FB3899B8] [D110BDA2] CRC32 06 93,2 [D3E89C6F] [1C999E25] CRC32 07 98,3 [799BBB6C] [1CF9D1CB] CRC32 08 99,9 [DCBCFDCD] [43C955C9] CRC32 09 86,1 [4EF324DC] [D3F26B3B] CRC32 10 89,1 [690E3D5E] [28BF5C1E] CRC32

CD2 - Live at The Art Gallery {45:38}

01. The Way You Look Tonight (5:17)
02. Hymne a L'Amour (5:38)
03. Le Chateau de ma mere (Instrumental) (4:00)
04. I Love Paris (5:53)
05. Secret Love (8:35)
06. Them There Eyes (6:06)
07. Comes Love (4:56)
08. I Love Being Here with You/Encore Excerpt Route 66 (5:13)

Лог создания рипа

Exact Audio Copy V1.3 from 2. September 2016
EAC extraction logfile from 20. July 2018, 13:55
Janet Seidel / Live At The Art Gallery
Used drive : BUFFALO Optical Drive Adapter: 1 ID: 0
Read mode : SecureUtilize accurate stream : YesDefeat audio cache : YesMake use of C2 pointers : No
Read offset correction : 103Overread into Lead-In and Lead-Out : NoFill up missing offset samples with silence : YesDelete leading and trailing silent blocks : NoNull samples used in CRC calculations : YesUsed interface : Native Win32 interface for Win NT & 2000Gap handling : Appended to previous track
Used output format : User Defined EncoderSelected bitrate : 1024 kBit/sQuality : HighAdd ID3 tag : NoCommand line compressor : C:\flac-1.3.2-win\flac-1.3.2-win\win64\flac.exeAdditional command line options : -8 -e -p -V -T "ARTIST=%artist%" -T "TITLE=%title%" -T "ALBUM=%albumtitle%" -T "DATE=%year%" -T "TRACKNUMBER=%tracknr%" -T "GENRE=%genre%" -T "PERFORMER=%albuminterpret%" -T "COMPOSER=%composer%" %haslyrics%--tag-from-file=LYRICS="%lyricsfile%"%haslyrics% -T "ALBUMARTIST=%albumartist%" -T "DISCNUMBER=%cdnumber%" -T "TOTALDISCS=%totalcds%" -T "TOTALTRACKS=%numtracks%" -T "COMMENT=%comment%" %source% -o %dest%
TOC of the extracted CD
Track | Start | Length | Start sector | End sector --------------------------------------------------------- 1 | 0:00.00 | 5:17.06 | 0 | 23780 2 | 5:17.06 | 5:38.10 | 23781 | 49140 3 | 10:55.16 | 4:00.20 | 49141 | 67160 4 | 14:55.36 | 5:52.43 | 67161 | 93603 5 | 20:48.04 | 8:35.08 | 93604 | 132236 6 | 29:23.12 | 6:06.31 | 132237 | 159717 7 | 35:29.43 | 4:55.50 | 159718 | 181892 8 | 40:25.18 | 5:13.14 | 181893 | 205381
Track 1
Filename C:\EAC Rips\Janet Seidel - The Way You Wear Your Hat (1998) [CD - FLAC] {La Brava Music - LB9801}\Disc 2 - Live At The Art Gallery\01 - The Way You Look Tonight.wav
Pre-gap length 0:00:02.00
Peak level 98.0 % Extraction speed 2.2 X Track quality 99.9 % Test CRC 7EE2486D Copy CRC 7EE2486D Accurately ripped (confidence 2) [2E86C2A6] (AR v2) Copy OK
Track 2
Filename C:\EAC Rips\Janet Seidel - The Way You Wear Your Hat (1998) [CD - FLAC] {La Brava Music - LB9801}\Disc 2 - Live At The Art Gallery\02 - Hymne a L'Amour.wav
Peak level 98.0 % Extraction speed 3.1 X Track quality 100.0 % Test CRC 7FE7BED2 Copy CRC 7FE7BED2 Accurately ripped (confidence 2) [59D21F2D] (AR v2) Copy OK
Track 3
Filename C:\EAC Rips\Janet Seidel - The Way You Wear Your Hat (1998) [CD - FLAC] {La Brava Music - LB9801}\Disc 2 - Live At The Art Gallery\03 - Le Chateau De Ma Mere (Instrumental).wav
Pre-gap length 0:00:00.01
Peak level 99.3 % Extraction speed 3.2 X Track quality 100.0 % Test CRC 7DB81BCB Copy CRC 7DB81BCB Accurately ripped (confidence 2) [AD9CDE70] (AR v2) Copy OK
Track 4
Filename C:\EAC Rips\Janet Seidel - The Way You Wear Your Hat (1998) [CD - FLAC] {La Brava Music - LB9801}\Disc 2 - Live At The Art Gallery\04 - I Love Paris.wav
Peak level 99.5 % Extraction speed 3.0 X Track quality 99.9 % Test CRC 883EE071 Copy CRC 883EE071 Accurately ripped (confidence 2) [D7251595] (AR v2) Copy OK
Track 5
Filename C:\EAC Rips\Janet Seidel - The Way You Wear Your Hat (1998) [CD - FLAC] {La Brava Music - LB9801}\Disc 2 - Live At The Art Gallery\05 - Secret Love.wav
Pre-gap length 0:00:00.01
Peak level 99.6 % Extraction speed 4.2 X Track quality 100.0 % Test CRC 48F733B7 Copy CRC 48F733B7 Accurately ripped (confidence 2) [DBEB42F9] (AR v2) Copy OK
Track 6
Filename C:\EAC Rips\Janet Seidel - The Way You Wear Your Hat (1998) [CD - FLAC] {La Brava Music - LB9801}\Disc 2 - Live At The Art Gallery\06 - Them There Eyes.wav
Peak level 99.7 % Extraction speed 4.4 X Track quality 100.0 % Test CRC E48E8BC0 Copy CRC E48E8BC0 Accurately ripped (confidence 2) [D1BACF05] (AR v2) Copy OK
Track 7
Filename C:\EAC Rips\Janet Seidel - The Way You Wear Your Hat (1998) [CD - FLAC] {La Brava Music - LB9801}\Disc 2 - Live At The Art Gallery\07 - Comes Love.wav
Pre-gap length 0:00:00.01
Peak level 98.0 % Extraction speed 4.5 X Track quality 100.0 % Test CRC 6593F827 Copy CRC 6593F827 Accurately ripped (confidence 2) [7C527A77] (AR v2) Copy OK
Track 8
Filename C:\EAC Rips\Janet Seidel - The Way You Wear Your Hat (1998) [CD - FLAC] {La Brava Music - LB9801}\Disc 2 - Live At The Art Gallery\08 - I Love Being Here With You - Encore Excerpt Route 66.wav
Pre-gap length 0:00:00.01
Peak level 99.7 % Extraction speed 4.8 X Track quality 100.0 % Test CRC C1B6835A Copy CRC C1B6835A Accurately ripped (confidence 2) [C66CC207] (AR v2) Copy OK
All tracks accurately ripped
No errors occurred
End of status report
---- CUETools DB Plugin V2.1.6
[CTDB TOCID: ruOaJDgnSRMk77wnobxauwAqcSA-] foundSubmit result: ruOaJDgnSRMk77wnobxauwAqcSA- has been confirmedTrack | CTDB Status 1 | (2/2) Accurately ripped 2 | (2/2) Accurately ripped 3 | (2/2) Accurately ripped 4 | (2/2) Accurately ripped 5 | (2/2) Accurately ripped 6 | (2/2) Accurately ripped 7 | (2/2) Accurately ripped 8 | (2/2) Accurately ripped
==== Log checksum FDC59C6A3B327FE51546F961C9EA24A89BF7FD3FF0E30812838BDF0728335692 ====

Содержание индексной карты (.CUE)

REM GENRE JazzREM DATE 1998REM DISCID 6A0AB208REM COMMENT "ExactAudioCopy v1.3"PERFORMER "Janet Seidel"TITLE "Live at The Art Gallery"FILE "01 - The Way You Look Tonight.wav" WAVE  TRACK 01 AUDIO    TITLE "The Way You Look Tonight"    PERFORMER "Janet Seidel"    INDEX 01 00:00:00FILE "02 - Hymne a L'Amour.wav" WAVE  TRACK 02 AUDIO    TITLE "Hymne a L'Amour"    PERFORMER "Janet Seidel"    INDEX 01 00:00:00  TRACK 03 AUDIO    TITLE "Le Chateau de ma mere (Instrumental)"    PERFORMER "Janet Seidel"    INDEX 00 05:38:09FILE "03 - Le Chateau de ma mere (Instrumental).wav" WAVE    INDEX 01 00:00:00FILE "04 - I Love Paris.wav" WAVE  TRACK 04 AUDIO    TITLE "I Love Paris"    PERFORMER "Janet Seidel"    INDEX 01 00:00:00  TRACK 05 AUDIO    TITLE "Secret Love"    PERFORMER "Janet Seidel"    INDEX 00 05:52:42FILE "05 - Secret Love.wav" WAVE    INDEX 01 00:00:00FILE "06 - Them There Eyes.wav" WAVE  TRACK 06 AUDIO    TITLE "Them There Eyes"    PERFORMER "Janet Seidel"    INDEX 01 00:00:00  TRACK 07 AUDIO    TITLE "Comes Love"    PERFORMER "Janet Seidel"    INDEX 00 06:06:30FILE "07 - Comes Love.wav" WAVE    INDEX 01 00:00:00  TRACK 08 AUDIO    TITLE "I Love Being Here with You/Encore Excerpt Route 66"    PERFORMER "Janet Seidel"    INDEX 00 04:55:49FILE "08 - I Love Being Here with You,Encore Excerpt Route 66.wav" WAVE    INDEX 01 00:00:00

Отчет CUETools

[CUETools log; Date: 17.03.2019 15:01:19; Version: 2.1.6][CTDB TOCID: ruOaJDgnSRMk77wnobxauwAqcSA-] found.Track | CTDB Status  1   | (4/4) Accurately ripped  2   | (4/4) Accurately ripped  3   | (4/4) Accurately ripped  4   | (4/4) Accurately ripped  5   | (4/4) Accurately ripped  6   | (4/4) Accurately ripped  7   | (4/4) Accurately ripped  8   | (4/4) Accurately ripped[AccurateRip ID: 000dee15-005dca78-6a0ab208] found.Track   [  CRC   |   V2   ] Status 01     [2709c9f2|2e86c2a6] (0+2/2) Accurately ripped 02     [93a34783|59d21f2d] (0+2/2) Accurately ripped 03     [6c1b1ec6|ad9cde70] (0+2/2) Accurately ripped 04     [f61f5eeb|d7251595] (0+2/2) Accurately ripped 05     [0e870743|dbeb42f9] (0+2/2) Accurately ripped 06     [9b001857|d1bacf05] (0+2/2) Accurately ripped 07     [cd952177|7c527a77] (0+2/2) Accurately ripped 08     [cf80ef01|c66cc207] (0+2/2) Accurately ripped
Track Peak [ CRC32 ] [W/O NULL] [ LOG ] -- 99,7 [D4FA480C] [D3C5F9E6] 01 98,0 [7EE2486D] [107DFF07] CRC32 02 98,0 [7FE7BED2] [53128A6B] CRC32 03 99,3 [7DB81BCB] [CB7924BC] CRC32 04 99,5 [883EE071] [678120CC] CRC32 05 99,6 [48F733B7] [0E67A78D] CRC32 06 99,7 [E48E8BC0] [F524B495] CRC32 07 98,0 [6593F827] [429CA485] CRC32 08 99,7 [C1B6835A] [77329191] CRC32

Состав

Janet Seidel - vocals, piano (CD2#3,6)
Kevin Hunt - piano, accordion (CD2#3)
Bob Jeffery - saxophones, flute
David Seidel - bass
Billy Ross - drums
CD1 recorded at Mixmasters Studios, Adelaide, South Australia on September 7, 1998.
CD2 recorded live at The Art Gallery of South Australia on September 6, 1998.

If you like the topic, please click share to help develop our site.

To download the file disable ad blocking, and reload the page.

disable adblock How to disable ad blocking?

Download by magnet link 562 MB Download Torrent

Login using:

Similar topics



   
Current time is: 20-Jun 19:06 :: All times are UTC + 3