Janet Seidel - The Art of Lounge 3
Жанр: Vocal Jazz
Носитель: CD
Страна-производитель диска (релиза): Сингапур
Год издания: 2005
Издатель (лейбл): Musictronic Lounge
Номер по каталогу: ML05/0015
Страна исполнителя (группы): Австралия
Аудиокодек: FLAC (*.flac)
Тип рипа: tracks+.cue
Битрейт аудио: lossless
Продолжительность: 00:57:46
Источник: LaserLight
Наличие сканов в содержимом раздачи: нет
Треклист:
01. Moonglow (DeLange-Hudson) - 3:40
02. If They Asked Me I Could Write a Book (Rodgers-Hart) - 2:16
03. Always (Berlin) - 4:01
04. Midnight Sun (Mercer-Burke-Hampton) - 4:14
05. Miami Beach Rhumba (Gamse-Comacho) - 3:32
06. Canadian Sunset (Heywood-Gimbel) - 4:30
07. Whatever Lola Wants (Adler-Ross) - 4:01
08. Lullaby of Birdland (Shearing-Levy) - 3:45
09. Cow Cow Boogie (Carter-Raye-DePaul) - 5:11
10. Trolley Song (Martin-Blain) - 3:32
11. Cry Me a River (Hamilton) - 4:28
12. The Breeze and I (Lecuona-Stillman) - 3:47
13. Somewhere over the Rainbow (Arlen-Harburg) - 5:43
14. Dream (Mercer) - 5:06

Лог создания рипа

Exact Audio Copy V1.3 from 2. September 2016
EAC extraction logfile from 4. January 2018, 22:59
Janet Seidel / The Art of Lounge - Volume III
Used drive : TSSTcorpCDDVDW TS-H653N Adapter: 1 ID: 1
Read mode : SecureUtilize accurate stream : YesDefeat audio cache : YesMake use of C2 pointers : No
Read offset correction : 6Overread into Lead-In and Lead-Out : NoFill up missing offset samples with silence : YesDelete leading and trailing silent blocks : NoNull samples used in CRC calculations : YesUsed interface : Native Win32 interface for Win NT & 2000Gap handling : Appended to previous track
Used output format : User Defined EncoderSelected bitrate : 1024 kBit/sQuality : HighAdd ID3 tag : NoCommand line compressor : C:\Program Files (x86)\Exact Audio Copy\Flac\flac.exeAdditional command line options : -8 -e -p -V -T "ARTIST=%artist%" -T "TITLE=%title%" -T "ALBUM=%albumtitle%" -T "DATE=%year%" -T "TRACKNUMBER=%tracknr%" -T "GENRE=%genre%" -T "PERFORMER=%albuminterpret%" -T "COMPOSER=%composer%" %haslyrics%--tag-from-file=LYRICS="%lyricsfile%"%haslyrics% -T "ALBUMARTIST=%albumartist%" -T "DISCNUMBER=%cdnumber%" -T "TOTALDISCS=%totalcds%" -T "TOTALTRACKS=%numtracks%" -T "COMMENT=%comment%" %source% -o %dest%
TOC of the extracted CD
Track | Start | Length | Start sector | End sector --------------------------------------------------------- 1 | 0:00.00 | 3:40.20 | 0 | 16519 2 | 3:40.20 | 2:16.30 | 16520 | 26749 3 | 5:56.50 | 4:01.21 | 26750 | 44845 4 | 9:57.71 | 4:13.62 | 44846 | 63882 5 | 14:11.58 | 3:31.73 | 63883 | 79780 6 | 17:43.56 | 4:30.04 | 79781 | 100034 7 | 22:13.60 | 4:00.68 | 100035 | 118102 8 | 26:14.53 | 3:45.33 | 118103 | 135010 9 | 30:00.11 | 5:11.22 | 135011 | 158357 10 | 35:11.33 | 3:32.20 | 158358 | 174277 11 | 38:43.53 | 4:28.25 | 174278 | 194402 12 | 43:12.03 | 3:46.62 | 194403 | 211414 13 | 46:58.65 | 5:43.14 | 211415 | 237153 14 | 52:42.04 | 5:06.36 | 237154 | 260139
Track 1
Filename G:\Audio\Drive3\01 - Moonglow.wav
Pre-gap length 0:00:02.00
Peak level 99.8 % Extraction speed 4.4 X Track quality 100.0 % Test CRC 0414284A Copy CRC 0414284A Accurately ripped (confidence 7) [07B9C25A] (AR v2) Copy OK
Track 2
Filename G:\Audio\Drive3\02 - If They Asked Me I Could Write A Book.wav
Pre-gap length 0:00:03.53
Peak level 99.8 % Extraction speed 4.3 X Track quality 100.0 % Test CRC 1A1C2DA1 Copy CRC 1A1C2DA1 Accurately ripped (confidence 7) [A12F0851] (AR v2) Copy OK
Track 3
Filename G:\Audio\Drive3\03 - Always.wav
Peak level 99.8 % Extraction speed 5.1 X Track quality 100.0 % Test CRC F9B288CF Copy CRC F9B288CF Accurately ripped (confidence 7) [96A14C01] (AR v2) Copy OK
Track 4
Filename G:\Audio\Drive3\04 - Midnight Sun.wav
Pre-gap length 0:00:01.57
Peak level 99.8 % Extraction speed 5.7 X Track quality 100.0 % Test CRC 8B5EE7DD Copy CRC 8B5EE7DD Accurately ripped (confidence 7) [904F6867] (AR v2) Copy OK
Track 5
Filename G:\Audio\Drive3\05 - Miami Beach Rhumba.wav
Pre-gap length 0:00:00.62
Peak level 99.8 % Extraction speed 5.9 X Track quality 100.0 % Test CRC 26BC1CDA Copy CRC 26BC1CDA Accurately ripped (confidence 7) [7508A136] (AR v2) Copy OK
Track 6
Filename G:\Audio\Drive3\06 - Canadian Sunset.wav
Pre-gap length 0:00:00.45
Peak level 99.8 % Extraction speed 6.4 X Track quality 100.0 % Test CRC D8B26814 Copy CRC D8B26814 Accurately ripped (confidence 7) [43B6C8F5] (AR v2) Copy OK
Track 7
Filename G:\Audio\Drive3\07 - Whatever Lola Wants.wav
Pre-gap length 0:00:01.81
Peak level 99.8 % Extraction speed 6.6 X Track quality 100.0 % Test CRC 5DDB9454 Copy CRC 5DDB9454 Accurately ripped (confidence 6) [0D8D79A5] (AR v2) Copy OK
Track 8
Filename G:\Audio\Drive3\08 - Lullaby of Birdland.wav
Pre-gap length 0:00:01.14
Peak level 99.8 % Extraction speed 5.5 X Track quality 99.9 % Test CRC 305B223E Copy CRC 305B223E Accurately ripped (confidence 7) [C5178E44] (AR v2) Copy OK
Track 9
Filename G:\Audio\Drive3\09 - Cow Cow Boogie.wav
Pre-gap length 0:00:00.84
Peak level 99.8 % Extraction speed 7.7 X Track quality 100.0 % Test CRC B87F4DBD Copy CRC B87F4DBD Accurately ripped (confidence 7) [71898B55] (AR v2) Copy OK
Track 10
Filename G:\Audio\Drive3\10 - Trolley Song.wav
Pre-gap length 0:00:02.16
Peak level 99.8 % Extraction speed 7.6 X Track quality 100.0 % Test CRC C8D63A13 Copy CRC C8D63A13 Accurately ripped (confidence 7) [9FFC24B3] (AR v2) Copy OK
Track 11
Filename G:\Audio\Drive3\11 - Cry Me A River.wav
Pre-gap length 0:00:03.52
Peak level 99.8 % Extraction speed 8.0 X Track quality 100.0 % Test CRC B7D4E74C Copy CRC B7D4E74C Accurately ripped (confidence 6) [E268011B] (AR v2) Copy OK
Track 12
Filename G:\Audio\Drive3\12 - The Breeze and I.wav
Pre-gap length 0:00:01.72
Peak level 99.8 % Extraction speed 8.1 X Track quality 100.0 % Test CRC 7CBA158E Copy CRC 7CBA158E Accurately ripped (confidence 7) [03FA4FAC] (AR v2) Copy OK
Track 13
Filename G:\Audio\Drive3\13 - Somewhere Over The Rainbow.wav
Pre-gap length 0:00:01.13
Peak level 99.8 % Extraction speed 8.7 X Track quality 100.0 % Test CRC 96C21AB7 Copy CRC 96C21AB7 Accurately ripped (confidence 7) [BDCD6F1A] (AR v2) Copy OK
Track 14
Filename G:\Audio\Drive3\14 - Dream.wav
Pre-gap length 0:00:00.65
Peak level 99.8 % Extraction speed 9.0 X Track quality 100.0 % Test CRC B9CAA98D Copy CRC B9CAA98D Accurately ripped (confidence 7) [B71301ED] (AR v2) Copy OK
All tracks accurately ripped
No errors occurred
End of status report
---- CUETools DB Plugin V2.1.6
[CTDB TOCID: rCj3Ups084EublLvVCnnpigCvsY-] foundSubmit result: rCj3Ups084EublLvVCnnpigCvsY- has been confirmedTrack | CTDB Status 1 | ( 4/18) Accurately ripped 2 | ( 4/18) Accurately ripped 3 | ( 4/18) Accurately ripped 4 | ( 4/18) Accurately ripped 5 | ( 4/18) Accurately ripped 6 | ( 4/18) Accurately ripped 7 | ( 4/18) Accurately ripped 8 | ( 4/18) Accurately ripped 9 | ( 4/18) Accurately ripped 10 | ( 4/18) Accurately ripped 11 | ( 4/18) Accurately ripped 12 | ( 4/18) Accurately ripped 13 | ( 4/18) Accurately ripped 14 | ( 4/18) Accurately ripped
==== Log checksum 81746454C2C7E879EDBD724B84521BE596E89BC54BB466926301D0BC7A96AF28 ====

Содержание индексной карты (.CUE)

REM GENRE JazzREM DATE 2005REM DISCID B60D8C0EREM COMMENT "ExactAudioCopy v1.3"PERFORMER "Janet Seidel"TITLE "The Art of Lounge 3"FILE "01 - Moonglow.wav" WAVE  TRACK 01 AUDIO    TITLE "Moonglow"    PERFORMER "Janet Seidel"    INDEX 01 00:00:00  TRACK 02 AUDIO    TITLE "If They Asked Me I Could Write a Book"    PERFORMER "Janet Seidel"    INDEX 00 03:36:55FILE "02 - If They Asked Me I Could Write a Book.wav" WAVE    INDEX 01 00:00:00FILE "03 - Always.wav" WAVE  TRACK 03 AUDIO    TITLE "Always"    PERFORMER "Janet Seidel"    INDEX 01 00:00:00  TRACK 04 AUDIO    TITLE "Midnight Sun"    PERFORMER "Janet Seidel"    INDEX 00 03:59:53FILE "04 - Midnight Sun.wav" WAVE    INDEX 01 00:00:00  TRACK 05 AUDIO    TITLE "Miami Beach Rhumba"    PERFORMER "Janet Seidel"    INDEX 00 04:13:15FILE "05 - Miami Beach Rhumba.wav" WAVE    INDEX 01 00:00:00  TRACK 06 AUDIO    TITLE "Canadian Sunset"    PERFORMER "Janet Seidel"    INDEX 00 03:31:39FILE "06 - Canadian Sunset.wav" WAVE    INDEX 01 00:00:00  TRACK 07 AUDIO    TITLE "Whatever Lola Wants"    PERFORMER "Janet Seidel"    INDEX 00 04:28:18FILE "07 - Whatever Lola Wants.wav" WAVE    INDEX 01 00:00:00  TRACK 08 AUDIO    TITLE "Lullaby of Birdland"    PERFORMER "Janet Seidel"    INDEX 00 03:59:57FILE "08 - Lullaby of Birdland.wav" WAVE    INDEX 01 00:00:00  TRACK 09 AUDIO    TITLE "Cow Cow Boogie"    PERFORMER "Janet Seidel"    INDEX 00 03:44:45FILE "09 - Cow Cow Boogie.wav" WAVE    INDEX 01 00:00:00  TRACK 10 AUDIO    TITLE "Trolley Song"    PERFORMER "Janet Seidel"    INDEX 00 05:09:10FILE "10 - Trolley Song.wav" WAVE    INDEX 01 00:00:00  TRACK 11 AUDIO    TITLE "Cry Me a River"    PERFORMER "Janet Seidel"    INDEX 00 03:28:56FILE "11 - Cry Me a River.wav" WAVE    INDEX 01 00:00:00  TRACK 12 AUDIO    TITLE "The Breeze and I"    PERFORMER "Janet Seidel"    INDEX 00 04:26:46FILE "12 - The Breeze and I.wav" WAVE    INDEX 01 00:00:00  TRACK 13 AUDIO    TITLE "Somewhere over the Rainbow"    PERFORMER "Janet Seidel"    INDEX 00 03:45:52FILE "13 - Somewhere over the Rainbow.wav" WAVE    INDEX 01 00:00:00  TRACK 14 AUDIO    TITLE "Dream"    PERFORMER "Janet Seidel"    INDEX 00 05:42:40FILE "14 - Dream.wav" WAVE    INDEX 01 00:00:00

Отчет CUETools

[CUETools log; Date: 17.03.2019 14:28:52; Version: 2.1.6]HDCD: peak extend: none, transient filter: none, gain: none[CTDB TOCID: rCj3Ups084EublLvVCnnpigCvsY-] found.Track | CTDB Status  1   | ( 8/26) Accurately ripped  2   | ( 8/26) Accurately ripped  3   | ( 8/26) Accurately ripped  4   | ( 8/26) Accurately ripped  5   | ( 8/26) Accurately ripped  6   | ( 8/26) Accurately ripped  7   | ( 7/26) Accurately ripped  8   | ( 7/26) Accurately ripped  9   | ( 7/26) Accurately ripped 10   | ( 8/26) Accurately ripped 11   | ( 8/26) Accurately ripped 12   | ( 8/26) Accurately ripped 13   | ( 8/26) Accurately ripped 14   | ( 8/26) Accurately ripped[AccurateRip ID: 001bc805-012d703d-b60d8c0e] found.Track   [  CRC   |   V2   ] Status 01     [c0d48f60|07b9c25a] (02+07/20) Accurately ripped 02     [2797bdea|a12f0851] (02+07/20) Accurately ripped 03     [e8e7ff32|96a14c01] (02+07/20) Accurately ripped 04     [90981bd4|904f6867] (00+07/18) Accurately ripped 05     [c7294c93|7508a136] (00+07/18) Accurately ripped 06     [981686bb|43b6c8f5] (00+07/18) Accurately ripped 07     [5f643085|0d8d79a5] (00+06/17) Accurately ripped 08     [2b6d49cb|c5178e44] (00+07/18) Accurately ripped 09     [3dc15b4b|71898b55] (00+07/18) Accurately ripped 10     [b143237d|9ffc24b3] (00+07/18) Accurately ripped 11     [c9bfa53b|e268011b] (00+06/17) Accurately ripped 12     [c7e2e5bb|03fa4fac] (00+07/18) Accurately ripped 13     [99e2091d|bdcd6f1a] (00+07/18) Accurately ripped 14     [8d440024|b71301ed] (00+07/18) Accurately rippedOffsetted by 605: 01     [b5f719ab] (02/20) Accurately ripped 02     [3bcf3f48] (02/20) Accurately ripped 03     [30bcc6b1] (02/20) Accurately ripped 04     [8e11b273] (02/18) Accurately ripped 05     [87d6bebc] (02/18) Accurately ripped 06     [fcd908e9] (02/18) Accurately ripped 07     [689c2307] (02/17) Accurately ripped 08     [94a53957] (02/18) Accurately ripped 09     [ce8f896c] (02/18) Accurately ripped 10     [d917778c] (02/18) Accurately ripped 11     [45d09b12] (02/17) Accurately ripped 12     [e3492cd9] (02/18) Accurately ripped 13     [c9ae675e] (02/18) Accurately ripped 14     [b4f300cd] (02/18) Accurately ripped
Track Peak [ CRC32 ] [W/O NULL] [ LOG ] -- 99,8 [6E4EC386] [8F670C20] 01 99,8 [0414284A] [53C5930F] CRC32 02 99,8 [1A1C2DA1] [B567A279] CRC32 03 99,8 [F9B288CF] [2FF0C1BB] CRC32 04 99,8 [8B5EE7DD] [414E05C3] CRC32 05 99,8 [26BC1CDA] [28E8945F] CRC32 06 99,8 [D8B26814] [D89F643D] CRC32 07 99,8 [5DDB9454] [8CD2D589] CRC32 08 99,8 [305B223E] [40AF3939] CRC32 09 99,8 [B87F4DBD] [5D8F73B5] CRC32 10 99,8 [C8D63A13] [6AAA1858] CRC32 11 99,8 [B7D4E74C] [A71C5878] CRC32 12 99,8 [7CBA158E] [89F479AF] CRC32 13 99,8 [96C21AB7] [89C9EC4D] CRC32 14 99,8 [B9CAA98D] [C6B713A4] CRC32

Об альбоме (сборнике)

I found this album completely by accident when I was looking up various renditions of Miami Beach Rhumba for a rehearsal. The track was actually on Youtube and piqued my interest enough to spring for the entire album. What a serendipity because I discovered what our friends Down Under already knew - Seidel is an amazing vocalist and pianist, and this album is a treasure trove of beautifully arranged music.
Note that all of the arrangements on this album feature strings backing an exceptional jazz ensemble. Seidel is on piano as well as vocals, but most of the tracks feature pianist Kevin Hunt, with Chuck Morgan on guitar, Ben Jones on saxophone, brother David Seidel on bass, Adam Pache on drums and Fabian Hevia on other percussion.
Seidel's voice resembles Doris Day to my ears. She is certainly not a Doris Day clone, but the similarities are there. For me that is part of this album's (and Seidel's) appeal because I have always contended that Day was an underrated vocalist. But comparisons aside, the music on this album is simply superb and if you drop the strings the arrangements are still excellent. Actually, I am on the fence about the stings. As a jazz musician I eschew them on principle, but have to admit that they add a certain lushness to this album and they do make it perfect for easy listening.
If you know who Seidel is then you probably know about this album since it was released in 2003. If, like me, you are just discovering her, this is an excellent collection of her work.
-- Mike Tarrani

Состав

Janet Seidel - vocals, piano
Kevin Hunt - piano
Ben Jones - saxophones
Adam Pache - drums
Chuck Morgan - guitar
David Seidel - bass
Fabian Hevia - percussion
Strings arranged by George Brodbeck, Maree Steinway, Andrew Robertson.

If you like the topic, please click share to help develop our site.

To download the file disable ad blocking, and reload the page.

disable adblock How to disable ad blocking?

Download by magnet link 376 MB Download Torrent

Login using:

Similar topics



   
Current time is: 20-Jun 18:06 :: All times are UTC + 3