Sarah Vaughan - The Magic of Sarah Vaughan
Жанр: Vocal Jazz
Носитель: CD
Страна-производитель диска (релиза): Великобритания
Год издания: 1998
Издатель (лейбл): Newsound 2000
Номер по каталогу: NST 118
Аудиокодек: FLAC (*.flac)
Тип рипа: tracks+.cue
Битрейт аудио: lossless
Продолжительность: 00:55:14
Источник: Ieknom
Наличие сканов в содержимом раздачи: нет
Треклист:
01. All Too Soon (2:55)
02. I'm Scared (2:36)
03. September Song (3:06)
04. You Go to My Head (3:04)
05. Time After Time (3:05)
06. It Might as Well Be Spring (3:02)
07. Don't Worry 'Bout Me (2:50)
08. We're Through (2:41)
09. Body and Soul (3:00)
10. A Hundred Years from Today (2:35)
11. I'm Through with You (2:45)
12. If You Could See Me Now (2:52)
13. You're Blase (3:01)
14. I Can Make You Love Me (3:04)
15. Careless (2:13)
16. Sweet Affection (2:11)
17. Mary Contrary (2:48)
18. What's So Bad About It (2:04)
19. Broken Hearted Melody (2:28)
20. That Old Black Magic (2:54)

Лог создания рипа

Exact Audio Copy V1.0 beta 3 from 29. August 2011
EAC extraction logfile from 11. January 2018, 22:55
Sarah Vaughan / The Magic Of Sarah Vaughan
Used drive : ATAPI iHAS124 F Adapter: 3 ID: 0
Read mode : SecureUtilize accurate stream : YesDefeat audio cache : YesMake use of C2 pointers : No
Read offset correction : 6Overread into Lead-In and Lead-Out : NoFill up missing offset samples with silence : YesDelete leading and trailing silent blocks : NoNull samples used in CRC calculations : YesUsed interface : Native Win32 interface for Win NT & 2000Gap handling : Appended to previous track
Used output format : User Defined EncoderSelected bitrate : 1024 kBit/sQuality : HighAdd ID3 tag : NoCommand line compressor : C:\Users\Owner\Music Rips from CD's\Exact Audio Copy\Flac\flac.exeAdditional command line options : -8 -e -p -V -T "ARTIST=%artist%" -T "TITLE=%title%" -T "ALBUM=%albumtitle%" -T "DATE=%year%" -T "TRACKNUMBER=%tracknr%" -T "GENRE=%genre%" -T "PERFORMER=%albuminterpret%" -T "COMPOSER=%composer%" %haslyrics%--tag-from-file=LYRICS="%lyricsfile%"%haslyrics% -T "ALBUMARTIST=%albumartist%" -T "DISCNUMBER=%cdnumber%" -T "TOTALDISCS=%totalcds%" -T "TOTALTRACKS=%numtracks%" -T "COMMENT=%comment%" %source% -o %dest%
TOC of the extracted CD
Track | Start | Length | Start sector | End sector --------------------------------------------------------- 1 | 0:00.32 | 2:55.05 | 32 | 13161 2 | 2:55.37 | 2:35.63 | 13162 | 24849 3 | 5:31.25 | 3:06.20 | 24850 | 38819 4 | 8:37.45 | 3:04.17 | 38820 | 52636 5 | 11:41.62 | 3:04.38 | 52637 | 66474 6 | 14:46.25 | 3:02.25 | 66475 | 80149 7 | 17:48.50 | 2:50.07 | 80150 | 92906 8 | 20:38.57 | 2:41.28 | 92907 | 105009 9 | 23:20.10 | 3:00.17 | 105010 | 118526 10 | 26:20.27 | 2:34.60 | 118527 | 130136 11 | 28:55.12 | 2:44.50 | 130137 | 142486 12 | 31:39.62 | 2:51.55 | 142487 | 155366 13 | 34:31.42 | 3:00.73 | 155367 | 168939 14 | 37:32.40 | 3:04.25 | 168940 | 182764 15 | 40:36.65 | 2:13.10 | 182765 | 192749 16 | 42:50.00 | 2:10.72 | 192750 | 202571 17 | 45:00.72 | 2:47.43 | 202572 | 215139 18 | 47:48.40 | 2:03.60 | 215140 | 224424 19 | 49:52.25 | 2:27.62 | 224425 | 235511 20 | 52:20.12 | 2:53.63 | 235512 | 248549
Track 1
Filename F:\EAC Rips\Sarah Vaughan - The Magic Of Sarah Vaughan (1998) [FLAC] {NST 118}\01 All Too Soon.wav
Pre-gap length 0:00:02.32
Peak level 84.8 % Extraction speed 4.7 X Track quality 100.0 % Test CRC C2A1EE91 Copy CRC C2A1EE91 Cannot be verified as accurate (confidence 2) [F95187AB], AccurateRip returned [38D59400] (AR v2) Copy OK
Track 2
Filename F:\EAC Rips\Sarah Vaughan - The Magic Of Sarah Vaughan (1998) [FLAC] {NST 118}\02 I'm Scared.wav
Pre-gap length 0:00:03.12
Peak level 74.6 % Extraction speed 4.8 X Track quality 100.0 % Test CRC 77EEE1A1 Copy CRC 77EEE1A1 Cannot be verified as accurate (confidence 2) [71AC2986], AccurateRip returned [7B8567DC] (AR v2) Copy OK
Track 3
Filename F:\EAC Rips\Sarah Vaughan - The Magic Of Sarah Vaughan (1998) [FLAC] {NST 118}\03 September Song.wav
Pre-gap length 0:00:03.18
Peak level 83.3 % Extraction speed 4.3 X Track quality 99.9 % Test CRC 2BBC6908 Copy CRC 2BBC6908 Cannot be verified as accurate (confidence 2) [D017155C], AccurateRip returned [C9C00020] (AR v2) Copy OK
Track 4
Filename F:\EAC Rips\Sarah Vaughan - The Magic Of Sarah Vaughan (1998) [FLAC] {NST 118}\04 You Go To My Head.wav
Pre-gap length 0:00:03.35
Peak level 83.6 % Extraction speed 2.1 X Track quality 99.7 % Test CRC 75A662E5 Copy CRC 75A662E5 Cannot be verified as accurate (confidence 2) [7899BD17], AccurateRip returned [BCE63145] (AR v2) Copy OK
Track 5
Filename F:\EAC Rips\Sarah Vaughan - The Magic Of Sarah Vaughan (1998) [FLAC] {NST 118}\05 Time After Time.wav
Pre-gap length 0:00:03.07
Peak level 83.6 % Extraction speed 1.4 X Track quality 99.5 % Test CRC F7D5CEB2 Copy CRC F7D5CEB2 Cannot be verified as accurate (confidence 2) [6A5D0CB5], AccurateRip returned [7B55ED70] (AR v2) Copy OK
Track 6
Filename F:\EAC Rips\Sarah Vaughan - The Magic Of Sarah Vaughan (1998) [FLAC] {NST 118}\06 It Might As Well Be Spring.wav
Pre-gap length 0:00:03.25
Peak level 74.4 % Extraction speed 1.9 X Track quality 99.6 % Test CRC 28BAE952 Copy CRC 28BAE952 Cannot be verified as accurate (confidence 2) [2FD8CF4A], AccurateRip returned [5546208A] (AR v2) Copy OK
Track 7
Filename F:\EAC Rips\Sarah Vaughan - The Magic Of Sarah Vaughan (1998) [FLAC] {NST 118}\07 Don't Worry 'Bout Me.wav
Pre-gap length 0:00:03.23
Peak level 98.8 % Extraction speed 2.7 X Track quality 99.8 % Test CRC 7B44BC9A Copy CRC 7B44BC9A Cannot be verified as accurate (confidence 2) [984FF012], AccurateRip returned [C088CF17] (AR v2) Copy OK
Track 8
Filename F:\EAC Rips\Sarah Vaughan - The Magic Of Sarah Vaughan (1998) [FLAC] {NST 118}\08 We're Through.wav
Pre-gap length 0:00:03.27
Peak level 98.8 % Extraction speed 1.0 X Track quality 99.3 % Test CRC 840E328B Copy CRC 840E328B Cannot be verified as accurate (confidence 2) [BE95FD8E], AccurateRip returned [071C29D4] (AR v2) Copy OK
Track 9
Filename F:\EAC Rips\Sarah Vaughan - The Magic Of Sarah Vaughan (1998) [FLAC] {NST 118}\09 Body and Soul.wav
Pre-gap length 0:00:03.25
Peak level 94.3 % Extraction speed 1.1 X Track quality 99.4 % Test CRC AF9B4B3F Copy CRC AF9B4B3F Cannot be verified as accurate (confidence 2) [BA350156], AccurateRip returned [66BA1623] (AR v2) Copy OK
Track 10
Filename F:\EAC Rips\Sarah Vaughan - The Magic Of Sarah Vaughan (1998) [FLAC] {NST 118}\10 A Hundred Years From Today.wav
Pre-gap length 0:00:04.12
Peak level 98.8 % Extraction speed 1.0 X Track quality 99.3 % Test CRC F7EE4920 Copy CRC F7EE4920 Cannot be verified as accurate (confidence 2) [029C932A], AccurateRip returned [4CBC66E9] (AR v2) Copy OK
Track 11
Filename F:\EAC Rips\Sarah Vaughan - The Magic Of Sarah Vaughan (1998) [FLAC] {NST 118}\11 I'm Through With You.wav
Pre-gap length 0:00:04.20
Peak level 98.8 % Extraction speed 1.6 X Track quality 99.6 % Test CRC 692F05C9 Copy CRC 692F05C9 Cannot be verified as accurate (confidence 2) [75EEB628], AccurateRip returned [A9F423E1] (AR v2) Copy OK
Track 12
Filename F:\EAC Rips\Sarah Vaughan - The Magic Of Sarah Vaughan (1998) [FLAC] {NST 118}\12 If You Could See Me Now.wav
Pre-gap length 0:00:03.30
Peak level 98.8 % Extraction speed 2.2 X Track quality 99.6 % Test CRC B9CB9981 Copy CRC B9CB9981 Cannot be verified as accurate (confidence 2) [E81CF393], AccurateRip returned [E75C242A] (AR v2) Copy OK
Track 13
Filename F:\EAC Rips\Sarah Vaughan - The Magic Of Sarah Vaughan (1998) [FLAC] {NST 118}\13 You're Blase.wav
Pre-gap length 0:00:03.30
Peak level 93.1 % Extraction speed 1.7 X Track quality 99.5 % Test CRC 86C1DDEC Copy CRC 86C1DDEC Cannot be verified as accurate (confidence 2) [0518BAFE], AccurateRip returned [784709E3] (AR v2) Copy OK
Track 14
Filename F:\EAC Rips\Sarah Vaughan - The Magic Of Sarah Vaughan (1998) [FLAC] {NST 118}\14 I Can Make You Love Me.wav
Pre-gap length 0:00:03.53
Peak level 98.8 % Extraction speed 1.3 X Track quality 99.4 % Test CRC 87FCD060 Copy CRC 87FCD060 Cannot be verified as accurate (confidence 2) [D24E3754], AccurateRip returned [C542378B] (AR v2) Copy OK
Track 15
Filename F:\EAC Rips\Sarah Vaughan - The Magic Of Sarah Vaughan (1998) [FLAC] {NST 118}\15 Careless.wav
Pre-gap length 0:00:03.15
Peak level 84.1 % Extraction speed 1.4 X Track quality 99.4 % Test CRC 3B06740F Copy CRC 3B06740F Cannot be verified as accurate (confidence 2) [AB67CFFE], AccurateRip returned [7723AC75] (AR v2) Copy OK
Track 16
Filename F:\EAC Rips\Sarah Vaughan - The Magic Of Sarah Vaughan (1998) [FLAC] {NST 118}\16 Sweet Affection.wav
Pre-gap length 0:00:03.25
Peak level 58.9 % Extraction speed 5.1 X Track quality 100.0 % Test CRC C88245FC Copy CRC C88245FC Cannot be verified as accurate (confidence 2) [81B36A96], AccurateRip returned [47BFCA49] (AR v2) Copy OK
Track 17
Filename F:\EAC Rips\Sarah Vaughan - The Magic Of Sarah Vaughan (1998) [FLAC] {NST 118}\17 Mary Contrary.wav
Pre-gap length 0:00:03.45
Peak level 66.8 % Extraction speed 2.2 X Track quality 99.7 % Test CRC 7B0D9BE7 Copy CRC 7B0D9BE7 Cannot be verified as accurate (confidence 2) [D556A2E7], AccurateRip returned [C81480D2] (AR v2) Copy OK
Track 18
Filename F:\EAC Rips\Sarah Vaughan - The Magic Of Sarah Vaughan (1998) [FLAC] {NST 118}\18 What's So Bad About It.wav
Pre-gap length 0:00:03.13
Peak level 59.1 % Extraction speed 1.4 X Track quality 99.5 % Test CRC 6D1C0875 Copy CRC 6D1C0875 Cannot be verified as accurate (confidence 2) [2D97AF42], AccurateRip returned [FEF2649D] (AR v2) Copy OK
Track 19
Filename F:\EAC Rips\Sarah Vaughan - The Magic Of Sarah Vaughan (1998) [FLAC] {NST 118}\19 Broken Hearted Melody.wav
Pre-gap length 0:00:03.40
Peak level 66.5 % Extraction speed 1.0 X Track quality 99.2 % Test CRC A0798EF1 Copy CRC A0798EF1 Cannot be verified as accurate (confidence 2) [EC32BE2F], AccurateRip returned [DE9ED35B] (AR v2) Copy OK
Track 20
Filename F:\EAC Rips\Sarah Vaughan - The Magic Of Sarah Vaughan (1998) [FLAC] {NST 118}\20 That Old Black Magic.wav
Pre-gap length 0:00:03.30
Peak level 98.8 % Extraction speed 1.6 X Track quality 99.6 % Test CRC D39F3E1C Copy CRC D39F3E1C Cannot be verified as accurate (confidence 2) [0365789F], AccurateRip returned [C710E818] (AR v2) Copy OK
No tracks could be verified as accurateYou may have a different pressing from the one(s) in the database
No errors occurred
End of status report
==== Log checksum 9663667850BC00D7E8672042E5FEABBDFCB79801466E1451AF0EE71D8954298C ====

Содержание индексной карты (.CUE)

REM GENRE JazzREM DATE 1998REM DISCID 070CF214REM COMMENT "ExactAudioCopy v1.0b3"PERFORMER "Sarah Vaughan"TITLE "The Magic of Sarah Vaughan"FILE "01 - All Too Soon.wav" WAVE  TRACK 01 AUDIO    TITLE "All Too Soon"    PERFORMER "Sarah Vaughan"    PREGAP 00:00:32    INDEX 01 00:00:00  TRACK 02 AUDIO    TITLE "I'm Scared"    PERFORMER "Sarah Vaughan"    INDEX 00 02:51:68FILE "02 - I'm Scared.wav" WAVE    INDEX 01 00:00:00  TRACK 03 AUDIO    TITLE "September Song"    PERFORMER "Sarah Vaughan"    INDEX 00 02:32:45FILE "03 - September Song.wav" WAVE    INDEX 01 00:00:00  TRACK 04 AUDIO    TITLE "You Go to My Head"    PERFORMER "Sarah Vaughan"    INDEX 00 03:02:60FILE "04 - You Go to My Head.wav" WAVE    INDEX 01 00:00:00  TRACK 05 AUDIO    TITLE "Time After Time"    PERFORMER "Sarah Vaughan"    INDEX 00 03:01:10FILE "05 - Time After Time.wav" WAVE    INDEX 01 00:00:00  TRACK 06 AUDIO    TITLE "It Might as Well Be Spring"    PERFORMER "Sarah Vaughan"    INDEX 00 03:01:13FILE "06 - It Might as Well Be Spring.wav" WAVE    INDEX 01 00:00:00  TRACK 07 AUDIO    TITLE "Don't Worry 'Bout Me"    PERFORMER "Sarah Vaughan"    INDEX 00 02:59:02FILE "07 - Don't Worry 'Bout Me.wav" WAVE    INDEX 01 00:00:00  TRACK 08 AUDIO    TITLE "We're Through"    PERFORMER "Sarah Vaughan"    INDEX 00 02:46:55FILE "08 - We're Through.wav" WAVE    INDEX 01 00:00:00  TRACK 09 AUDIO    TITLE "Body and Soul"    PERFORMER "Sarah Vaughan"    INDEX 00 02:38:03FILE "09 - Body and Soul.wav" WAVE    INDEX 01 00:00:00  TRACK 10 AUDIO    TITLE "A Hundred Years from Today"    PERFORMER "Sarah Vaughan"    INDEX 00 02:56:05FILE "10 - A Hundred Years from Today.wav" WAVE    INDEX 01 00:00:00  TRACK 11 AUDIO    TITLE "I'm Through with You"    PERFORMER "Sarah Vaughan"    INDEX 00 02:30:40FILE "11 - I'm Through with You.wav" WAVE    INDEX 01 00:00:00  TRACK 12 AUDIO    TITLE "If You Could See Me Now"    PERFORMER "Sarah Vaughan"    INDEX 00 02:41:20FILE "12 - If You Could See Me Now.wav" WAVE    INDEX 01 00:00:00  TRACK 13 AUDIO    TITLE "You're Blase"    PERFORMER "Sarah Vaughan"    INDEX 00 02:48:25FILE "13 - You're Blase.wav" WAVE    INDEX 01 00:00:00  TRACK 14 AUDIO    TITLE "I Can Make You Love Me"    PERFORMER "Sarah Vaughan"    INDEX 00 02:57:20FILE "14 - I Can Make You Love Me.wav" WAVE    INDEX 01 00:00:00  TRACK 15 AUDIO    TITLE "Careless"    PERFORMER "Sarah Vaughan"    INDEX 00 03:01:10FILE "15 - Careless.wav" WAVE    INDEX 01 00:00:00  TRACK 16 AUDIO    TITLE "Sweet Affection"    PERFORMER "Sarah Vaughan"    INDEX 00 02:09:60FILE "16 - Sweet Affection.wav" WAVE    INDEX 01 00:00:00  TRACK 17 AUDIO    TITLE "Mary Contrary"    PERFORMER "Sarah Vaughan"    INDEX 00 02:07:27FILE "17 - Mary Contrary.wav" WAVE    INDEX 01 00:00:00  TRACK 18 AUDIO    TITLE "What's So Bad About It"    PERFORMER "Sarah Vaughan"    INDEX 00 02:44:30FILE "18 - What's So Bad About It.wav" WAVE    INDEX 01 00:00:00  TRACK 19 AUDIO    TITLE "Broken Hearted Melody"    PERFORMER "Sarah Vaughan"    INDEX 00 02:00:20FILE "19 - Broken Hearted Melody.wav" WAVE    INDEX 01 00:00:00  TRACK 20 AUDIO    TITLE "That Old Black Magic"    PERFORMER "Sarah Vaughan"    INDEX 00 02:24:32FILE "20 - That Old Black Magic.wav" WAVE    INDEX 01 00:00:00

Отчет CUETools

[CUETools log; Date: 17.03.2019 13:17:16; Version: 2.1.6]Pregap length 00:00:32.[CTDB TOCID: uQJAdZwQG.pP3L2X_8GSWPRhp1s-] found.Track | CTDB Status  1   | (12/12) Accurately ripped  2   | (12/12) Accurately ripped  3   | (12/12) Accurately ripped  4   | (12/12) Accurately ripped  5   | (12/12) Accurately ripped  6   | (12/12) Accurately ripped  7   | (12/12) Accurately ripped  8   | (12/12) Accurately ripped  9   | (12/12) Accurately ripped 10   | (12/12) Accurately ripped 11   | (12/12) Accurately ripped 12   | (12/12) Accurately ripped 13   | (12/12) Accurately ripped 14   | (12/12) Accurately ripped 15   | (12/12) Accurately ripped 16   | (12/12) Accurately ripped 17   | (11/12) Accurately ripped 18   | (12/12) Accurately ripped 19   | (12/12) Accurately ripped 20   | (12/12) Accurately ripped[AccurateRip ID: 0029108f-02565ea1-070cf214] found.Track   [  CRC   |   V2   ] Status 01     [992b606c|f95187ab] (0+0/2) No match 02     [86176e43|71ac2986] (0+0/2) No match 03     [b39d9a17|d017155c] (0+0/2) No match 04     [18bb7d80|7899bd17] (0+0/2) No match 05     [a1995f8b|6a5d0cb5] (0+0/4) No match 06     [ec4715ae|2fd8cf4a] (0+0/4) No match 07     [d7e7d7e2|984ff012] (0+0/4) No match 08     [68acacae|be95fd8e] (0+0/4) No match 09     [c28ad31d|ba350156] (0+0/4) No match 10     [20f6d56d|029c932a] (0+0/4) No match 11     [fa79f40b|75eeb628] (0+0/4) No match 12     [22fd755d|e81cf393] (0+0/4) No match 13     [ee394743|0518bafe] (0+0/4) No match 14     [42a75c2b|d24e3754] (0+0/4) No match 15     [aa665801|ab67cffe] (0+0/4) No match 16     [edfbfae8|81b36a96] (0+0/4) No match 17     [9a7817ba|d556a2e7] (0+0/4) No match 18     [c4043468|2d97af42] (0+0/4) No match 19     [6eb8480f|ec32be2f] (0+0/4) No match 20     [833644dc|0365789f] (0+0/4) No match
Track Peak [ CRC32 ] [W/O NULL] [ LOG ] -- 98,8 [DF0456B7] [E17E62AE] 01 84,8 [C2A1EE91] [B9318E50] CRC32 02 74,6 [77EEE1A1] [805E12EE] CRC32 03 83,3 [2BBC6908] [A72932DF] CRC32 04 83,6 [75A662E5] [43A75113] CRC32 05 83,6 [F7D5CEB2] [D99A2C40] CRC32 06 74,4 [28BAE952] [BB9775CF] CRC32 07 98,8 [7B44BC9A] [A2F4E660] CRC32 08 98,8 [840E328B] [FC8076D9] CRC32 09 94,3 [AF9B4B3F] [763C0D30] CRC32 10 98,8 [F7EE4920] [29DBCD8E] CRC32 11 98,8 [692F05C9] [FDF5BDB0] CRC32 12 98,8 [B9CB9981] [AC3507F7] CRC32 13 93,1 [86C1DDEC] [D2BFD0F3] CRC32 14 98,8 [87FCD060] [43674B07] CRC32 15 84,1 [3B06740F] [946CF018] CRC32 16 58,9 [C88245FC] [5ABE54CF] CRC32 17 66,8 [7B0D9BE7] [430F76D7] CRC32 18 59,1 [6D1C0875] [C2B978CC] CRC32 19 66,5 [A0798EF1] [31FD6CB6] CRC32 20 98,8 [D39F3E1C] [D79353E8] CRC32

If you like the topic, please click share to help develop our site.

To download the file disable ad blocking, and reload the page.

disable adblock How to disable ad blocking?

Download by magnet link 195 MB Download Torrent

Login using:

Similar topics



   
Current time is: 20-Jun 19:13 :: All times are UTC + 3