Ninna Milner - Songs for Sentient Beings
Жанр: Vocal Jazz
Носитель: CD
Страна-производитель диска (релиза): Дания
Год издания: 2016
Издатель (лейбл): WiMi
Номер по каталогу: 21
Аудиокодек: FLAC (*.flac)
Тип рипа: tracks+.cue
Битрейт аудио: lossless
Продолжительность: 00:46:07
Источник: Kapla
Наличие сканов в содержимом раздачи: нет
Треклист:
01. Let Me Be Your Favorite Song (Milner-Traeden) - 3:44
02. Back to Wellington (Milner-Traeden) - 3:45
03. Wednesday in October (Milner-Traeden) - 4:34
04. Dear Humans (Milner-Traeden) - 6:06
05. Hoi An (Milner-Traeden) - 5:05
06. That's What He Said (Milner-Traeden) - 4:38
07. This Too Shall Pass (Milner-Traeden) - 6:09
08. When the Boat Comes In (Milner-Traeden) - 4:34
09. Such a Sunday (Milner-Traeden) - 4:24
10. Paris on My Tongue (Milner-Traeden) - 3:08

Лог создания рипа

Exact Audio Copy V1.1 from 23. June 2015
EAC extraction logfile from 24. August 2016, 19:47
Ninna Milner / Songs for sentient beings
Used drive : LITE-ON DVDRW LH-20A1S Adapter: 1 ID: 0
Read mode : SecureUtilize accurate stream : YesDefeat audio cache : YesMake use of C2 pointers : No
Read offset correction : 6Overread into Lead-In and Lead-Out : NoFill up missing offset samples with silence : YesDelete leading and trailing silent blocks : NoNull samples used in CRC calculations : YesUsed interface : Native Win32 interface for Win NT & 2000Gap handling : Appended to previous track
Used output format : User Defined EncoderSelected bitrate : 1024 kBit/sQuality : HighAdd ID3 tag : NoCommand line compressor : C:\Program Files (x86)\Exact Audio Copy\Flac\flac.exeAdditional command line options : -8 -e -V -T "ARTIST=%artist%" -T "TITLE=%title%" -T "ALBUM=%albumtitle%" -T "DATE=%year%" -T "TRACKNUMBER=%tracknr%" -T "GENRE=%genre%" -T "PERFORMER=%albuminterpret%" -T "COMPOSER=%composer%" %haslyrics%--tag-from-file=LYRICS="%lyricsfile%"%haslyrics% -T "ALBUMARTIST=%albumartist%" -T "DISCNUMBER=%cdnumber%" -T "TOTALDISCS=%totalcds%" -T "TOTALTRACKS=%numtracks%" -T "COMMENT=%comment%" %source% -o %dest%
TOC of the extracted CD
Track | Start | Length | Start sector | End sector --------------------------------------------------------- 1 | 0:00.00 | 3:43.51 | 0 | 16775 2 | 3:43.51 | 3:45.23 | 16776 | 33673 3 | 7:28.74 | 4:34.05 | 33674 | 54228 4 | 12:03.04 | 6:06.19 | 54229 | 81697 5 | 18:09.23 | 5:05.35 | 81698 | 104607 6 | 23:14.58 | 4:38.30 | 104608 | 125487 7 | 27:53.13 | 6:08.74 | 125488 | 153161 8 | 34:02.12 | 4:33.43 | 153162 | 173679 9 | 38:35.55 | 4:24.30 | 173680 | 193509 10 | 43:00.10 | 3:07.41 | 193510 | 207575
Track 1
Filename D:\EAC rips\Ninna Milner - Songs for sentient beings (2016) [FLAC]\01 - Let me be your favorite song.wav
Pre-gap length 0:00:02.00
Peak level 99.4 % Extraction speed 1.7 X Track quality 100.0 % Test CRC E7D8E062 Copy CRC E7D8E062 Track not present in AccurateRip database Copy OK
Track 2
Filename D:\EAC rips\Ninna Milner - Songs for sentient beings (2016) [FLAC]\02 - Back to Wellington.wav
Pre-gap length 0:00:02.00
Peak level 99.3 % Extraction speed 1.9 X Track quality 100.0 % Test CRC 6F1EC82F Copy CRC 6F1EC82F Track not present in AccurateRip database Copy OK
Track 3
Filename D:\EAC rips\Ninna Milner - Songs for sentient beings (2016) [FLAC]\03 - Wednesday in October.wav
Pre-gap length 0:00:02.00
Peak level 99.4 % Extraction speed 2.2 X Track quality 100.0 % Test CRC 895EA909 Copy CRC 895EA909 Track not present in AccurateRip database Copy OK
Track 4
Filename D:\EAC rips\Ninna Milner - Songs for sentient beings (2016) [FLAC]\04 - Dear humans.wav
Pre-gap length 0:00:02.00
Peak level 98.3 % Extraction speed 2.5 X Track quality 100.0 % Test CRC 87CE7BD9 Copy CRC 87CE7BD9 Track not present in AccurateRip database Copy OK
Track 5
Filename D:\EAC rips\Ninna Milner - Songs for sentient beings (2016) [FLAC]\05 - Hoi An.wav
Pre-gap length 0:00:02.00
Peak level 99.9 % Extraction speed 2.6 X Track quality 100.0 % Test CRC CA0167A7 Copy CRC CA0167A7 Track not present in AccurateRip database Copy OK
Track 6
Filename D:\EAC rips\Ninna Milner - Songs for sentient beings (2016) [FLAC]\06 - That's what he said.wav
Pre-gap length 0:00:02.00
Peak level 100.0 % Extraction speed 2.8 X Track quality 100.0 % Test CRC 9160DD36 Copy CRC 9160DD36 Track not present in AccurateRip database Copy OK
Track 7
Filename D:\EAC rips\Ninna Milner - Songs for sentient beings (2016) [FLAC]\07 - This too shall pass.wav
Pre-gap length 0:00:02.00
Peak level 100.0 % Extraction speed 3.1 X Track quality 100.0 % Test CRC 74EEFC7B Copy CRC 74EEFC7B Track not present in AccurateRip database Copy OK
Track 8
Filename D:\EAC rips\Ninna Milner - Songs for sentient beings (2016) [FLAC]\08 - When the boat comes in.wav
Pre-gap length 0:00:02.00
Peak level 99.7 % Extraction speed 2.5 X Track quality 99.9 % Test CRC F2A76A17 Copy CRC F2A76A17 Track not present in AccurateRip database Copy OK
Track 9
Filename D:\EAC rips\Ninna Milner - Songs for sentient beings (2016) [FLAC]\09 - Such a Sunday.wav
Pre-gap length 0:00:02.00
Peak level 99.3 % Extraction speed 3.2 X Track quality 100.0 % Test CRC 10755416 Copy CRC 10755416 Track not present in AccurateRip database Copy OK
Track 10
Filename D:\EAC rips\Ninna Milner - Songs for sentient beings (2016) [FLAC]\10 - Paris on my tongue.wav
Pre-gap length 0:00:02.00
Peak level 98.9 % Extraction speed 2.3 X Track quality 99.9 % Test CRC 8EAC1878 Copy CRC 8EAC1878 Track not present in AccurateRip database Copy OK
None of the tracks are present in the AccurateRip database
No errors occurred
End of status report
---- CUETools DB Plugin V2.1.6
[CTDB TOCID: w.o20v1uFZanc.iJh_3FQNoBtyE-] foundSubmit result: w.o20v1uFZanc.iJh_3FQNoBtyE- has been confirmedTrack | CTDB Status 1 | (1/1) Accurately ripped 2 | (1/1) Accurately ripped 3 | (1/1) Accurately ripped 4 | (1/1) Accurately ripped 5 | (1/1) Accurately ripped 6 | (1/1) Accurately ripped 7 | (1/1) Accurately ripped 8 | (1/1) Accurately ripped 9 | (1/1) Accurately ripped 10 | (1/1) Accurately ripped
==== Log checksum 973B87867B7BC5A6831F12470C80BD2379CF3B294164A1ABA107DA32C5CC43DF ====

Содержание индексной карты (.CUE)

REM GENRE JazzREM DATE 2016REM DISCID 7B0ACF0AREM COMMENT "ExactAudioCopy v1.1"PERFORMER "Ninna Milner"TITLE "Songs for Sentient Beings"FILE "01 - Let Me Be Your Favorite Song.wav" WAVE  TRACK 01 AUDIO    TITLE "Let Me Be Your Favorite Song"    PERFORMER "Ninna Milner"    INDEX 01 00:00:00  TRACK 02 AUDIO    TITLE "Back to Wellington"    PERFORMER "Ninna Milner"    INDEX 00 03:41:51FILE "02 - Back to Wellington.wav" WAVE    INDEX 01 00:00:00  TRACK 03 AUDIO    TITLE "Wednesday in October"    PERFORMER "Ninna Milner"    INDEX 00 03:43:23FILE "03 - Wednesday in October.wav" WAVE    INDEX 01 00:00:00  TRACK 04 AUDIO    TITLE "Dear Humans"    PERFORMER "Ninna Milner"    INDEX 00 04:32:05FILE "04 - Dear Humans.wav" WAVE    INDEX 01 00:00:00  TRACK 05 AUDIO    TITLE "Hoi An"    PERFORMER "Ninna Milner"    INDEX 00 06:04:19FILE "05 - Hoi An.wav" WAVE    INDEX 01 00:00:00  TRACK 06 AUDIO    TITLE "That's What He Said"    PERFORMER "Ninna Milner"    INDEX 00 05:03:35FILE "06 - That's What He Said.wav" WAVE    INDEX 01 00:00:00  TRACK 07 AUDIO    TITLE "This Too Shall Pass"    PERFORMER "Ninna Milner"    INDEX 00 04:36:30FILE "07 - This Too Shall Pass.wav" WAVE    INDEX 01 00:00:00  TRACK 08 AUDIO    TITLE "When the Boat Comes In"    PERFORMER "Ninna Milner"    INDEX 00 06:06:74FILE "08 - When the Boat Comes In.wav" WAVE    INDEX 01 00:00:00  TRACK 09 AUDIO    TITLE "Such a Sunday"    PERFORMER "Ninna Milner"    INDEX 00 04:31:43FILE "09 - Such a Sunday.wav" WAVE    INDEX 01 00:00:00  TRACK 10 AUDIO    TITLE "Paris on My Tongue"    PERFORMER "Ninna Milner"    INDEX 00 04:22:30FILE "10 - Paris on My Tongue.wav" WAVE    INDEX 01 00:00:00

Review by Ann Alex

I’m so pleased to be reviewing this CD on International Women’s Day, as it’s an excellent example of what women can achieve with music. I was concerned when I read on the publicity sheet that the album was ‘for and to the sentient beings of our planet’, which sounded a bit pompous to my ears, but there is nothing pompous at all about the CD, which gives us fine jazz-influenced music and lyrics with an original, quirky and sometimes moving twist. For example, there are 2 songs about contemporary concerns: Dear Humans deals with climate change and the earth is speaking to us: ‘I’m as old as the hills/ and forever your mother/but your way of living kills/You need me, sisters and brothers/It seems that you don’t bother."
When The Boat Comes In addresses the issue of the immigrants coming by sea, and compares boats entering safe tourist harbours such as Dublin with boats of immigrants coming to other parts of Europe. The rest of the songs deal with life and love in general, with titles such as Let Me Be Your Favourite Song; Back To Wellington; Wednesday In October; Hoi An; That’s What He Said; This Too Shall Pass; Such A Sunday; Paris On My Tongue and a booklet of lyrics is supplied. Ms Milner’s voice is gentle-toned and sweet, every word is clear, and the musicians supply effective solos and they know how to swing when appropriate. This Too Shall Pass gives us lovely riffs on the violin, and on the song about immigrants, the organ plays in gospel style. The accordion goes Latin on Such A Sunday.
There isn’t much information given about these two talented women, except to say that they met in that place of significance for women, a toilet queue!

Состав

Ninna Milner - vocals
Mads Sondergaard - grand piano, accordion
Tomas Raae - upright bass
Janus Templeton - drums, percussion
Regin Fuhlendorf - guitar, banjo
Dan Hemmer - organ, Moog
Annmare Soffi Petersen - violin
Birgitte Soojin, Bobo Moreno, Persille Ingerslev, Kira Martini, Esben Just, Sinne Eeg - background vocals (#4)

If you like the topic, please click share to help develop our site.

To download the file disable ad blocking, and reload the page.

disable adblock How to disable ad blocking?

Download by magnet link 265 MB Download Torrent

Login using:

Similar topics

(Vocal Jazz) [WEB] Woong San - I’m Alright - 2018, FLAC (tracks), lossless
 357 MB   0 | 0   14-Sep-18 20:15   28
(Vocal Jazz) [WEB] Sinne Eeg - Dreams - 2017, FLAC (tracks), lossless
 246 MB   0 | 0   16-Sep-18 18:35   21


   
Current time is: 15-Jun 23:40 :: All times are UTC + 3