Carl "Safe Sax" Ferris - Mouth Full of Sax
Жанр: Smooth Jazz
Носитель: CD
Страна-производитель диска (релиза): США
Год издания: 2002
Издатель (лейбл): Self-Released
Аудиокодек: FLAC (*.flac)
Тип рипа: tracks+.cue
Битрейт аудио: lossless
Продолжительность: 00:44:41
Источник: catfish27
Наличие сканов в содержимом раздачи: нет
Треклист:
01. You Drive Me Crazy (5:05)
02. Stay with Me (4:07)
03. A Woman's Love (4:20)
04. Feed the Chicken (4:50)
05. Southern Nights (You're in My Heart) (3:21)
06. You're the One I've Been Waiting For (3:37)
07. Angel Eyes (3:18)
08. He Won't Stop (3:26)
09. It's You (3:41)
10. Friday Night (4:46)
11. Down on Fremont Street (4:10)

Лог создания рипа

X Lossless Decoder version 20181019 (151.1)
XLD extraction logfile from 2019-03-15 12:00:25 -0700
Carl Ferris / Mouth Full of Sax
Used drive : PIONEER BD-RW BDR-XD05 (revision 3.10)Media type : Pressed CD
Ripper mode : XLD Secure RipperDisable audio cache : OK for the drive with a cache less than 1375KiBMake use of C2 pointers : NORead offset correction : 667Max retry count : 100Gap status : Analyzed, Appended (except HTOA)
TOC of the extracted CD Track | Start | Length | Start sector | End sector --------------------------------------------------------- 1 | 00:00:00 | 05:04:48 | 0 | 22847 2 | 05:04:48 | 04:06:56 | 22848 | 41353 3 | 09:11:29 | 04:20:21 | 41354 | 60874 4 | 13:31:50 | 04:49:68 | 60875 | 82617 5 | 18:21:43 | 03:20:61 | 82618 | 97678 6 | 21:42:29 | 03:37:07 | 97679 | 113960 7 | 25:19:36 | 03:17:63 | 113961 | 128798 8 | 28:37:24 | 03:25:68 | 128799 | 144241 9 | 32:03:17 | 03:41:25 | 144242 | 160841 10 | 35:44:42 | 04:45:46 | 160842 | 182262 11 | 40:30:13 | 04:10:14 | 182263 | 201026
AccurateRip Summary Disc not found in AccurateRip DB.
All Tracks Album gain : -3.39 dB Peak : 0.993713 Statistics Read error : 0 Jitter error (maybe fixed) : 0 Retry sector count : 0 Damaged sector count : 0
Track 01 Filename : /Volumes/Hollywood and Vine/Rips/Carl Ferris - Mouth Full of Sax (2002) [FLAC]/01 You Drive Me Crazy.flac Pre-gap length : 00:02:00
Track gain : -4.15 dB Peak : 0.993713 CRC32 hash (test run) : 62CC4FA2 CRC32 hash : 62CC4FA2 CRC32 hash (skip zero) : 69DDE57F AccurateRip v1 signature : 3DDADAD1 AccurateRip v2 signature : 05875383 ->Track not present in AccurateRip database. Statistics Read error : 0 Jitter error (maybe fixed) : 0 Retry sector count : 0 Damaged sector count : 0
Track 02 Filename : /Volumes/Hollywood and Vine/Rips/Carl Ferris - Mouth Full of Sax (2002) [FLAC]/02 Stay with Me.flac
Track gain : -2.66 dB Peak : 0.938477 CRC32 hash (test run) : 0FA53D90 CRC32 hash : 0FA53D90 CRC32 hash (skip zero) : 7AEE15A8 AccurateRip v1 signature : 0718D7C6 AccurateRip v2 signature : EE55660E ->Track not present in AccurateRip database. Statistics Read error : 0 Jitter error (maybe fixed) : 0 Retry sector count : 0 Damaged sector count : 0
Track 03 Filename : /Volumes/Hollywood and Vine/Rips/Carl Ferris - Mouth Full of Sax (2002) [FLAC]/03 A Woman's Love.flac
Track gain : -0.80 dB Peak : 0.983276 CRC32 hash (test run) : B742AF6A CRC32 hash : B742AF6A CRC32 hash (skip zero) : 51C3837B AccurateRip v1 signature : 6D2CD524 AccurateRip v2 signature : BDF78F68 ->Track not present in AccurateRip database. Statistics Read error : 0 Jitter error (maybe fixed) : 0 Retry sector count : 0 Damaged sector count : 0
Track 04 Filename : /Volumes/Hollywood and Vine/Rips/Carl Ferris - Mouth Full of Sax (2002) [FLAC]/04 Feed the Chicken.flac
Track gain : -2.12 dB Peak : 0.988251 CRC32 hash (test run) : 59A07818 CRC32 hash : 59A07818 CRC32 hash (skip zero) : 0BD2561F AccurateRip v1 signature : B74B0491 AccurateRip v2 signature : CD0E7DE8 ->Track not present in AccurateRip database. Statistics Read error : 0 Jitter error (maybe fixed) : 0 Retry sector count : 0 Damaged sector count : 0
Track 05 Filename : /Volumes/Hollywood and Vine/Rips/Carl Ferris - Mouth Full of Sax (2002) [FLAC]/05 Southern Nights (You're in My Heart).flac
Track gain : -3.50 dB Peak : 0.968536 CRC32 hash (test run) : 1C09820D CRC32 hash : 1C09820D CRC32 hash (skip zero) : 6537A12E AccurateRip v1 signature : 16CBAD47 AccurateRip v2 signature : 82CFDD95 ->Track not present in AccurateRip database. Statistics Read error : 0 Jitter error (maybe fixed) : 0 Retry sector count : 0 Damaged sector count : 0
Track 06 Filename : /Volumes/Hollywood and Vine/Rips/Carl Ferris - Mouth Full of Sax (2002) [FLAC]/06 You're the One I've Been Waiting For.flac
Track gain : -3.45 dB Peak : 0.984833 CRC32 hash (test run) : 1AD9CB27 CRC32 hash : 1AD9CB27 CRC32 hash (skip zero) : EDA9F1B4 AccurateRip v1 signature : FB46AACD AccurateRip v2 signature : A7C55E5F ->Track not present in AccurateRip database. Statistics Read error : 0 Jitter error (maybe fixed) : 0 Retry sector count : 0 Damaged sector count : 0
Track 07 Filename : /Volumes/Hollywood and Vine/Rips/Carl Ferris - Mouth Full of Sax (2002) [FLAC]/07 Angel Eyes.flac
Track gain : -4.42 dB Peak : 0.980927 CRC32 hash (test run) : 3F4E9D0A CRC32 hash : 3F4E9D0A CRC32 hash (skip zero) : 3D3F88D9 AccurateRip v1 signature : 5A95DE69 AccurateRip v2 signature : 75F09772 ->Track not present in AccurateRip database. Statistics Read error : 0 Jitter error (maybe fixed) : 0 Retry sector count : 0 Damaged sector count : 0
Track 08 Filename : /Volumes/Hollywood and Vine/Rips/Carl Ferris - Mouth Full of Sax (2002) [FLAC]/08 He Won't Stop.flac
Track gain : -3.67 dB Peak : 0.986267 CRC32 hash (test run) : EAD25E5C CRC32 hash : EAD25E5C CRC32 hash (skip zero) : D574D84B AccurateRip v1 signature : 58438498 AccurateRip v2 signature : BAAABC9F ->Track not present in AccurateRip database. Statistics Read error : 0 Jitter error (maybe fixed) : 0 Retry sector count : 0 Damaged sector count : 0
Track 09 Filename : /Volumes/Hollywood and Vine/Rips/Carl Ferris - Mouth Full of Sax (2002) [FLAC]/09 It's You.flac
Track gain : -5.24 dB Peak : 0.983734 CRC32 hash (test run) : 883E0341 CRC32 hash : 883E0341 CRC32 hash (skip zero) : 86892D0C AccurateRip v1 signature : 28E54D3F AccurateRip v2 signature : 38819012 ->Track not present in AccurateRip database. Statistics Read error : 0 Jitter error (maybe fixed) : 0 Retry sector count : 0 Damaged sector count : 0
Track 10 Filename : /Volumes/Hollywood and Vine/Rips/Carl Ferris - Mouth Full of Sax (2002) [FLAC]/10 Friday Night.flac
Track gain : -0.63 dB Peak : 0.973480 CRC32 hash (test run) : 30CD1239 CRC32 hash : 30CD1239 CRC32 hash (skip zero) : 8E52AD7C AccurateRip v1 signature : 4D9B2172 AccurateRip v2 signature : 0718A5E5 ->Track not present in AccurateRip database. Statistics Read error : 0 Jitter error (maybe fixed) : 0 Retry sector count : 0 Damaged sector count : 0
Track 11 Filename : /Volumes/Hollywood and Vine/Rips/Carl Ferris - Mouth Full of Sax (2002) [FLAC]/11 Down on Fremont Street.flac
Track gain : -4.32 dB Peak : 0.974243 CRC32 hash (test run) : 92663AF4 CRC32 hash : 92663AF4 CRC32 hash (skip zero) : 88AEE60B AccurateRip v1 signature : 1D699E34 AccurateRip v2 signature : 0821B49B ->Track not present in AccurateRip database. Statistics Read error : 0 Jitter error (maybe fixed) : 0 Retry sector count : 0 Damaged sector count : 0
No errors occurred
End of status report
-----BEGIN XLD SIGNATURE-----d5uRElVM9Qw52VGFwGfz3lyaOkdxZNyP1JQHZ5OdueYwdzgPpLzpJkFK.yJnGZaSPUVEARHqUqA_ugmfJWAPkQ28MvypomI3h_Vjg0e-----END XLD SIGNATURE-----

Содержание индексной карты (.CUE)

TITLE "Mouth Full of Sax"PERFORMER "Carl 'Safe Sax' Ferris"REM GENRE "Jazz"REM DATE "2002"REM DISCID 750A780BREM REPLAYGAIN_ALBUM_GAIN -3.39 dBREM REPLAYGAIN_ALBUM_PEAK 0.993713FILE "01 - You Drive Me Crazy.flac" WAVE  TRACK 01 AUDIO    TITLE "You Drive Me Crazy"    REM REPLAYGAIN_TRACK_GAIN -4.15 dB    REM REPLAYGAIN_TRACK_PEAK 0.993713    INDEX 01 00:00:00FILE "02 - Stay with Me.flac" WAVE  TRACK 02 AUDIO    TITLE "Stay with Me"    REM REPLAYGAIN_TRACK_GAIN -2.66 dB    REM REPLAYGAIN_TRACK_PEAK 0.938477    INDEX 01 00:00:00FILE "03 - A Woman's Love.flac" WAVE  TRACK 03 AUDIO    TITLE "A Woman's Love"    REM REPLAYGAIN_TRACK_GAIN -0.80 dB    REM REPLAYGAIN_TRACK_PEAK 0.983276    INDEX 01 00:00:00FILE "04 - Feed the Chicken.flac" WAVE  TRACK 04 AUDIO    TITLE "Feed the Chicken"    REM REPLAYGAIN_TRACK_GAIN -2.12 dB    REM REPLAYGAIN_TRACK_PEAK 0.988251    INDEX 01 00:00:00FILE "05 - Southern Nights (You're in My Heart).flac" WAVE  TRACK 05 AUDIO    TITLE "Southern Nights (You're in My Heart)"    REM REPLAYGAIN_TRACK_GAIN -3.50 dB    REM REPLAYGAIN_TRACK_PEAK 0.968536    INDEX 01 00:00:00FILE "06 - You're the One I've Been Waiting For.flac" WAVE  TRACK 06 AUDIO    TITLE "You're the One I've Been Waiting For"    REM REPLAYGAIN_TRACK_GAIN -3.45 dB    REM REPLAYGAIN_TRACK_PEAK 0.984833    INDEX 01 00:00:00FILE "07 - Angel Eyes.flac" WAVE  TRACK 07 AUDIO    TITLE "Angel Eyes"    REM REPLAYGAIN_TRACK_GAIN -4.42 dB    REM REPLAYGAIN_TRACK_PEAK 0.980927    INDEX 01 00:00:00FILE "08 - He Won't Stop.flac" WAVE  TRACK 08 AUDIO    TITLE "He Won't Stop"    REM REPLAYGAIN_TRACK_GAIN -3.67 dB    REM REPLAYGAIN_TRACK_PEAK 0.986267    INDEX 01 00:00:00FILE "09 - It's You.flac" WAVE  TRACK 09 AUDIO    TITLE "It's You"    REM REPLAYGAIN_TRACK_GAIN -5.24 dB    REM REPLAYGAIN_TRACK_PEAK 0.983734    INDEX 01 00:00:00FILE "10 - Friday Night.flac" WAVE  TRACK 10 AUDIO    TITLE "Friday Night"    REM REPLAYGAIN_TRACK_GAIN -0.63 dB    REM REPLAYGAIN_TRACK_PEAK 0.973480    INDEX 01 00:00:00FILE "11 - Down on Fremont Street.flac" WAVE  TRACK 11 AUDIO    TITLE "Down on Fremont Street"    REM REPLAYGAIN_TRACK_GAIN -4.32 dB    REM REPLAYGAIN_TRACK_PEAK 0.974243    INDEX 01 00:00:00

Об исполнителе (группе)

Carl "Safe Sax" Ferris has been performing original music as part of the Fremont Street Experience for over 12 years. Enjoy the saxsational sounds of Carl on your next Vegas vacation!
Born in Geneva, New York, Carl has been involved with music all of his life. He was recognized for his vocal abilities at an early age at the Eastman School of Music and later began playing the saxophone at the age of 10. Carl is self taught on the guitar, keyboards, flute, harmonica and has been writing and performing since his mid-teens.
After 18 years of performing with various bands and sharing the stage in South Florida with the likes of Jaco Pastorius, Dave Mason, ELO, Toto, Edgar Winter and the Marshall Tucker Band, Carl moved his unique talents to Las Vegas. As both a solo artist and with his band, Carl has appeared at well recognized Las Vegas locations including Caesars Palace, New York-New York Hotel & Casino, Aladdin Resort & Casino and many more; however his is best known for his nightly performances over the past twelve years at the Fremont Street Experience.
Carl's first self-released CD, OUT OF THIS WORLD (2000) was a blend of vocals, saxophone and flute instrumentals...all written and performed by Carl. His next three releases, MOUTH FULL OF SAX (2002), ALL BLOWN OUT (2005), PROMISES (2009) and his most recent release EVOLUTION (2010) are all original soprano, alto and tenor saxophone compositions in answer to his fans requests for more of his unique blend of jazz, soul, reggae and rock. CHRISTMAS (2011) is a mix of both original holiday songs and traditional favorites. Most of Carl's original songs include vocals to celebrate the season, with traditional songs showcasing some unique instrumental twists.
-- artistefinder.com

If you like the topic, please click share to help develop our site.

To download the file disable ad blocking, and reload the page.

disable adblock How to disable ad blocking?

Download by magnet link 246 MB Download Torrent

Login using:

Similar topics



   
Current time is: 20-Jun 18:41 :: All times are UTC + 3