Henry Threadgill - Double Up, Plays Double Up Plus- Жанр: Free Improvisation
Носитель: CD
Год издания: 2018
Издатель (лейбл): Pi Recordings
Номер по каталогу: PI75
Аудиокодек: FLAC (*.flac)
Тип рипа: tracks+.cue
Битрейт аудио: lossless
Продолжительность: 00:49:11
Источник: www
Наличие сканов в содержимом раздачи: да--Henry Threadgill - saxophone
Curtis Robert Macdonald – alto saxophone
Roman Filiu – alto saxophone, alto flute
Christopher Hoffman – cello
Jose Davila – tuba
David Bryant – piano
Luis Perdomo – piano
David Virelles – piano, harmonium
Craig Weinrib – drums, percussion
--01. Game Is Up (22:48)
02. Clear And Distinct From The Other A (09:55)
03. Clear And Distinct From The Other B (06:14)
04. Clear And Distinct (08:41)
05. Credits (01:30)--

Лог создания рипа

Exact Audio Copy V1.3 from 2. September 2016
EAC extraction logfile from 15. March 2019, 23:02
Henry Threadgill / Double Up, Plays Double Up Plus
Used drive : ATAPI iHBS112 2 Adapter: 1 ID: 1
Read mode : SecureUtilize accurate stream : YesDefeat audio cache : YesMake use of C2 pointers : No
Read offset correction : 6Overread into Lead-In and Lead-Out : NoFill up missing offset samples with silence : YesDelete leading and trailing silent blocks : NoNull samples used in CRC calculations : YesUsed interface : Native Win32 interface for Win NT & 2000Gap handling : Appended to previous track
Used output format : User Defined EncoderSelected bitrate : 768 kBit/sQuality : HighAdd ID3 tag : NoCommand line compressor : C:\Program Files (x86)\Exact Audio Copy\Flac\flac.exeAdditional command line options : -8 -V -T "ARTIST=%artist%" -T "TITLE=%title%" -T "ALBUM=%albumtitle%" -T "DATE=%year%" -T "TRACKNUMBER=%tracknr%" -T "GENRE=%genre%" -T "PERFORMER=%albuminterpret%" -T "COMPOSER=%composer%" -T "ALBUMARTIST=%albumartist%" -T "DISCNUMBER=%cdnumber%" -T "TOTALDISCS=%totalcds%" -T "TOTALTRACKS=%numtracks%" -T "COMMENT=EAC Secure Mode, Test & Copy, AccurateRip, FLAC -8" %source% -o %dest%
TOC of the extracted CD
Track | Start | Length | Start sector | End sector --------------------------------------------------------- 1 | 0:00.00 | 22:48.26 | 0 | 102625 2 | 22:48.26 | 9:55.57 | 102626 | 147307 3 | 32:44.08 | 6:14.72 | 147308 | 175429 4 | 38:59.05 | 8:41.50 | 175430 | 214554 5 | 47:40.55 | 1:30.41 | 214555 | 221345
Track 1
Filename G:\DL\Henry Threadgill - Double Up, Plays Double Up Plus (2018) [FLAC]\01 - Game Is Up.wav
Pre-gap length 0:00:02.00
Peak level 94.1 % Extraction speed 7.0 X Track quality 100.0 % Test CRC 1A24E31F Copy CRC 1A24E31F Track not present in AccurateRip database Copy OK
Track 2
Filename G:\DL\Henry Threadgill - Double Up, Plays Double Up Plus (2018) [FLAC]\02 - Clear And Distinct From The Other A.wav
Peak level 94.1 % Extraction speed 8.7 X Track quality 100.0 % Test CRC 5279E028 Copy CRC 5279E028 Track not present in AccurateRip database Copy OK
Track 3
Filename G:\DL\Henry Threadgill - Double Up, Plays Double Up Plus (2018) [FLAC]\03 - Clear And Distinct From The Other B.wav
Peak level 94.0 % Extraction speed 9.0 X Track quality 100.0 % Test CRC B6F1BEBE Copy CRC B6F1BEBE Track not present in AccurateRip database Copy OK
Track 4
Filename G:\DL\Henry Threadgill - Double Up, Plays Double Up Plus (2018) [FLAC]\04 - Clear And Distinct.wav
Peak level 94.0 % Extraction speed 10.0 X Track quality 100.0 % Test CRC 1C084FE8 Copy CRC 1C084FE8 Track not present in AccurateRip database Copy OK
Track 5
Filename G:\DL\Henry Threadgill - Double Up, Plays Double Up Plus (2018) [FLAC]\05 - Credits.wav
Peak level 51.4 % Extraction speed 7.7 X Track quality 100.0 % Test CRC C06F482B Copy CRC C06F482B Track not present in AccurateRip database Copy OK
None of the tracks are present in the AccurateRip database
No errors occurred
End of status report
---- CUETools DB Plugin V2.1.6
[CTDB TOCID: u2NFgwnHKVR5o9UlJYioCE5uwc8-] foundSubmit result: u2NFgwnHKVR5o9UlJYioCE5uwc8- has been confirmedTrack | CTDB Status 1 | (7/7) Accurately ripped 2 | (7/7) Accurately ripped 3 | (7/7) Accurately ripped 4 | (7/7) Accurately ripped 5 | (7/7) Accurately ripped
==== Log checksum AC0C73CC16BD27E826DA71463C0FD96CB109778F13F5DD4C1A7D0A072CC6FFFA ====

Содержание индексной карты (.CUE)

REM GENRE JazzREM DATE 2018REM DISCID 3F0B8705REM COMMENT "ExactAudioCopy v1.3"PERFORMER "Henry Threadgill"TITLE "Double Up, Plays Double Up Plus"REM COMPOSER ""FILE "01 - Game Is Up.wav" WAVE  TRACK 01 AUDIO    TITLE "Game Is Up"    PERFORMER "Henry Threadgill"    REM COMPOSER ""    INDEX 01 00:00:00FILE "02 - Clear And Distinct From The Other A.wav" WAVE  TRACK 02 AUDIO    TITLE "Clear And Distinct From The Other A"    PERFORMER "Henry Threadgill"    REM COMPOSER ""    INDEX 01 00:00:00FILE "03 - Clear And Distinct From The Other B.wav" WAVE  TRACK 03 AUDIO    TITLE "Clear And Distinct From The Other B"    PERFORMER "Henry Threadgill"    REM COMPOSER ""    INDEX 01 00:00:00FILE "04 - Clear And Distinct.wav" WAVE  TRACK 04 AUDIO    TITLE "Clear And Distinct "    PERFORMER "Henry Threadgill"    REM COMPOSER ""    INDEX 01 00:00:00FILE "05 - Credits.wav" WAVE  TRACK 05 AUDIO    TITLE "Credits"    PERFORMER "Henry Threadgill"    REM COMPOSER ""    INDEX 01 00:00:00

If you like the topic, please click share to help develop our site.

To download the file disable ad blocking, and reload the page.

disable adblock How to disable ad blocking?

Download by magnet link 266 MB Download Torrent

Login using:

Similar topics



   
Current time is: 20-Jun 18:00 :: All times are UTC + 3