Chet Baker - Italian Movies Composed by Piero Umiliani (Jazz on Film)
Жанр: Cool
Носитель: CD
Страна-производитель диска (релиза): Великобритания
Год издания: 2013
Издатель (лейбл): Moochin' About
Номер по каталогу: MOOCHIN03
Аудиокодек: FLAC (*.flac)
Тип рипа: tracks+.cue
Битрейт аудио: lossless
Продолжительность: 02:09:32
Источник: subix5
Наличие сканов в содержимом раздачи: нет

CD1 {40:12}

Audace Colpo dei Soliti Ignoti (Fiasco in Milan)
01. Sentirsi Soli (aka Alone in a Crowd) (4:53)
02. I Soliti Ignoti (aka Lyda/aka Movimenti con Swing) (4:16)
03. Tensione (3:33)
04. Relaxin' with Chet (5:31)
I Soliti Ignoti (Big Deal on Madonna St.)
05. Motorizzazione (2:35)
06. Gassman Blues (Parts 1 & 2) (5:33)
07. Tema d'Amore (aka Finale) (2:26)
Urlatorialla Sbarra
08. Improvvisando in Blues (3:14)
09. Furtivamente (3:47)
10. Arrivederci (4:24)

Лог создания рипа

Exact Audio Copy V1.3 from 2. September 2016
EAC extraction logfile from 16. March 2017, 9:29
Chet Baker / Jazz on Film: Italian Movies
Used drive : PLDS DVD+-RW DU-8A3S Adapter: 1 ID: 0
Read mode : SecureUtilize accurate stream : YesDefeat audio cache : YesMake use of C2 pointers : No
Read offset correction : 6Overread into Lead-In and Lead-Out : NoFill up missing offset samples with silence : YesDelete leading and trailing silent blocks : NoNull samples used in CRC calculations : YesUsed interface : Native Win32 interface for Win NT & 2000Gap handling : Appended to previous track
Used output format : User Defined EncoderSelected bitrate : 1024 kBit/sQuality : HighAdd ID3 tag : NoCommand line compressor : C:\users\Public\flac-1.3.2-win\win32\flac.exeAdditional command line options : -8 -V -T "ARTIST=%artist%" -T "TITLE=%title%" -T "ALBUM=%albumtitle%" -T "DATE=%year%" -T "TRACKNUMBER=%tracknr%" -T "GENRE=%genre%" -T "PERFORMER=%albuminterpret%" -T "COMPOSER=%composer%" %haslyrics%--tag-from-file=LYRICS="%lyricsfile%"%haslyrics% -T "ALBUMARTIST=%albumartist%" -T "DISCNUMBER=%cdnumber%" -T "TOTALDISCS=%totalcds%" -T "TOTALTRACKS=%numtracks%" -T "COMMENT=%comment%" %source% -o %dest%
TOC of the extracted CD
Track | Start | Length | Start sector | End sector --------------------------------------------------------- 1 | 0:00.00 | 4:53.37 | 0 | 22011 2 | 4:53.37 | 4:16.20 | 22012 | 41231 3 | 9:09.57 | 3:33.10 | 41232 | 57216 4 | 12:42.67 | 5:31.19 | 57217 | 82060 5 | 18:14.11 | 2:35.30 | 82061 | 93715 6 | 20:49.41 | 5:33.24 | 93716 | 118714 7 | 26:22.65 | 2:25.56 | 118715 | 129645 8 | 28:48.46 | 3:13.64 | 129646 | 144184 9 | 32:02.35 | 3:47.06 | 144185 | 161215 10 | 35:49.41 | 4:24.32 | 161216 | 181047
Track 1
Filename C:\Chet Baker, Piero Umiliani - Jazz on Film; Italian Movies (2013) {Moochin' About MOOCHIN03} [FLAC]\CD1\01 Sentirsi Soli.wav
Pre-gap length 0:00:02.00
Peak level 50.5 % Extraction speed 1.0 X Track quality 99.9 % Test CRC 6B6BD81E Copy CRC 6B6BD81E Accurately ripped (confidence 2) [4BD63F3F] (AR v2) Copy OK
Track 2
Filename C:\Chet Baker, Piero Umiliani - Jazz on Film; Italian Movies (2013) {Moochin' About MOOCHIN03} [FLAC]\CD1\02 I Soliti Ignoti (A.K.A Lyda , A.K.A Movimenti Con Swing).wav
Peak level 52.2 % Extraction speed 1.1 X Track quality 99.9 % Test CRC 4D5A16D2 Copy CRC 4D5A16D2 Accurately ripped (confidence 2) [F8FBA9A1] (AR v2) Copy OK
Track 3
Filename C:\Chet Baker, Piero Umiliani - Jazz on Film; Italian Movies (2013) {Moochin' About MOOCHIN03} [FLAC]\CD1\03 Tensione.wav
Peak level 58.4 % Extraction speed 1.1 X Track quality 99.9 % Test CRC 42F76F28 Copy CRC 42F76F28 Accurately ripped (confidence 2) [8C360BBE] (AR v2) Copy OK
Track 4
Filename C:\Chet Baker, Piero Umiliani - Jazz on Film; Italian Movies (2013) {Moochin' About MOOCHIN03} [FLAC]\CD1\04 Relaxin' With Chet.wav
Peak level 48.9 % Extraction speed 1.5 X Track quality 100.0 % Test CRC A9145EE9 Copy CRC A9145EE9 Accurately ripped (confidence 2) [CBA1E762] (AR v2) Copy OK
Track 5
Filename C:\Chet Baker, Piero Umiliani - Jazz on Film; Italian Movies (2013) {Moochin' About MOOCHIN03} [FLAC]\CD1\05 Motorizzazione.wav
Peak level 50.1 % Extraction speed 1.4 X Track quality 100.0 % Test CRC 82902DD7 Copy CRC 82902DD7 Accurately ripped (confidence 2) [C1E0CC93] (AR v2) Copy OK
Track 6
Filename C:\Chet Baker, Piero Umiliani - Jazz on Film; Italian Movies (2013) {Moochin' About MOOCHIN03} [FLAC]\CD1\06 Gassman Blues (Parts 1 & 2).wav
Peak level 89.1 % Extraction speed 1.5 X Track quality 99.9 % Test CRC 4FDF62B3 Copy CRC 4FDF62B3 Accurately ripped (confidence 2) [44C77BBF] (AR v2) Copy OK
Track 7
Filename C:\Chet Baker, Piero Umiliani - Jazz on Film; Italian Movies (2013) {Moochin' About MOOCHIN03} [FLAC]\CD1\07 Tema D'amore (A.K.A Finale).wav
Peak level 49.0 % Extraction speed 1.3 X Track quality 99.9 % Test CRC 69AA85BE Copy CRC 69AA85BE Accurately ripped (confidence 2) [8013A5AC] (AR v2) Copy OK
Track 8
Filename C:\Chet Baker, Piero Umiliani - Jazz on Film; Italian Movies (2013) {Moochin' About MOOCHIN03} [FLAC]\CD1\08 Improvvisando In Blues.wav
Peak level 78.9 % Extraction speed 1.4 X Track quality 99.9 % Test CRC 62217699 Copy CRC 62217699 Accurately ripped (confidence 2) [970F85CB] (AR v2) Copy OK
Track 9
Filename C:\Chet Baker, Piero Umiliani - Jazz on Film; Italian Movies (2013) {Moochin' About MOOCHIN03} [FLAC]\CD1\09 Furtivamente.wav
Peak level 61.0 % Extraction speed 1.5 X Track quality 99.9 % Test CRC FD382FE7 Copy CRC FD382FE7 Accurately ripped (confidence 2) [24FB1302] (AR v2) Copy OK
Track 10
Filename C:\Chet Baker, Piero Umiliani - Jazz on Film; Italian Movies (2013) {Moochin' About MOOCHIN03} [FLAC]\CD1\10 Arrivederci.wav
Peak level 44.0 % Extraction speed 1.9 X Track quality 100.0 % Test CRC C535227A Copy CRC C535227A Accurately ripped (confidence 2) [5EB4D7F9] (AR v2) Copy OK
All tracks accurately ripped
No errors occurred
End of status report
==== Log checksum C18093A2F731AF359882AE28091E822639AB62C513FD06E56FDB08DE309D7A12 ====

Содержание индексной карты (.CUE)

REM GENRE JazzREM DATE 2013REM DISCID 7D096D0AREM COMMENT "ExactAudioCopy v1.3"PERFORMER "Chet Baker"TITLE "Italian Movies CD1"FILE "01 - Sentirsi Soli (aka Alone in a Crowd).wav" WAVE  TRACK 01 AUDIO    TITLE "Sentirsi Soli (aka Alone in a Crowd)"    PERFORMER "Chet Baker"    INDEX 01 00:00:00FILE "02 - I Soliti Ignoti (aka Lyda,aka Movimenti con Swing).wav" WAVE  TRACK 02 AUDIO    TITLE "I Soliti Ignoti (aka Lyda/aka Movimenti con Swing)"    PERFORMER "Chet Baker"    INDEX 01 00:00:00FILE "03 - Tensione.wav" WAVE  TRACK 03 AUDIO    TITLE "Tensione"    PERFORMER "Chet Baker"    INDEX 01 00:00:00FILE "04 - Relaxin' with Chet.wav" WAVE  TRACK 04 AUDIO    TITLE "Relaxin' with Chet"    PERFORMER "Chet Baker"    INDEX 01 00:00:00FILE "05 - Motorizzazione.wav" WAVE  TRACK 05 AUDIO    TITLE "Motorizzazione"    PERFORMER "Chet Baker"    INDEX 01 00:00:00FILE "06 - Gassman Blues (Parts 1 & 2).wav" WAVE  TRACK 06 AUDIO    TITLE "Gassman Blues (Parts 1 & 2)"    PERFORMER "Chet Baker"    INDEX 01 00:00:00FILE "07 - Tema d'Amore (aka Finale).wav" WAVE  TRACK 07 AUDIO    TITLE "Tema d'Amore (aka Finale)"    PERFORMER "Chet Baker"    INDEX 01 00:00:00FILE "08 - Improvvisando in Blues.wav" WAVE  TRACK 08 AUDIO    TITLE "Improvvisando in Blues"    PERFORMER "Chet Baker"    INDEX 01 00:00:00FILE "09 - Furtivamente.wav" WAVE  TRACK 09 AUDIO    TITLE "Furtivamente"    PERFORMER "Chet Baker"    INDEX 01 00:00:00FILE "10 - Arrivederci.wav" WAVE  TRACK 10 AUDIO    TITLE "Arrivederci"    PERFORMER "Chet Baker"    INDEX 01 00:00:00

Отчет CUETools

[CUETools log; Date: 17.03.2019 12:56:08; Version: 2.1.6][CTDB TOCID: ZiQ1VeMxphhP_2XQ75xlD2_G7iI-] found.Track | CTDB Status  1   | (11/11) Accurately ripped  2   | (11/11) Accurately ripped  3   | (11/11) Accurately ripped  4   | (11/11) Accurately ripped  5   | (11/11) Accurately ripped  6   | (11/11) Accurately ripped  7   | (11/11) Accurately ripped  8   | (11/11) Accurately ripped  9   | (11/11) Accurately ripped 10   | (10/11) Accurately ripped[AccurateRip ID: 000fbb88-007c2fdc-7d096d0a] found.Track   [  CRC   |   V2   ] Status 01     [574b5d89|4bd63f3f] (0+5/5) Accurately ripped 02     [79b33921|f8fba9a1] (0+5/5) Accurately ripped 03     [6492a40e|8c360bbe] (0+5/5) Accurately ripped 04     [50045906|cba1e762] (0+5/5) Accurately ripped 05     [352250a5|c1e0cc93] (0+5/5) Accurately ripped 06     [f0f506cd|44c77bbf] (0+5/5) Accurately ripped 07     [cf39109b|8013a5ac] (0+5/5) Accurately ripped 08     [115dd1d1|970f85cb] (0+5/5) Accurately ripped 09     [acccde0d|24fb1302] (0+5/5) Accurately ripped 10     [ccf9d42c|5eb4d7f9] (0+5/5) Accurately ripped
Track Peak [ CRC32 ] [W/O NULL] [ LOG ] -- 89,1 [5964FD0C] [581B600B] 01 50,5 [6B6BD81E] [D7B71542] CRC32 02 52,2 [4D5A16D2] [5EC1730A] CRC32 03 58,4 [42F76F28] [051C0711] CRC32 04 48,9 [A9145EE9] [081D2BD5] CRC32 05 50,1 [82902DD7] [A81D4275] CRC32 06 89,1 [4FDF62B3] [FB37BDD3] CRC32 07 49,0 [69AA85BE] [8CD55DD6] CRC32 08 78,9 [62217699] [FB2CCC64] CRC32 09 61,0 [FD382FE7] [6EFBB6B3] CRC32 10 44,0 [C535227A] [49727EF6] CRC32

CD2 {43:13}

Intrigo a Los Angeles
01. Idillio Giallorosa (1:15)
02. Minorenne Cercasi (1:57)
03. Movimento con Swing (4:16)
04. Tipi Sospetti (5:31)
05. Motel (1:41)
06. Spogliarello da Circo (4:19)
07. Jazz Bar (3:26)
08. Pedinamento (1:43)
09. Agguato (3:20)
10. Nel Labirinto (1:40)
11. Ritmo Neutronico (1:38)
12. Contagio Atomico (1:53)
13. Messagio Elettronico (2:42)
14. Fissione Nucleare (1:53)
15. Comunicazione Spaziale (1:00)
16. Spogliarello da Circo (II) (2:34)
17. Agguato (II) (2:25)

Лог создания рипа

Exact Audio Copy V1.3 from 2. September 2016
EAC extraction logfile from 16. March 2017, 10:59
Chet Baker / Jazz on Film: Italian Movies
Used drive : PLDS DVD+-RW DU-8A3S Adapter: 1 ID: 0
Read mode : SecureUtilize accurate stream : YesDefeat audio cache : YesMake use of C2 pointers : No
Read offset correction : 6Overread into Lead-In and Lead-Out : NoFill up missing offset samples with silence : YesDelete leading and trailing silent blocks : NoNull samples used in CRC calculations : YesUsed interface : Native Win32 interface for Win NT & 2000Gap handling : Appended to previous track
Used output format : User Defined EncoderSelected bitrate : 1024 kBit/sQuality : HighAdd ID3 tag : NoCommand line compressor : C:\users\Public\flac-1.3.2-win\win32\flac.exeAdditional command line options : -8 -V -T "ARTIST=%artist%" -T "TITLE=%title%" -T "ALBUM=%albumtitle%" -T "DATE=%year%" -T "TRACKNUMBER=%tracknr%" -T "GENRE=%genre%" -T "PERFORMER=%albuminterpret%" -T "COMPOSER=%composer%" %haslyrics%--tag-from-file=LYRICS="%lyricsfile%"%haslyrics% -T "ALBUMARTIST=%albumartist%" -T "DISCNUMBER=%cdnumber%" -T "TOTALDISCS=%totalcds%" -T "TOTALTRACKS=%numtracks%" -T "COMMENT=%comment%" %source% -o %dest%
TOC of the extracted CD
Track | Start | Length | Start sector | End sector --------------------------------------------------------- 1 | 0:00.00 | 1:14.54 | 0 | 5603 2 | 1:14.54 | 1:57.00 | 5604 | 14378 3 | 3:11.54 | 4:15.38 | 14379 | 33541 4 | 7:27.17 | 5:30.66 | 33542 | 58357 5 | 12:58.08 | 1:40.42 | 58358 | 65899 6 | 14:38.50 | 4:19.25 | 65900 | 85349 7 | 18:58.00 | 3:25.45 | 85350 | 100769 8 | 22:23.45 | 1:42.52 | 100770 | 108471 9 | 24:06.22 | 3:20.37 | 108472 | 123508 10 | 27:26.59 | 1:39.59 | 123509 | 130992 11 | 29:06.43 | 1:37.46 | 130993 | 138313 12 | 30:44.14 | 1:52.48 | 138314 | 146761 13 | 32:36.62 | 2:42.09 | 146762 | 158920 14 | 35:18.71 | 1:53.14 | 158921 | 167409 15 | 37:12.10 | 1:00.03 | 167410 | 171912 16 | 38:12.13 | 2:34.08 | 171913 | 183470 17 | 40:46.21 | 2:25.14 | 183471 | 194359
Track 1
Filename C:\Chet Baker, Piero Umiliani - Jazz on Film; Italian Movies (2013) {Moochin' About MOOCHIN03} [FLAC]\CD2\01 Idillio Giallorosa.wav
Pre-gap length 0:00:02.00
Peak level 72.1 % Extraction speed 0.7 X Track quality 100.0 % Test CRC 48386AC1 Copy CRC 48386AC1 Accurately ripped (confidence 2) [7F25BB2D] (AR v2) Copy OK
Track 2
Filename C:\Chet Baker, Piero Umiliani - Jazz on Film; Italian Movies (2013) {Moochin' About MOOCHIN03} [FLAC]\CD2\02 Minorenne Cercasi.wav
Peak level 75.5 % Extraction speed 0.9 X Track quality 100.0 % Test CRC 8303D0CA Copy CRC 8303D0CA Accurately ripped (confidence 2) [1F9A5C3E] (AR v2) Copy OK
Track 3
Filename C:\Chet Baker, Piero Umiliani - Jazz on Film; Italian Movies (2013) {Moochin' About MOOCHIN03} [FLAC]\CD2\03 Monimento Con Swing.wav
Peak level 89.1 % Extraction speed 1.2 X Track quality 100.0 % Test CRC E3BCB3AE Copy CRC E3BCB3AE Accurately ripped (confidence 2) [A2A3C655] (AR v2) Copy OK
Track 4
Filename C:\Chet Baker, Piero Umiliani - Jazz on Film; Italian Movies (2013) {Moochin' About MOOCHIN03} [FLAC]\CD2\04 Tipi Sospetti.wav
Peak level 88.0 % Extraction speed 1.3 X Track quality 100.0 % Test CRC 8D5E1A52 Copy CRC 8D5E1A52 Accurately ripped (confidence 2) [CD246B96] (AR v2) Copy OK
Track 5
Filename C:\Chet Baker, Piero Umiliani - Jazz on Film; Italian Movies (2013) {Moochin' About MOOCHIN03} [FLAC]\CD2\05 Motel.wav
Peak level 89.1 % Extraction speed 0.9 X Track quality 99.8 % Test CRC 5434E19D Copy CRC 5434E19D Accurately ripped (confidence 2) [F8B5023B] (AR v2) Copy OK
Track 6
Filename C:\Chet Baker, Piero Umiliani - Jazz on Film; Italian Movies (2013) {Moochin' About MOOCHIN03} [FLAC]\CD2\06 Spogliarello Da Circo.wav
Peak level 83.1 % Extraction speed 1.5 X Track quality 100.0 % Test CRC 45CA2BBA Copy CRC 45CA2BBA Accurately ripped (confidence 2) [1092BB08] (AR v2) Copy OK
Track 7
Filename C:\Chet Baker, Piero Umiliani - Jazz on Film; Italian Movies (2013) {Moochin' About MOOCHIN03} [FLAC]\CD2\07 Jazz Bar.wav
Peak level 79.7 % Extraction speed 1.5 X Track quality 100.0 % Test CRC 01A6F38E Copy CRC 01A6F38E Accurately ripped (confidence 2) [11AB008C] (AR v2) Copy OK
Track 8
Filename C:\Chet Baker, Piero Umiliani - Jazz on Film; Italian Movies (2013) {Moochin' About MOOCHIN03} [FLAC]\CD2\08 Pedinamento.wav
Peak level 89.1 % Extraction speed 1.3 X Track quality 100.0 % Test CRC D984D1B5 Copy CRC D984D1B5 Accurately ripped (confidence 2) [416FF5FA] (AR v2) Copy OK
Track 9
Filename C:\Chet Baker, Piero Umiliani - Jazz on Film; Italian Movies (2013) {Moochin' About MOOCHIN03} [FLAC]\CD2\09 Agguato.wav
Peak level 89.1 % Extraction speed 1.4 X Track quality 99.9 % Test CRC C8C42DBA Copy CRC C8C42DBA Accurately ripped (confidence 2) [FBEAC356] (AR v2) Copy OK
Track 10
Filename C:\Chet Baker, Piero Umiliani - Jazz on Film; Italian Movies (2013) {Moochin' About MOOCHIN03} [FLAC]\CD2\10 Nel Labirinto.wav
Peak level 87.3 % Extraction speed 1.4 X Track quality 100.0 % Test CRC E4698BD1 Copy CRC E4698BD1 Accurately ripped (confidence 2) [B466D77F] (AR v2) Copy OK
Track 11
Filename C:\Chet Baker, Piero Umiliani - Jazz on Film; Italian Movies (2013) {Moochin' About MOOCHIN03} [FLAC]\CD2\11 Ritmo Neutronico.wav
Peak level 82.7 % Extraction speed 1.1 X Track quality 99.8 % Test CRC 122DC57B Copy CRC 122DC57B Accurately ripped (confidence 2) [196674D3] (AR v2) Copy OK
Track 12
Filename C:\Chet Baker, Piero Umiliani - Jazz on Film; Italian Movies (2013) {Moochin' About MOOCHIN03} [FLAC]\CD2\12 Contagio Atomico.wav
Peak level 72.0 % Extraction speed 1.5 X Track quality 100.0 % Test CRC CDF84771 Copy CRC CDF84771 Accurately ripped (confidence 2) [0B8F2468] (AR v2) Copy OK
Track 13
Filename C:\Chet Baker, Piero Umiliani - Jazz on Film; Italian Movies (2013) {Moochin' About MOOCHIN03} [FLAC]\CD2\13 Messagio Elettronica.wav
Peak level 72.3 % Extraction speed 1.7 X Track quality 100.0 % Test CRC 7AAA941E Copy CRC 7AAA941E Accurately ripped (confidence 2) [5444B509] (AR v2) Copy OK
Track 14
Filename C:\Chet Baker, Piero Umiliani - Jazz on Film; Italian Movies (2013) {Moochin' About MOOCHIN03} [FLAC]\CD2\14 Fissione Nucleare.wav
Peak level 68.1 % Extraction speed 1.3 X Track quality 99.9 % Test CRC 3FF5C0E0 Copy CRC 3FF5C0E0 Accurately ripped (confidence 2) [768C844D] (AR v2) Copy OK
Track 15
Filename C:\Chet Baker, Piero Umiliani - Jazz on Film; Italian Movies (2013) {Moochin' About MOOCHIN03} [FLAC]\CD2\15 Comunicazione Spaziale.wav
Peak level 72.3 % Extraction speed 1.3 X Track quality 100.0 % Test CRC D35479AC Copy CRC D35479AC Accurately ripped (confidence 2) [A19BB345] (AR v2) Copy OK
Track 16
Filename C:\Chet Baker, Piero Umiliani - Jazz on Film; Italian Movies (2013) {Moochin' About MOOCHIN03} [FLAC]\CD2\16 Spogliarello Da Circo (II).wav
Peak level 73.7 % Extraction speed 1.8 X Track quality 100.0 % Test CRC A802AE7B Copy CRC A802AE7B Accurately ripped (confidence 2) [A695B455] (AR v2) Copy OK
Track 17
Filename C:\Chet Baker, Piero Umiliani - Jazz on Film; Italian Movies (2013) {Moochin' About MOOCHIN03} [FLAC]\CD2\17 Agguato (II).wav
Peak level 79.4 % Extraction speed 1.8 X Track quality 100.0 % Test CRC 7F073A53 Copy CRC 7F073A53 Accurately ripped (confidence 2) [87ACD452] (AR v2) Copy OK
All tracks accurately ripped
No errors occurred
End of status report
==== Log checksum 40BBADD290C7B54CF95719BEFE2B37CA85A3E05BDE9E1962D7994BF2F35C1430 ====

Содержание индексной карты (.CUE)

REM GENRE JazzREM DATE 2013REM DISCID F40A1F11REM COMMENT "ExactAudioCopy v1.3"PERFORMER "Chet Baker"TITLE "Italian Movies CD2"FILE "01 - Idillio Giallorosa.wav" WAVE  TRACK 01 AUDIO    TITLE "Idillio Giallorosa"    PERFORMER "Chet Baker"    INDEX 01 00:00:00FILE "02 - Minorenne Cercasi.wav" WAVE  TRACK 02 AUDIO    TITLE "Minorenne Cercasi"    PERFORMER "Chet Baker"    INDEX 01 00:00:00FILE "03 - Movimento con Swing.wav" WAVE  TRACK 03 AUDIO    TITLE "Movimento con Swing"    PERFORMER "Chet Baker"    INDEX 01 00:00:00FILE "04 - Tipi Sospetti.wav" WAVE  TRACK 04 AUDIO    TITLE "Tipi Sospetti"    PERFORMER "Chet Baker"    INDEX 01 00:00:00FILE "05 - Motel.wav" WAVE  TRACK 05 AUDIO    TITLE "Motel"    PERFORMER "Chet Baker"    INDEX 01 00:00:00FILE "06 - Spogliarello da Circo.wav" WAVE  TRACK 06 AUDIO    TITLE "Spogliarello da Circo"    PERFORMER "Chet Baker"    INDEX 01 00:00:00FILE "07 - Jazz Bar.wav" WAVE  TRACK 07 AUDIO    TITLE "Jazz Bar"    PERFORMER "Chet Baker"    INDEX 01 00:00:00FILE "08 - Pedinamento.wav" WAVE  TRACK 08 AUDIO    TITLE "Pedinamento"    PERFORMER "Chet Baker"    INDEX 01 00:00:00FILE "09 - Agguato.wav" WAVE  TRACK 09 AUDIO    TITLE "Agguato"    PERFORMER "Chet Baker"    INDEX 01 00:00:00FILE "10 - Nel Labirinto.wav" WAVE  TRACK 10 AUDIO    TITLE "Nel Labirinto"    PERFORMER "Chet Baker"    INDEX 01 00:00:00FILE "11 - Ritmo Neutronico.wav" WAVE  TRACK 11 AUDIO    TITLE "Ritmo Neutronico"    PERFORMER "Chet Baker"    INDEX 01 00:00:00FILE "12 - Contagio Atomico.wav" WAVE  TRACK 12 AUDIO    TITLE "Contagio Atomico"    PERFORMER "Chet Baker"    INDEX 01 00:00:00FILE "13 - Messagio Elettronico.wav" WAVE  TRACK 13 AUDIO    TITLE "Messagio Elettronico"    PERFORMER "Chet Baker"    INDEX 01 00:00:00FILE "14 - Fissione Nucleare.wav" WAVE  TRACK 14 AUDIO    TITLE "Fissione Nucleare"    PERFORMER "Chet Baker"    INDEX 01 00:00:00FILE "15 - Comunicazione Spaziale.wav" WAVE  TRACK 15 AUDIO    TITLE "Comunicazione Spaziale"    PERFORMER "Chet Baker"    INDEX 01 00:00:00FILE "16 - Spogliarello da Circo (II).wav" WAVE  TRACK 16 AUDIO    TITLE "Spogliarello da Circo (II)"    PERFORMER "Chet Baker"    INDEX 01 00:00:00FILE "17 - Agguato (II).wav" WAVE  TRACK 17 AUDIO    TITLE "Agguato (II)"    PERFORMER "Chet Baker"    INDEX 01 00:00:00

Отчет CUETools

[CUETools log; Date: 17.03.2019 12:56:12; Version: 2.1.6][CTDB TOCID: wNboMx2VSrhBeNXoTQS3FAYbHm4-] found.Track | CTDB Status  1   | (10/10) Accurately ripped  2   | (10/10) Accurately ripped  3   | (10/10) Accurately ripped  4   | (10/10) Accurately ripped  5   | (10/10) Accurately ripped  6   | (10/10) Accurately ripped  7   | (10/10) Accurately ripped  8   | (10/10) Accurately ripped  9   | (10/10) Accurately ripped 10   | (10/10) Accurately ripped 11   | (10/10) Accurately ripped 12   | (10/10) Accurately ripped 13   | (10/10) Accurately ripped 14   | (10/10) Accurately ripped 15   | (10/10) Accurately ripped 16   | (10/10) Accurately ripped 17   | ( 9/10) Accurately ripped[AccurateRip ID: 001ccf1c-016828bc-f40a1f11] found.Track   [  CRC   |   V2   ] Status 01     [1e5f062f|7f25bb2d] (0+5/5) Accurately ripped 02     [10331676|1f9a5c3e] (0+5/5) Accurately ripped 03     [e716c6d2|a2a3c655] (0+5/5) Accurately ripped 04     [388e8619|cd246b96] (0+5/5) Accurately ripped 05     [69ccbca9|f8b5023b] (0+5/5) Accurately ripped 06     [b5903b9d|1092bb08] (0+5/5) Accurately ripped 07     [e5926cc5|11ab008c] (0+5/5) Accurately ripped 08     [a868857a|416ff5fa] (0+5/5) Accurately ripped 09     [65d2e1e6|fbeac356] (0+5/5) Accurately ripped 10     [3643274c|b466d77f] (0+5/5) Accurately ripped 11     [a1aab2c5|196674d3] (0+5/5) Accurately ripped 12     [6416f299|0b8f2468] (0+5/5) Accurately ripped 13     [d289e0e6|5444b509] (0+5/5) Accurately ripped 14     [ad879a6b|768c844d] (0+5/5) Accurately ripped 15     [4ccd0dcf|a19bb345] (0+5/5) Accurately ripped 16     [a8712c64|a695b455] (0+5/5) Accurately ripped 17     [82090b17|87acd452] (0+5/5) Accurately ripped
Track Peak [ CRC32 ] [W/O NULL] [ LOG ] -- 89,1 [8DF2FFD8] [3F29A178] 01 72,1 [48386AC1] [CE6D63BB] CRC32 02 75,5 [8303D0CA] [5427C535] CRC32 03 89,1 [E3BCB3AE] [FE4F57AB] CRC32 04 88,0 [8D5E1A52] [0AD542A4] CRC32 05 89,1 [5434E19D] [C571F16B] CRC32 06 83,1 [45CA2BBA] [18694193] CRC32 07 79,7 [01A6F38E] [6CF76B9E] CRC32 08 89,1 [D984D1B5] [7381568D] CRC32 09 89,1 [C8C42DBA] [997AA1B2] CRC32 10 87,3 [E4698BD1] [3F546023] CRC32 11 82,7 [122DC57B] [C7CB4DF9] CRC32 12 72,0 [CDF84771] [3AA73DB7] CRC32 13 72,3 [7AAA941E] [34089D3F] CRC32 14 68,1 [3FF5C0E0] [2B353457] CRC32 15 72,3 [D35479AC] [54C00594] CRC32 16 73,7 [A802AE7B] [C5F27CB5] CRC32 17 79,4 [7F073A53] [2E28A359] CRC32

CD3 {46:07}

Smog
01. Neapolitan Phantasy (3:53)
02. Dawn (feat. Helen Merrill) (4:05)
03. Hollywood Tonight (2:43)
04. California in the Summer (2:51)
05. Smog (feat. Helen Merrill) (2:52)
06. Tops (2:25)
07. Tension (3:14)
08. Bowling (2:10)
09. Smog (I) (5:24)
10. Smog (II) (5:52)
11. Twilight in Los Angeles (6:10)
12. Thinking Blues (4:28)

Лог создания рипа

Exact Audio Copy V1.3 from 2. September 2016
EAC extraction logfile from 16. March 2017, 12:06
Chet Baker / Jazz on Film: Italian Movies
Used drive : PLDS DVD+-RW DU-8A3S Adapter: 1 ID: 0
Read mode : SecureUtilize accurate stream : YesDefeat audio cache : YesMake use of C2 pointers : No
Read offset correction : 6Overread into Lead-In and Lead-Out : NoFill up missing offset samples with silence : YesDelete leading and trailing silent blocks : NoNull samples used in CRC calculations : YesUsed interface : Native Win32 interface for Win NT & 2000Gap handling : Appended to previous track
Used output format : User Defined EncoderSelected bitrate : 1024 kBit/sQuality : HighAdd ID3 tag : NoCommand line compressor : C:\users\Public\flac-1.3.2-win\win32\flac.exeAdditional command line options : -8 -V -T "ARTIST=%artist%" -T "TITLE=%title%" -T "ALBUM=%albumtitle%" -T "DATE=%year%" -T "TRACKNUMBER=%tracknr%" -T "GENRE=%genre%" -T "PERFORMER=%albuminterpret%" -T "COMPOSER=%composer%" %haslyrics%--tag-from-file=LYRICS="%lyricsfile%"%haslyrics% -T "ALBUMARTIST=%albumartist%" -T "DISCNUMBER=%cdnumber%" -T "TOTALDISCS=%totalcds%" -T "TOTALTRACKS=%numtracks%" -T "COMMENT=%comment%" %source% -o %dest%
TOC of the extracted CD
Track | Start | Length | Start sector | End sector --------------------------------------------------------- 1 | 0:00.00 | 3:53.22 | 0 | 17496 2 | 3:53.22 | 4:05.02 | 17497 | 35873 3 | 7:58.24 | 2:43.02 | 35874 | 48100 4 | 10:41.26 | 2:50.39 | 48101 | 60889 5 | 13:31.65 | 2:51.65 | 60890 | 73779 6 | 16:23.55 | 2:25.27 | 73780 | 84681 7 | 18:49.07 | 3:14.02 | 84682 | 99233 8 | 22:03.09 | 2:10.22 | 99234 | 109005 9 | 24:13.31 | 5:23.47 | 109006 | 133277 10 | 29:37.03 | 5:51.56 | 133278 | 159658 11 | 35:28.59 | 6:09.44 | 159659 | 187377 12 | 41:38.28 | 4:28.00 | 187378 | 207477
Track 1
Filename C:\Chet Baker, Piero Umiliani - Jazz on Film; Italian Movies (2013) {Moochin' About MOOCHIN03} [FLAC]\CD3\01 Neapolitan Phantasy.wav
Pre-gap length 0:00:02.00
Peak level 47.4 % Extraction speed 1.1 X Track quality 100.0 % Test CRC C6C91726 Copy CRC C6C91726 Accurately ripped (confidence 1) [A7D562B4] (AR v2) Copy OK
Track 2
Filename C:\Chet Baker, Piero Umiliani - Jazz on Film; Italian Movies (2013) {Moochin' About MOOCHIN03} [FLAC]\CD3\02 Dawn ft. Helen Merrill.wav
Peak level 89.1 % Extraction speed 1.0 X Track quality 99.9 % Test CRC D535AC02 Copy CRC D535AC02 Accurately ripped (confidence 1) [96BB1AEE] (AR v2) Copy OK
Track 3
Filename C:\Chet Baker, Piero Umiliani - Jazz on Film; Italian Movies (2013) {Moochin' About MOOCHIN03} [FLAC]\CD3\03 Hollywood Tonight.wav
Peak level 58.9 % Extraction speed 1.0 X Track quality 99.9 % Test CRC 696AF221 Copy CRC 696AF221 Accurately ripped (confidence 1) [C60AB50C] (AR v2) Copy OK
Track 4
Filename C:\Chet Baker, Piero Umiliani - Jazz on Film; Italian Movies (2013) {Moochin' About MOOCHIN03} [FLAC]\CD3\04 California in the Summer.wav
Peak level 66.3 % Extraction speed 1.3 X Track quality 100.0 % Test CRC 63F68497 Copy CRC 63F68497 Accurately ripped (confidence 1) [E3CD231E] (AR v2) Copy OK
Track 5
Filename C:\Chet Baker, Piero Umiliani - Jazz on Film; Italian Movies (2013) {Moochin' About MOOCHIN03} [FLAC]\CD3\05 Smog ft. Helen Merrill.wav
Peak level 80.7 % Extraction speed 1.3 X Track quality 100.0 % Test CRC 7D989C38 Copy CRC 7D989C38 Accurately ripped (confidence 1) [56BA2B6F] (AR v2) Copy OK
Track 6
Filename C:\Chet Baker, Piero Umiliani - Jazz on Film; Italian Movies (2013) {Moochin' About MOOCHIN03} [FLAC]\CD3\06 Tops.wav
Peak level 37.8 % Extraction speed 1.3 X Track quality 100.0 % Test CRC 998143A9 Copy CRC 998143A9 Accurately ripped (confidence 1) [C1D65753] (AR v2) Copy OK
Track 7
Filename C:\Chet Baker, Piero Umiliani - Jazz on Film; Italian Movies (2013) {Moochin' About MOOCHIN03} [FLAC]\CD3\07 Tension.wav
Peak level 41.2 % Extraction speed 1.5 X Track quality 100.0 % Test CRC 7C4F69D4 Copy CRC 7C4F69D4 Accurately ripped (confidence 1) [FC80EB48] (AR v2) Copy OK
Track 8
Filename C:\Chet Baker, Piero Umiliani - Jazz on Film; Italian Movies (2013) {Moochin' About MOOCHIN03} [FLAC]\CD3\08 Bowling.wav
Peak level 48.1 % Extraction speed 1.4 X Track quality 100.0 % Test CRC 86AEC209 Copy CRC 86AEC209 Accurately ripped (confidence 1) [6501D0D2] (AR v2) Copy OK
Track 9
Filename C:\Chet Baker, Piero Umiliani - Jazz on Film; Italian Movies (2013) {Moochin' About MOOCHIN03} [FLAC]\CD3\09 Smog (I).wav
Peak level 38.7 % Extraction speed 1.7 X Track quality 100.0 % Test CRC 0B9910F7 Copy CRC 0B9910F7 Accurately ripped (confidence 1) [7C68F84B] (AR v2) Copy OK
Track 10
Filename C:\Chet Baker, Piero Umiliani - Jazz on Film; Italian Movies (2013) {Moochin' About MOOCHIN03} [FLAC]\CD3\10 Smog (II).wav
Peak level 26.2 % Extraction speed 1.9 X Track quality 100.0 % Test CRC B20A468C Copy CRC B20A468C Accurately ripped (confidence 1) [FA253BBC] (AR v2) Copy OK
Track 11
Filename C:\Chet Baker, Piero Umiliani - Jazz on Film; Italian Movies (2013) {Moochin' About MOOCHIN03} [FLAC]\CD3\11 Twilight in Los Angeles.wav
Peak level 46.5 % Extraction speed 2.0 X Track quality 100.0 % Test CRC 76B542A4 Copy CRC 76B542A4 Accurately ripped (confidence 1) [A041FE2D] (AR v2) Copy OK
Track 12
Filename C:\Chet Baker, Piero Umiliani - Jazz on Film; Italian Movies (2013) {Moochin' About MOOCHIN03} [FLAC]\CD3\12 Thinking Blues.wav
Peak level 29.1 % Extraction speed 2.0 X Track quality 100.0 % Test CRC 92C415A5 Copy CRC 92C415A5 Accurately ripped (confidence 1) [213CA155] (AR v2) Copy OK
All tracks accurately ripped
No errors occurred
End of status report
==== Log checksum 292593B8C4EF20E39E9C610534F259113365F95614CDBD3D5DE1807A2053EAE0 ====

Содержание индексной карты (.CUE)

REM GENRE JazzREM DATE 2013REM DISCID 8C0ACE0CREM COMMENT "ExactAudioCopy v1.3"PERFORMER "Chet Baker"TITLE "Italian Movies CD3"FILE "01 - Neapolitan Phantasy.wav" WAVE  TRACK 01 AUDIO    TITLE "Neapolitan Phantasy"    PERFORMER "Chet Baker"    INDEX 01 00:00:00FILE "02 - Dawn (feat. Helen Merrill).wav" WAVE  TRACK 02 AUDIO    TITLE "Dawn (feat. Helen Merrill)"    PERFORMER "Chet Baker"    INDEX 01 00:00:00FILE "03 - Hollywood Tonight.wav" WAVE  TRACK 03 AUDIO    TITLE "Hollywood Tonight"    PERFORMER "Chet Baker"    INDEX 01 00:00:00FILE "04 - California in the Summer.wav" WAVE  TRACK 04 AUDIO    TITLE "California in the Summer"    PERFORMER "Chet Baker"    INDEX 01 00:00:00FILE "05 - Smog (feat. Helen Merrill).wav" WAVE  TRACK 05 AUDIO    TITLE "Smog (feat. Helen Merrill)"    PERFORMER "Chet Baker"    INDEX 01 00:00:00FILE "06 - Tops.wav" WAVE  TRACK 06 AUDIO    TITLE "Tops"    PERFORMER "Chet Baker"    INDEX 01 00:00:00FILE "07 - Tension.wav" WAVE  TRACK 07 AUDIO    TITLE "Tension"    PERFORMER "Chet Baker"    INDEX 01 00:00:00FILE "08 - Bowling.wav" WAVE  TRACK 08 AUDIO    TITLE "Bowling"    PERFORMER "Chet Baker"    INDEX 01 00:00:00FILE "09 - Smog (I).wav" WAVE  TRACK 09 AUDIO    TITLE "Smog (I)"    PERFORMER "Chet Baker"    INDEX 01 00:00:00FILE "10 - Smog (II).wav" WAVE  TRACK 10 AUDIO    TITLE "Smog (II)"    PERFORMER "Chet Baker"    INDEX 01 00:00:00FILE "11 - Twilight in Los Angeles.wav" WAVE  TRACK 11 AUDIO    TITLE "Twilight in Los Angeles"    PERFORMER "Chet Baker"    INDEX 01 00:00:00FILE "12 - Thinking Blues.wav" WAVE  TRACK 12 AUDIO    TITLE "Thinking Blues"    PERFORMER "Chet Baker"    INDEX 01 00:00:00

Отчет CUETools

[CUETools log; Date: 17.03.2019 12:56:15; Version: 2.1.6][CTDB TOCID: OLWbUjq3gkTRRz.WmPIoUvv40LA-] found.Track | CTDB Status  1   | (11/11) Accurately ripped  2   | (11/11) Accurately ripped  3   | (11/11) Accurately ripped  4   | (11/11) Accurately ripped  5   | (11/11) Accurately ripped  6   | (11/11) Accurately ripped  7   | (11/11) Accurately ripped  8   | (11/11) Accurately ripped  9   | (11/11) Accurately ripped 10   | (11/11) Accurately ripped 11   | (11/11) Accurately ripped 12   | (11/11) Accurately ripped[AccurateRip ID: 00129159-00af3dd6-8c0ace0c] found.Track   [  CRC   |   V2   ] Status 01     [6ee25977|a7d562b4] (0+4/4) Accurately ripped 02     [4fb9c91b|96bb1aee] (0+4/4) Accurately ripped 03     [05e922ac|c60ab50c] (0+4/4) Accurately ripped 04     [f3e39c80|e3cd231e] (0+4/4) Accurately ripped 05     [3b54d717|56ba2b6f] (0+4/4) Accurately ripped 06     [22c55bb1|c1d65753] (0+4/4) Accurately ripped 07     [28830c4e|fc80eb48] (0+4/4) Accurately ripped 08     [b962c9cc|6501d0d2] (0+4/4) Accurately ripped 09     [6ad43549|7c68f84b] (0+4/4) Accurately ripped 10     [8ef35ea0|fa253bbc] (0+4/4) Accurately ripped 11     [6cb9966e|a041fe2d] (0+4/4) Accurately ripped 12     [bd1e5c32|213ca155] (0+4/4) Accurately ripped
Track Peak [ CRC32 ] [W/O NULL] [ LOG ] -- 89,1 [D314990A] [CA588573] 01 47,4 [C6C91726] [90629F64] CRC32 02 89,1 [D535AC02] [F9BC711A] CRC32 03 58,9 [696AF221] [5F0956A7] CRC32 04 66,3 [63F68497] [53CC1C2B] CRC32 05 80,7 [7D989C38] [C8C9E954] CRC32 06 37,8 [998143A9] [E3E502B1] CRC32 07 41,2 [7C4F69D4] [9FD23406] CRC32 08 48,1 [86AEC209] [60D434BE] CRC32 09 38,7 [0B9910F7] [CDAD475B] CRC32 10 26,2 [B20A468C] [27B91332] CRC32 11 46,5 [76B542A4] [DD632272] CRC32 12 29,1 [92C415A5] [C5CDC5B8] CRC32

AllMusic Review by Thom Jurek

Before delving into the music on this collection, it's important to offer a note of caution to Chet Baker fans: Italian Movies is not a really a compilation of the trumpeter's work, so much as a series of film scores by the great composer Piero Umiliani between 1958 and 1964 on which he is featured either as a soloist or as part of the orchestra. It might better have been marketed to Umiliani fans, but it's tough to fault label Moochin' About for a little creative license when repackaging a previous issue of this music that appeared on Liuto Records -- that one was co-billed to the pair. Other than on disc three -- where Baker doesn't get to solo until track nine in the score for 1962's Smog, yet is still featured for 20 minutes -- there is plenty of him to go around as he works amid his Italian contemporaries. Despite the period, one in which his drug addiction was particularly difficult to manage, his playing is taut, muscular, and inventive throughout. His solos bear the entire strength of his phrasing signature. Disc one contains the scores for 1959's Audace Colpo Dei Soliti Ignoti, 1958's I Soliti Ignoti, and Urlatorialla Sbarra (1960). The hard bop blues play an enormous part in all three. Baker's soloing is extremely expressive inside these charts. Highlights include "Motorizzazione," "Gassman Blues Pts. 1-2" [sic], and "Tema d'Amore." For those who saw Let's Get Lost, Bruce Weber's 1988 film on the trumpeter, "Arriverderci," the tune that plays during the end credits, is from Urlatori Alla Sbarra. It is included here at the end of disc one, with Baker singing amid Italian dialogue. Disc two is lighter fare musically, consisting entirely of the score for 1964's Intrigo a Los Angeles. Bossa was still a big part of the Italian scene and would be for a few years to come, as was loungy discotheque music. Baker's parts are nonetheless lovely in this decidedly non-jazz setting. Check his bluesy mute work on "Jazz Bar" and low-register blusters in "Pedinamento." Umiliani's score for Franco Rossi's Smog includes the added treat of dreamy vocals by Helen Merrill on "Dawn." On the first eight cues, Baker plays in a rather spirited ensemble whose charts swing with a Latin flair -- and quote briefly from "Tequila" in "California in the Summer." In addition to the music, there is a short liner essay by Umiliani about working with Baker. Italian Movies is handsomely packaged with iconic photos of Baker, includes full credits, and comes at a reasonable price.

If you like the topic, please click share to help develop our site.

To download the file disable ad blocking, and reload the page.

disable adblock How to disable ad blocking?

Download by magnet link 628 MB Download Torrent

Login using:

Similar topics



   
Current time is: 20-Jun 18:13 :: All times are UTC + 3