Chet Baker - Career 1952-1988
Жанр: Cool
Носитель: CD
Страна-производитель диска (релиза): США
Год издания: 2005
Издатель (лейбл): Shout! Factory
Номер по каталогу: D2K 30930
Аудиокодек: FLAC (*.flac)
Тип рипа: tracks+.cue
Битрейт аудио: lossless
Продолжительность: 02:34:26
Источник: GlenlivetRocks
Наличие сканов в содержимом раздачи: нет

CD1 - Trumpeter {79:49}

01. Gerry Mulligan Quartet - My Funny Valentine (2:56)
02. Stan Getz & Chet Baker - Half Nelson (5:43)
03. Love Walked In (2:57)
04. Pro Defunctus (3:27)
05. Alone Together (3:51)
06. Russ Freeman & Chet Baker - Love Nest (4:18)
07. When Lights Are Low (6:54)
08. Well, You Needn't (6:20)
09. Over the Rainbow (3:28)
10. Romas (6:49)
11. Tangerine (5:28)
12. Gerry Mulligan & Chet Baker - Line for Lyons (8:16)
13. The Best Thing for You (4:19)
14. Strollin' (9:20)
15. Look for the Silver Lining (5:43)

Лог создания рипа

Exact Audio Copy V1.3 from 2. September 2016
EAC extraction logfile from 15. March 2019, 19:35
Chet Baker / Career 1952-1988: Trumpeter
Used drive : SONY DVD RW AD-7280S Adapter: 1 ID: 1
Read mode : SecureUtilize accurate stream : YesDefeat audio cache : YesMake use of C2 pointers : No
Read offset correction : 48Overread into Lead-In and Lead-Out : NoFill up missing offset samples with silence : YesDelete leading and trailing silent blocks : NoNull samples used in CRC calculations : YesUsed interface : Native Win32 interface for Win NT & 2000Gap handling : Appended to previous track
Used output format : User Defined EncoderSelected bitrate : 1024 kBit/sQuality : HighAdd ID3 tag : NoCommand line compressor : C:\Program Files (x86)\Exact Audio Copy\Flac\flac.exeAdditional command line options : -8 -e -p -V -T "ARTIST=%artist%" -T "TITLE=%title%" -T "ALBUM=%albumtitle%" -T "DATE=%year%" -T "TRACKNUMBER=%tracknr%" -T "GENRE=%genre%" -T "PERFORMER=%albuminterpret%" -T "COMPOSER=%composer%" %haslyrics%--tag-from-file=LYRICS="%lyricsfile%"%haslyrics% -T "ALBUMARTIST=%albumartist%" -T "DISCNUMBER=%cdnumber%" -T "TOTALDISCS=%totalcds%" -T "TOTALTRACKS=%numtracks%" -T "COMMENT=%comment%" %source% -o %dest%
TOC of the extracted CD
Track | Start | Length | Start sector | End sector --------------------------------------------------------- 1 | 0:00.00 | 2:55.72 | 0 | 13196 2 | 2:55.72 | 5:42.45 | 13197 | 38891 3 | 8:38.42 | 2:57.08 | 38892 | 52174 4 | 11:35.50 | 3:27.22 | 52175 | 67721 5 | 15:02.72 | 3:51.15 | 67722 | 85061 6 | 18:54.12 | 4:17.55 | 85062 | 104391 7 | 23:11.67 | 6:53.48 | 104392 | 135414 8 | 30:05.40 | 6:19.67 | 135415 | 163906 9 | 36:25.32 | 3:28.18 | 163907 | 179524 10 | 39:53.50 | 6:48.65 | 179525 | 210189 11 | 46:42.40 | 5:27.47 | 210190 | 234761 12 | 52:10.12 | 8:15.48 | 234762 | 271934 13 | 60:25.60 | 4:18.72 | 271935 | 291356 14 | 64:44.57 | 9:20.35 | 291357 | 333391 15 | 74:05.17 | 5:43.03 | 333392 | 359119
Track 1
Filename G:\__New\_EAC rips\Chet Baker - Career (1952-1988) (2005) 2cd flac\CD1 Trumpeter\01 - My Funny Valentine (Gerry Mulligan Quartet).wav
Pre-gap length 0:00:02.00
Peak level 92.0 % Extraction speed 2.2 X Track quality 99.9 % Test CRC 19FB40F3 Copy CRC 19FB40F3 Accurately ripped (confidence 3) [C9C4574D] (AR v2) Copy OK
Track 2
Filename G:\__New\_EAC rips\Chet Baker - Career (1952-1988) (2005) 2cd flac\CD1 Trumpeter\02 - Half Nelson (with Stan Getz).wav
Peak level 85.3 % Extraction speed 2.8 X Track quality 99.9 % Test CRC E4F3871B Copy CRC E4F3871B Accurately ripped (confidence 3) [9A72F6F1] (AR v2) Copy OK
Track 3
Filename G:\__New\_EAC rips\Chet Baker - Career (1952-1988) (2005) 2cd flac\CD1 Trumpeter\03 - Love Walked In.wav
Peak level 96.1 % Extraction speed 3.0 X Track quality 100.0 % Test CRC 5FC754F3 Copy CRC 5FC754F3 Accurately ripped (confidence 3) [DF39E4B2] (AR v2) Copy OK
Track 4
Filename G:\__New\_EAC rips\Chet Baker - Career (1952-1988) (2005) 2cd flac\CD1 Trumpeter\04 - Pro Defunctus.wav
Peak level 98.8 % Extraction speed 3.2 X Track quality 100.0 % Test CRC BB37DC55 Copy CRC BB37DC55 Accurately ripped (confidence 3) [AD71A2B7] (AR v2) Copy OK
Track 5
Filename G:\__New\_EAC rips\Chet Baker - Career (1952-1988) (2005) 2cd flac\CD1 Trumpeter\05 - Alone Together.wav
Peak level 94.6 % Extraction speed 3.5 X Track quality 100.0 % Test CRC F79A29F4 Copy CRC F79A29F4 Accurately ripped (confidence 3) [CB3F471F] (AR v2) Copy OK
Track 6
Filename G:\__New\_EAC rips\Chet Baker - Career (1952-1988) (2005) 2cd flac\CD1 Trumpeter\06 - Love Nest (with Russ Freeman).wav
Pre-gap length 0:00:01.13
Peak level 84.4 % Extraction speed 3.7 X Track quality 100.0 % Test CRC E6C01821 Copy CRC E6C01821 Accurately ripped (confidence 3) [64CACDBF] (AR v2) Copy OK
Track 7
Filename G:\__New\_EAC rips\Chet Baker - Career (1952-1988) (2005) 2cd flac\CD1 Trumpeter\07 - When Lights are Low.wav
Pre-gap length 0:00:01.09
Peak level 98.4 % Extraction speed 3.8 X Track quality 99.9 % Test CRC 5680DFE6 Copy CRC 5680DFE6 Accurately ripped (confidence 4) [ED562CB9] (AR v2) Copy OK
Track 8
Filename G:\__New\_EAC rips\Chet Baker - Career (1952-1988) (2005) 2cd flac\CD1 Trumpeter\08 - Well, You Needn't.wav
Peak level 92.2 % Extraction speed 4.4 X Track quality 100.0 % Test CRC 1E07DF75 Copy CRC 1E07DF75 Accurately ripped (confidence 4) [88196F8A] (AR v2) Copy OK
Track 9
Filename G:\__New\_EAC rips\Chet Baker - Career (1952-1988) (2005) 2cd flac\CD1 Trumpeter\09 - Over the Rainbow.wav
Peak level 98.8 % Extraction speed 4.2 X Track quality 100.0 % Test CRC E62A3EA5 Copy CRC E62A3EA5 Accurately ripped (confidence 4) [3766D9A1] (AR v2) Copy OK
Track 10
Filename G:\__New\_EAC rips\Chet Baker - Career (1952-1988) (2005) 2cd flac\CD1 Trumpeter\10 - Romas.wav
Peak level 98.8 % Extraction speed 4.8 X Track quality 100.0 % Test CRC 7D170873 Copy CRC 7D170873 Accurately ripped (confidence 3) [CE092742] (AR v2) Copy OK
Track 11
Filename G:\__New\_EAC rips\Chet Baker - Career (1952-1988) (2005) 2cd flac\CD1 Trumpeter\11 - Tangerine.wav
Peak level 98.8 % Extraction speed 4.9 X Track quality 100.0 % Test CRC 648FED6E Copy CRC 648FED6E Accurately ripped (confidence 3) [CF186026] (AR v2) Copy OK
Track 12
Filename G:\__New\_EAC rips\Chet Baker - Career (1952-1988) (2005) 2cd flac\CD1 Trumpeter\12 - Line for Lyons (with Gerry Mulligan).wav
Pre-gap length 0:00:01.09
Peak level 98.8 % Extraction speed 5.0 X Track quality 99.9 % Test CRC FAAFBC4D Copy CRC FAAFBC4D Accurately ripped (confidence 4) [2DC6D56A] (AR v2) Copy OK
Track 13
Filename G:\__New\_EAC rips\Chet Baker - Career (1952-1988) (2005) 2cd flac\CD1 Trumpeter\13 - The Best Thing for You.wav
Pre-gap length 0:00:01.37
Peak level 93.1 % Extraction speed 4.7 X Track quality 99.9 % Test CRC 0BD8D0B5 Copy CRC 0BD8D0B5 Accurately ripped (confidence 3) [A5AB373A] (AR v2) Copy OK
Track 14
Filename G:\__New\_EAC rips\Chet Baker - Career (1952-1988) (2005) 2cd flac\CD1 Trumpeter\14 - Strollin'.wav
Pre-gap length 0:00:01.66
Peak level 98.8 % Extraction speed 5.8 X Track quality 100.0 % Test CRC EFD3EBF2 Copy CRC EFD3EBF2 Accurately ripped (confidence 3) [A18096F0] (AR v2) Copy OK
Track 15
Filename G:\__New\_EAC rips\Chet Baker - Career (1952-1988) (2005) 2cd flac\CD1 Trumpeter\15 - Look for the Silver Lining.wav
Pre-gap length 0:00:01.13
Peak level 98.8 % Extraction speed 5.8 X Track quality 100.0 % Test CRC DE9BBA3E Copy CRC DE9BBA3E Accurately ripped (confidence 3) [C38F5733] (AR v2) Copy OK
All tracks accurately ripped
No errors occurred
End of status report
---- CUETools DB Plugin V2.1.6
[CTDB TOCID: hEsfRa76_penbPz.Ku7VCKEDnOQ-] foundSubmit result: hEsfRa76_penbPz.Ku7VCKEDnOQ- has been confirmedTrack | CTDB Status 1 | (9/9) Accurately ripped 2 | (9/9) Accurately ripped 3 | (9/9) Accurately ripped 4 | (9/9) Accurately ripped 5 | (9/9) Accurately ripped 6 | (9/9) Accurately ripped 7 | (9/9) Accurately ripped 8 | (8/9) Accurately ripped 9 | (9/9) Accurately ripped 10 | (9/9) Accurately ripped 11 | (9/9) Accurately ripped 12 | (9/9) Accurately ripped 13 | (9/9) Accurately ripped 14 | (9/9) Accurately ripped 15 | (9/9) Accurately ripped
==== Log checksum 1E7B4678700CDA33674247F47732C0BEA835C2BAD8ED66775DF495A9BC2931B9 ====

Содержание индексной карты (.CUE)

REM GENRE JazzREM DATE 2005REM DISCID E012B40FREM COMMENT "ExactAudioCopy v1.3"CATALOG 0826663093025PERFORMER "Chet Baker"TITLE "Career 1952-1988 CD1"FILE "01 - Gerry Mulligan Quartet - My Funny Valentine.wav" WAVE  TRACK 01 AUDIO    TITLE "My Funny Valentine"    PERFORMER "Gerry Mulligan Quartet"    ISRC USFI18530007    INDEX 01 00:00:00FILE "02 - Stan Getz & Chet Baker - Half Nelson.wav" WAVE  TRACK 02 AUDIO    TITLE "Half Nelson"    PERFORMER "Stan Getz & Chet Baker"    ISRC USBN25300095    INDEX 01 00:00:00FILE "03 - Chet Baker - Love Walked In.wav" WAVE  TRACK 03 AUDIO    TITLE "Love Walked In"    PERFORMER "Chet Baker"    ISRC USSM15300108    INDEX 01 00:00:00FILE "04 - Chet Baker - Pro Defunctus.wav" WAVE  TRACK 04 AUDIO    TITLE "Pro Defunctus"    PERFORMER "Chet Baker"    ISRC USBN20400257    INDEX 01 00:00:00FILE "05 - Chet Baker - Alone Together.wav" WAVE  TRACK 05 AUDIO    TITLE "Alone Together"    PERFORMER "Chet Baker"    ISRC FRZO15500970    INDEX 01 00:00:00  TRACK 06 AUDIO    TITLE "Love Nest"    PERFORMER "Russ Freeman & Chet Baker"    ISRC USBN29601043    INDEX 00 03:50:05FILE "06 - Russ Freeman & Chet Baker - Love Nest.wav" WAVE    INDEX 01 00:00:00  TRACK 07 AUDIO    TITLE "When Lights Are Low"    PERFORMER "Chet Baker"    ISRC USFI85800044    INDEX 00 04:16:48FILE "07 - Chet Baker - When Lights Are Low.wav" WAVE    INDEX 01 00:00:00FILE "08 - Chet Baker - Well, You Needn't.wav" WAVE  TRACK 08 AUDIO    TITLE "Well, You Needn't"    PERFORMER "Chet Baker"    ISRC ITB006201503    INDEX 01 00:00:00FILE "09 - Chet Baker - Over the Rainbow.wav" WAVE  TRACK 09 AUDIO    TITLE "Over the Rainbow"    PERFORMER "Chet Baker"    ISRC ITB006201505    INDEX 01 00:00:00FILE "10 - Chet Baker - Romas.wav" WAVE  TRACK 10 AUDIO    TITLE "Romas"    PERFORMER "Chet Baker"    ISRC USFI86800138    INDEX 01 00:00:00FILE "11 - Chet Baker - Tangerine.wav" WAVE  TRACK 11 AUDIO    TITLE "Tangerine"    PERFORMER "Chet Baker"    ISRC USSM10025586    INDEX 01 00:00:00  TRACK 12 AUDIO    TITLE "Line for Lyons"    PERFORMER "Gerry Mulligan & Chet Baker"    ISRC USSM10027970    INDEX 00 05:26:40FILE "12 - Gerry Mulligan & Chet Baker - Line for Lyons.wav" WAVE    INDEX 01 00:00:00  TRACK 13 AUDIO    TITLE "The Best Thing for You"    PERFORMER "Chet Baker"    ISRC USGR10000446    INDEX 00 08:14:20FILE "13 - Chet Baker - The Best Thing for You.wav" WAVE    INDEX 01 00:00:00  TRACK 14 AUDIO    TITLE "Strollin'"    PERFORMER "Chet Baker"    INDEX 00 04:17:22FILE "14 - Chet Baker - Strollin'.wav" WAVE    INDEX 01 00:00:00  TRACK 15 AUDIO    TITLE "Look for the Silver Lining"    PERFORMER "Chet Baker"    INDEX 00 09:19:25FILE "15 - Chet Baker - Look for the Silver Lining.wav" WAVE    INDEX 01 00:00:00

Отчет CUETools

[CUETools log; Date: 17.03.2019 0:40:16; Version: 2.1.6][CTDB TOCID: hEsfRa76_penbPz.Ku7VCKEDnOQ-] found.Track | CTDB Status  1   | (10/10) Accurately ripped  2   | (10/10) Accurately ripped  3   | (10/10) Accurately ripped  4   | (10/10) Accurately ripped  5   | (10/10) Accurately ripped  6   | (10/10) Accurately ripped  7   | (10/10) Accurately ripped  8   | ( 9/10) Accurately ripped  9   | (10/10) Accurately ripped 10   | (10/10) Accurately ripped 11   | (10/10) Accurately ripped 12   | (10/10) Accurately ripped 13   | (10/10) Accurately ripped 14   | (10/10) Accurately ripped 15   | (10/10) Accurately ripped[AccurateRip ID: 0026c5f3-01c65639-e012b40f] found.Track   [  CRC   |   V2   ] Status 01     [08e99be4|c9c4574d] (2+3/5) Accurately ripped 02     [1e515199|9a72f6f1] (2+3/5) Accurately ripped 03     [4bd04476|df39e4b2] (2+3/5) Accurately ripped 04     [c44b251a|ad71a2b7] (2+3/5) Accurately ripped 05     [be82c3b4|cb3f471f] (2+3/5) Accurately ripped 06     [98520fa9|64cacdbf] (2+3/5) Accurately ripped 07     [43037bc4|ed562cb9] (2+4/6) Accurately ripped 08     [f4cb290a|88196f8a] (2+4/6) Accurately ripped 09     [79ede659|3766d9a1] (2+4/6) Accurately ripped 10     [3e31d825|ce092742] (2+3/5) Accurately ripped 11     [a968b560|cf186026] (2+3/5) Accurately ripped 12     [d60f16a3|2dc6d56a] (2+4/6) Accurately ripped 13     [797ddc83|a5ab373a] (2+3/5) Accurately ripped 14     [d2458a7f|a18096f0] (2+3/5) Accurately ripped 15     [0edea8e2|c38f5733] (2+3/5) Accurately ripped
Track Peak [ CRC32 ] [W/O NULL] [ LOG ] -- 98,8 [05B607FF] [8928F44F] 01 92,0 [19FB40F3] [999D7073] CRC32 02 85,3 [E4F3871B] [B0295638] CRC32 03 96,1 [5FC754F3] [46962285] CRC32 04 98,8 [BB37DC55] [83C8B222] CRC32 05 94,6 [F79A29F4] [E6A103B4] CRC32 06 84,4 [E6C01821] [F4247DBB] CRC32 07 98,4 [5680DFE6] [5C64E0BC] CRC32 08 92,2 [1E07DF75] [A97D54B1] CRC32 09 98,8 [E62A3EA5] [5642D1C0] CRC32 10 98,8 [7D170873] [E15A74A7] CRC32 11 98,8 [648FED6E] [18BFA217] CRC32 12 98,8 [FAAFBC4D] [A5888303] CRC32 13 93,1 [0BD8D0B5] [F6FD9E8B] CRC32 14 98,8 [EFD3EBF2] [C751BABF] CRC32 15 98,8 [DE9BBA3E] [2C9873BA] CRC32

CD2 - Singer {74:37}

01. Let's Get Lost (3:44)
02. The Thrill Is Gone (2:52)
03. Everything Happens to Me (3:41)
04. That Old Feeling (3:03)
05. It Could Happen to You (2:52)
06. My Heart Stood Still (3:27)
07. The Song Is You (2:31)
08. Chet Baker with Ennio Morricone & His Orchestra - Chetty's Lullaby (3:56)
09. Born to Be Blue (4:04)
10. The Touch of Your Lips (2:42)
11. With a Song in My Heart (4:06)
12. What'll I Do (3:53)
13. If You Could See Me Now (4:39)
14. But Not for Me (6:02)
15. There Will Never Be Another You (5:37)
16. Almost Blue (7:53)
17. My Funny Valentine (9:35)

Лог создания рипа

Exact Audio Copy V1.3 from 2. September 2016
EAC extraction logfile from 15. March 2019, 18:37
Chet Baker / Career 1952-1988: Singer
Used drive : SONY DVD RW AD-7280S Adapter: 1 ID: 1
Read mode : SecureUtilize accurate stream : YesDefeat audio cache : YesMake use of C2 pointers : No
Read offset correction : 48Overread into Lead-In and Lead-Out : NoFill up missing offset samples with silence : YesDelete leading and trailing silent blocks : NoNull samples used in CRC calculations : YesUsed interface : Native Win32 interface for Win NT & 2000Gap handling : Appended to previous track
Used output format : User Defined EncoderSelected bitrate : 1024 kBit/sQuality : HighAdd ID3 tag : NoCommand line compressor : C:\Program Files (x86)\Exact Audio Copy\Flac\flac.exeAdditional command line options : -8 -e -p -V -T "ARTIST=%artist%" -T "TITLE=%title%" -T "ALBUM=%albumtitle%" -T "DATE=%year%" -T "TRACKNUMBER=%tracknr%" -T "GENRE=%genre%" -T "PERFORMER=%albuminterpret%" -T "COMPOSER=%composer%" %haslyrics%--tag-from-file=LYRICS="%lyricsfile%"%haslyrics% -T "ALBUMARTIST=%albumartist%" -T "DISCNUMBER=%cdnumber%" -T "TOTALDISCS=%totalcds%" -T "TOTALTRACKS=%numtracks%" -T "COMMENT=%comment%" %source% -o %dest%
TOC of the extracted CD
Track | Start | Length | Start sector | End sector --------------------------------------------------------- 1 | 0:00.00 | 3:44.30 | 0 | 16829 2 | 3:44.30 | 2:51.50 | 16830 | 29704 3 | 6:36.05 | 3:40.45 | 29705 | 46249 4 | 10:16.50 | 3:02.52 | 46250 | 59951 5 | 13:19.27 | 2:51.40 | 59952 | 72816 6 | 16:10.67 | 3:27.33 | 72817 | 88374 7 | 19:38.25 | 2:30.65 | 88375 | 99689 8 | 22:09.15 | 3:56.20 | 99690 | 117409 9 | 26:05.35 | 4:04.07 | 117410 | 135716 10 | 30:09.42 | 2:41.48 | 135717 | 147839 11 | 32:51.15 | 4:05.50 | 147840 | 166264 12 | 36:56.65 | 3:52.45 | 166265 | 183709 13 | 40:49.35 | 4:39.32 | 183710 | 204666 14 | 45:28.67 | 6:02.20 | 204667 | 231836 15 | 51:31.12 | 5:37.10 | 231837 | 257121 16 | 57:08.22 | 7:53.15 | 257122 | 292611 17 | 65:01.37 | 9:34.60 | 292612 | 335721
Track 1
Filename G:\__New\_EAC rips\Chet Baker - Career (1952-1988) (2005) 2cd flac\CD2 Singer\01 - Let's Get Lost.wav
Pre-gap length 0:00:02.00
Peak level 97.3 % Extraction speed 2.2 X Track quality 99.9 % Test CRC 0C273A67 Copy CRC 0C273A67 Accurately ripped (confidence 3) [615881EA] (AR v2) Copy OK
Track 2
Filename G:\__New\_EAC rips\Chet Baker - Career (1952-1988) (2005) 2cd flac\CD2 Singer\02 - The Thrill is Gone.wav
Pre-gap length 0:00:02.00
Peak level 90.9 % Extraction speed 2.3 X Track quality 99.9 % Test CRC 8ABB0569 Copy CRC 8ABB0569 Accurately ripped (confidence 4) [FFFFD41F] (AR v2) Copy OK
Track 3
Filename G:\__New\_EAC rips\Chet Baker - Career (1952-1988) (2005) 2cd flac\CD2 Singer\03 - Everything Happens to Me.wav
Peak level 98.8 % Extraction speed 2.9 X Track quality 100.0 % Test CRC D201CDF9 Copy CRC D201CDF9 Accurately ripped (confidence 3) [6D6FD303] (AR v2) Copy OK
Track 4
Filename G:\__New\_EAC rips\Chet Baker - Career (1952-1988) (2005) 2cd flac\CD2 Singer\04 - That Old Feeling.wav
Pre-gap length 0:00:02.30
Peak level 98.8 % Extraction speed 3.0 X Track quality 100.0 % Test CRC 2E1A7381 Copy CRC 2E1A7381 Accurately ripped (confidence 3) [8272CA07] (AR v2) Copy OK
Track 5
Filename G:\__New\_EAC rips\Chet Baker - Career (1952-1988) (2005) 2cd flac\CD2 Singer\05 - It Could Happen to You.wav
Pre-gap length 0:00:01.66
Peak level 84.5 % Extraction speed 3.1 X Track quality 100.0 % Test CRC C86F5083 Copy CRC C86F5083 Accurately ripped (confidence 3) [37310C35] (AR v2) Copy OK
Track 6
Filename G:\__New\_EAC rips\Chet Baker - Career (1952-1988) (2005) 2cd flac\CD2 Singer\06 - My Heart Stood Still.wav
Peak level 98.8 % Extraction speed 3.4 X Track quality 100.0 % Test CRC F3168C03 Copy CRC F3168C03 Accurately ripped (confidence 3) [698857AF] (AR v2) Copy OK
Track 7
Filename G:\__New\_EAC rips\Chet Baker - Career (1952-1988) (2005) 2cd flac\CD2 Singer\07 - The Song is You.wav
Peak level 98.8 % Extraction speed 3.3 X Track quality 100.0 % Test CRC 0F238B10 Copy CRC 0F238B10 Accurately ripped (confidence 4) [115C6EE9] (AR v2) Copy OK
Track 8
Filename G:\__New\_EAC rips\Chet Baker - Career (1952-1988) (2005) 2cd flac\CD2 Singer\08 - Chetty's Lullaby (with Ennio Morricone & His Orchestra).wav
Peak level 73.0 % Extraction speed 3.7 X Track quality 100.0 % Test CRC BFDFAAFF Copy CRC BFDFAAFF Accurately ripped (confidence 4) [486CDAE1] (AR v2) Copy OK
Track 9
Filename G:\__New\_EAC rips\Chet Baker - Career (1952-1988) (2005) 2cd flac\CD2 Singer\09 - Born to Be Blue.wav
Pre-gap length 0:00:01.04
Peak level 98.8 % Extraction speed 3.9 X Track quality 100.0 % Test CRC C62FBFCF Copy CRC C62FBFCF Accurately ripped (confidence 4) [BC8712EA] (AR v2) Copy OK
Track 10
Filename G:\__New\_EAC rips\Chet Baker - Career (1952-1988) (2005) 2cd flac\CD2 Singer\10 - The Touch of Your Lips.wav
Pre-gap length 0:00:01.73
Peak level 98.8 % Extraction speed 3.2 X Track quality 99.9 % Test CRC A44186C3 Copy CRC A44186C3 Accurately ripped (confidence 4) [51E8997A] (AR v2) Copy OK
Track 11
Filename G:\__New\_EAC rips\Chet Baker - Career (1952-1988) (2005) 2cd flac\CD2 Singer\11 - With a Song in My Heart.wav
Pre-gap length 0:00:01.53
Peak level 96.8 % Extraction speed 3.7 X Track quality 99.9 % Test CRC 74AD64D6 Copy CRC 74AD64D6 Accurately ripped (confidence 4) [E724B086] (AR v2) Copy OK
Track 12
Filename G:\__New\_EAC rips\Chet Baker - Career (1952-1988) (2005) 2cd flac\CD2 Singer\12 - What'll I Do.wav
Pre-gap length 0:00:01.57
Peak level 93.9 % Extraction speed 4.3 X Track quality 100.0 % Test CRC 3F9103CE Copy CRC 3F9103CE Accurately ripped (confidence 4) [07AAA9BE] (AR v2) Copy OK
Track 13
Filename G:\__New\_EAC rips\Chet Baker - Career (1952-1988) (2005) 2cd flac\CD2 Singer\13 - If You Could See Me Now.wav
Pre-gap length 0:00:01.80
Peak level 98.8 % Extraction speed 4.5 X Track quality 100.0 % Test CRC FBE36877 Copy CRC FBE36877 Accurately ripped (confidence 4) [E2F64E3E] (AR v2) Copy OK
Track 14
Filename G:\__New\_EAC rips\Chet Baker - Career (1952-1988) (2005) 2cd flac\CD2 Singer\14 - But Not for Me.wav
Pre-gap length 0:00:01.86
Peak level 97.4 % Extraction speed 4.9 X Track quality 100.0 % Test CRC 0D35F055 Copy CRC 0D35F055 Accurately ripped (confidence 3) [DDFE3A19] (AR v2) Copy OK
Track 15
Filename G:\__New\_EAC rips\Chet Baker - Career (1952-1988) (2005) 2cd flac\CD2 Singer\15 - There Will Never Be Another You.wav
Peak level 98.8 % Extraction speed 5.0 X Track quality 100.0 % Test CRC F72788AB Copy CRC F72788AB Accurately ripped (confidence 3) [D2CDE442] (AR v2) Copy OK
Track 16
Filename G:\__New\_EAC rips\Chet Baker - Career (1952-1988) (2005) 2cd flac\CD2 Singer\16 - Almost Blue.wav
Pre-gap length 0:00:01.33
Peak level 98.8 % Extraction speed 5.4 X Track quality 100.0 % Test CRC D0F411F8 Copy CRC D0F411F8 Accurately ripped (confidence 4) [CBE0C4E4] (AR v2) Copy OK
Track 17
Filename G:\__New\_EAC rips\Chet Baker - Career (1952-1988) (2005) 2cd flac\CD2 Singer\17 - My Funny Valentine.wav
Pre-gap length 0:00:01.06
Peak level 93.4 % Extraction speed 5.8 X Track quality 100.0 % Test CRC DE5222DB Copy CRC DE5222DB Accurately ripped (confidence 3) [3DB3709F] (AR v2) Copy OK
All tracks accurately ripped
No errors occurred
End of status report
---- CUETools DB Plugin V2.1.6
[CTDB TOCID: vD8lnikRbUXkNU.h3sQ3Bs5pfeo-] foundSubmit result: vD8lnikRbUXkNU.h3sQ3Bs5pfeo- has been confirmedTrack | CTDB Status 1 | (8/8) Accurately ripped 2 | (8/8) Accurately ripped 3 | (8/8) Accurately ripped 4 | (8/8) Accurately ripped 5 | (8/8) Accurately ripped 6 | (8/8) Accurately ripped 7 | (8/8) Accurately ripped 8 | (8/8) Accurately ripped 9 | (8/8) Accurately ripped 10 | (8/8) Accurately ripped 11 | (8/8) Accurately ripped 12 | (8/8) Accurately ripped 13 | (8/8) Accurately ripped 14 | (8/8) Accurately ripped 15 | (8/8) Accurately ripped 16 | (8/8) Accurately ripped 17 | (8/8) Accurately ripped
==== Log checksum 20A85FFA1BAC54309FB77D2819A4881E710B06E636E7133F4326097E7028AF03 ====

Содержание индексной карты (.CUE)

REM GENRE JazzREM DATE 2005REM DISCID DB117C11REM COMMENT "ExactAudioCopy v1.3"CATALOG 0826663093025PERFORMER "Chet Baker"TITLE "Career 1952-1988 CD2"FILE "01 - Chet Baker - Let's Get Lost.wav" WAVE  TRACK 01 AUDIO    TITLE "Let's Get Lost"    PERFORMER "Chet Baker"    ISRC USBN20400238    INDEX 01 00:00:00  TRACK 02 AUDIO    TITLE "The Thrill Is Gone"    PERFORMER "Chet Baker"    ISRC USBN20400248    INDEX 00 03:42:30FILE "02 - Chet Baker - The Thrill Is Gone.wav" WAVE    INDEX 01 00:00:00FILE "03 - Chet Baker - Everything Happens to Me.wav" WAVE  TRACK 03 AUDIO    TITLE "Everything Happens to Me"    PERFORMER "Chet Baker"    ISRC FRZO15501030    INDEX 01 00:00:00  TRACK 04 AUDIO    TITLE "That Old Feeling"    PERFORMER "Chet Baker"    ISRC USBN20400241    INDEX 00 03:38:22FILE "04 - Chet Baker - That Old Feeling.wav" WAVE    INDEX 01 00:00:00  TRACK 05 AUDIO    TITLE "It Could Happen to You"    PERFORMER "Chet Baker"    ISRC USFI85800032    INDEX 00 03:01:02FILE "05 - Chet Baker - It Could Happen to You.wav" WAVE    INDEX 01 00:00:00FILE "06 - Chet Baker - My Heart Stood Still.wav" WAVE  TRACK 06 AUDIO    TITLE "My Heart Stood Still"    PERFORMER "Chet Baker"    ISRC USFI85800033    INDEX 01 00:00:00FILE "07 - Chet Baker - The Song Is You.wav" WAVE  TRACK 07 AUDIO    TITLE "The Song Is You"    PERFORMER "Chet Baker"    ISRC USFI86000067    INDEX 01 00:00:00FILE "08 - Chet Baker with Ennio Morricone & His Orchestra - Chetty's Lullaby.wav" WAVE  TRACK 08 AUDIO    TITLE "Chetty's Lullaby"    PERFORMER "Chet Baker with Ennio Morricone & His Orchestra"    ISRC ITB006200563    INDEX 01 00:00:00  TRACK 09 AUDIO    TITLE "Born to Be Blue"    PERFORMER "Chet Baker"    ISRC USPR36486912    INDEX 00 03:55:17FILE "09 - Chet Baker - Born to Be Blue.wav" WAVE    INDEX 01 00:00:00  TRACK 10 AUDIO    TITLE "The Touch of Your Lips"    PERFORMER "Chet Baker"    ISRC USPR36486918    INDEX 00 04:02:27FILE "10 - Chet Baker - The Touch of Your Lips.wav" WAVE    INDEX 01 00:00:00  TRACK 11 AUDIO    TITLE "With a Song in My Heart"    PERFORMER "Chet Baker"    ISRC USSM10020927    INDEX 00 02:40:08FILE "11 - Chet Baker - With a Song in My Heart.wav" WAVE    INDEX 01 00:00:00  TRACK 12 AUDIO    TITLE "What'll I Do"    PERFORMER "Chet Baker"    ISRC USSM10021826    INDEX 00 04:04:07FILE "12 - Chet Baker - What'll I Do.wav" WAVE    INDEX 01 00:00:00  TRACK 13 AUDIO    TITLE "If You Could See Me Now"    PERFORMER "Chet Baker"    ISRC USGR10000448    INDEX 00 03:50:60FILE "13 - Chet Baker - If You Could See Me Now.wav" WAVE    INDEX 01 00:00:00  TRACK 14 AUDIO    TITLE "But Not for Me"    PERFORMER "Chet Baker"    ISRC DKARS8600302    INDEX 00 04:37:42FILE "14 - Chet Baker - But Not for Me.wav" WAVE    INDEX 01 00:00:00FILE "15 - Chet Baker - There Will Never Be Another You.wav" WAVE  TRACK 15 AUDIO    TITLE "There Will Never Be Another You"    PERFORMER "Chet Baker"    ISRC USFI89100092    INDEX 01 00:00:00  TRACK 16 AUDIO    TITLE "Almost Blue"    PERFORMER "Chet Baker"    INDEX 00 05:35:60FILE "16 - Chet Baker - Almost Blue.wav" WAVE    INDEX 01 00:00:00  TRACK 17 AUDIO    TITLE "My Funny Valentine"    PERFORMER "Chet Baker"    INDEX 00 07:52:10FILE "17 - Chet Baker - My Funny Valentine.wav" WAVE    INDEX 01 00:00:00

Отчет CUETools

[CUETools log; Date: 17.03.2019 0:40:22; Version: 2.1.6][CTDB TOCID: vD8lnikRbUXkNU.h3sQ3Bs5pfeo-] found.Track | CTDB Status  1   | (9/9) Accurately ripped  2   | (9/9) Accurately ripped  3   | (9/9) Accurately ripped  4   | (9/9) Accurately ripped  5   | (9/9) Accurately ripped  6   | (9/9) Accurately ripped  7   | (9/9) Accurately ripped  8   | (9/9) Accurately ripped  9   | (9/9) Accurately ripped 10   | (9/9) Accurately ripped 11   | (9/9) Accurately ripped 12   | (9/9) Accurately ripped 13   | (9/9) Accurately ripped 14   | (9/9) Accurately ripped 15   | (9/9) Accurately ripped 16   | (9/9) Accurately ripped 17   | (9/9) Accurately ripped[AccurateRip ID: 0025f0f9-01edbfc2-db117c11] found.Track   [  CRC   |   V2   ] Status 01     [e4b7fff6|615881ea] (3+3/6) Accurately ripped 02     [bb65e59f|ffffd41f] (3+4/7) Accurately ripped 03     [41c3f331|6d6fd303] (3+3/6) Accurately ripped 04     [6948cd25|8272ca07] (3+3/6) Accurately ripped 05     [43ecefa6|37310c35] (3+3/6) Accurately ripped 06     [1eedd85c|698857af] (3+3/6) Accurately ripped 07     [b86fa92e|115c6ee9] (3+4/7) Accurately ripped 08     [6a25b130|486cdae1] (3+4/7) Accurately ripped 09     [1edc2d21|bc8712ea] (3+4/7) Accurately ripped 10     [34df00c5|51e8997a] (3+4/7) Accurately ripped 11     [04a6b159|e724b086] (3+4/7) Accurately ripped 12     [671bc9a9|07aaa9be] (3+4/7) Accurately ripped 13     [b778280a|e2f64e3e] (2+4/6) Accurately ripped 14     [d4d432fd|ddfe3a19] (2+3/5) Accurately ripped 15     [2f4fb39e|d2cde442] (2+3/5) Accurately ripped 16     [e1860f3b|cbe0c4e4] (2+4/6) Accurately ripped 17     [4ccb5ae8|3db3709f] (2+3/5) Accurately ripped
Track Peak [ CRC32 ] [W/O NULL] [ LOG ] -- 98,8 [E65F5D5B] [CF9D285F] 01 97,3 [0C273A67] [7601ECF9] CRC32 02 90,9 [8ABB0569] [EDCD74CB] CRC32 03 98,8 [D201CDF9] [326D7E84] CRC32 04 98,8 [2E1A7381] [1C045A1A] CRC32 05 84,5 [C86F5083] [62536B62] CRC32 06 98,8 [F3168C03] [B91B2B91] CRC32 07 98,8 [0F238B10] [F2B59192] CRC32 08 73,0 [BFDFAAFF] [4EC9F947] CRC32 09 98,8 [C62FBFCF] [666CBC93] CRC32 10 98,8 [A44186C3] [3D1B15F4] CRC32 11 96,8 [74AD64D6] [5B8541E7] CRC32 12 93,9 [3F9103CE] [0F631436] CRC32 13 98,8 [FBE36877] [82BE70B5] CRC32 14 97,4 [0D35F055] [DE1B5F6E] CRC32 15 98,8 [F72788AB] [CA663AE6] CRC32 16 98,8 [D0F411F8] [723D9705] CRC32 17 93,4 [DE5222DB] [85070FFE] CRC32

AllMusic Review by Matt Collar

While there are numerous collections of trumpeter/vocalist Chet Baker's work, none have attempted to cover his entire career. Using Baker's classic 1952 recording of "My Funny Valentine" and the version recorded a month before his death off The Last Great Concert as melancholy bookends, Shout Factory has put together a solid anthology of the iconic artist's recordings. Separated into two discs featuring instrumental trumpet cuts and vocal cuts, respectively, Career: 1952-1988 features classic tracks such as Baker's legendary 1955 Pacific Jazz recording of "Let's Get Lost" as well as stellar lesser-heard tracks, including "Chetty's Lullaby," featuring Baker singing in Italian with Ennio Morricone's orchestra -- a must-hear for Baker fanatics. Also included is a thoughtful booklet including a reminiscence by trumpeter Randy Brecker, an essay by Ernest Hardy, and rare photos of the enigmatic musician. While much of the trumpeter's mid- and late-career work is spotty, there are gems and once again Shout Factory hits the mark, starting with Baker's version of "The Touch of Your Lips." Culled from the oft-overlooked 1964 album Baby Breeze, the track is a short but sweet take of the Ray Noble standard that should stand for most listeners as the definitive version. If there is one faux pas on this otherwise superb collection, it is the inclusion of a version of "There Will Never Be Another You" from a live date in Oklahoma in 1982. The scratchy, tin-can sound was probably captured on a hand-held tape recorder and will be off-putting to all but the most die-hard Baker completists. That said, Baker plays flawlessly on the cut, and in some sense it reveals a truth of Baker's long and muddled career -- that by the early '80s he was a forgotten cult figure who had to be sought out in sundry clubs around the globe. It may not make for pretty listening, but it's a significant chapter in his story, a story deftly brought into focus by Career: 1952-1988.

Рецензия от Дмитрия Скирюка

"От музыки Чета Бейкера определённо веет юностью". Это не я сказал, а ласковый и нежный кот-баюн Харуки Мураками, но я полностью с ним согласен. Я недолюбливаю джаз и уже не раз писал об этом. А Чет Бейкер был первым из джазовых музыкантов, которого я начал слушать не для общего ознакомления, а потому что мне реально хотелось его слушать. Бейкер - это грустная и печальная страница в истории джаза. В годы, когда чёрные музыканты с презрением и снисходительностью смотрели на потуги бледнолицых играть "настоящий джаз", появился Белый Котёнок, в золотой трубе которого жила такая вековая грусть, такая душевная боль, которой просто неоткуда было взяться у этого совсем молодого человека. Сказочно красивый, модный, безумно популярный... Откуда что взялось? Я не удивлюсь, если Бейкер был контрамотом и жил "против времени", помнил будущее, ибо как раз там его ждала странная и страшная судьба. Если коротко - его сгубил героин. Несколько громких скандалов, уголовных дел, драки, выбитые зубы, психлечебница, развод, срок в голландской тюрьме... Он никогда не был виртуозом, не знал нот, но у него был абсолютный слух. Так светло, грустно и проникновенно в джазе не играл НИКТО. Он даже не жил музыкой - он в самом прямом смысле слова дышал ею. В конце жизни у Бейкера уже ничего не осталось. Он жил в Европе, в гостинице, старый, подурневший, одинокий, и записывал пластинки, гонорары от которых посылал за океан дочери, и когда какая-то урла украла у него трубу, он не смог этого пережить и 13 мая 1988 года выбросился из окна отеля в Амстердаме. Этот двойной CD - исчерпывающая коллекция лучших записей Бейкера, от дебюта и до гибели, и, наверное, моя любимая его пластинка. Я так и не понял джаз. Но иногда достаточно принять явление, а понимать совсем не обязательно. Бейкер был явлением, которое я принял сразу и безоговорочно. И второго такого не будет.

If you like the topic, please click share to help develop our site.

To download the file disable ad blocking, and reload the page.

disable adblock How to disable ad blocking?

Download by magnet link 737 MB Download Torrent

Login using:

Similar topics



   
Current time is: 16-Jun 00:11 :: All times are UTC + 3