Ray Brown - Something for Lester
Жанр: Mainstream Jazz
Носитель: CD
Страна-производитель диска (релиза): США
Год издания: 1989
Издатель (лейбл): Contemporary/Original Jazz Classics
Номер по каталогу: OJCCD-412-2
Аудиокодек: FLAC (*.flac)
Тип рипа: tracks+.cue
Битрейт аудио: lossless
Продолжительность: 00:41:24
Источник: Kapla
Наличие сканов в содержимом раздачи: нет
Треклист:
01. Ojos de Rojo (Walton) - 5:16
02. Slippery (Brown) - 7:27
03. Something in Common (Walton) - 4:49
04. Love Walked In (Gershwin-Gershwin) - 5:24
05. Georgia on My Mind (Carmichael-Gorrell) - 7:13
06. Little Girl Blue (Rodgers-Hart) - 6:19
07. Sister Sadie (Silver) - 4:56
Состав:
Ray Brown - bass
Cedar Walton - piano
Elvin Jones - drums
Recorded at Contemporary's Studio, Los Angeles, CA on June 22-24, 1977.

Лог создания рипа

Exact Audio Copy V1.3 from 2. September 2016
EAC extraction logfile from 8. April 2017, 16:48
Ray Brown / Something for Lester
Used drive : LITE-ON DVDRW LH-20A1S Adapter: 1 ID: 0
Read mode : SecureUtilize accurate stream : YesDefeat audio cache : YesMake use of C2 pointers : No
Read offset correction : 6Overread into Lead-In and Lead-Out : NoFill up missing offset samples with silence : YesDelete leading and trailing silent blocks : NoNull samples used in CRC calculations : YesUsed interface : Native Win32 interface for Win NT & 2000Gap handling : Appended to previous track
Used output format : User Defined EncoderSelected bitrate : 1024 kBit/sQuality : HighAdd ID3 tag : NoCommand line compressor : C:\Program Files (x86)\Exact Audio Copy\Flac\flac.exeAdditional command line options : -8 -e -V -T "ARTIST=%artist%" -T "TITLE=%title%" -T "ALBUM=%albumtitle%" -T "DATE=%year%" -T "TRACKNUMBER=%tracknr%" -T "GENRE=%genre%" -T "PERFORMER=%albuminterpret%" -T "COMPOSER=%composer%" %haslyrics%--tag-from-file=LYRICS="%lyricsfile%"%haslyrics% -T "ALBUMARTIST=%albumartist%" -T "DISCNUMBER=%cdnumber%" -T "TOTALDISCS=%totalcds%" -T "TOTALTRACKS=%numtracks%" -T "COMMENT=%comment%" %source% -o %dest%
TOC of the extracted CD
Track | Start | Length | Start sector | End sector --------------------------------------------------------- 1 | 0:00.00 | 5:16.32 | 0 | 23731 2 | 5:16.32 | 7:26.60 | 23732 | 57241 3 | 12:43.17 | 4:49.08 | 57242 | 78924 4 | 17:32.25 | 5:23.55 | 78925 | 103204 5 | 22:56.05 | 7:12.42 | 103205 | 135646 6 | 30:08.47 | 6:19.05 | 135647 | 164076 7 | 36:27.52 | 4:55.48 | 164077 | 186249
Track 1
Filename D:\EAC rips\Ray Brown - Something for Lester (1978) [CD] [FLAC] (1989) {OJCCD-412-2 (S-7641)}\01 - Ojos de Rojo.wav
Pre-gap length 0:00:02.00
Peak level 68.9 % Extraction speed 1.9 X Track quality 100.0 % Test CRC 006CE316 Copy CRC 006CE316 Accurately ripped (confidence 8) [CEA921E8] (AR v2) Copy OK
Track 2
Filename D:\EAC rips\Ray Brown - Something for Lester (1978) [CD] [FLAC] (1989) {OJCCD-412-2 (S-7641)}\02 - Slippery.wav
Pre-gap length 0:00:02.37
Peak level 48.4 % Extraction speed 2.3 X Track quality 100.0 % Test CRC B2B33A7C Copy CRC B2B33A7C Accurately ripped (confidence 7) [2D5DE179] (AR v2) Copy OK
Track 3
Filename D:\EAC rips\Ray Brown - Something for Lester (1978) [CD] [FLAC] (1989) {OJCCD-412-2 (S-7641)}\03 - Something in Common.wav
Pre-gap length 0:00:03.37
Peak level 58.9 % Extraction speed 2.5 X Track quality 100.0 % Test CRC A94B2D28 Copy CRC A94B2D28 Accurately ripped (confidence 7) [5A36375F] (AR v2) Copy OK
Track 4
Filename D:\EAC rips\Ray Brown - Something for Lester (1978) [CD] [FLAC] (1989) {OJCCD-412-2 (S-7641)}\04 - Love Walked In.wav
Pre-gap length 0:00:02.33
Peak level 59.2 % Extraction speed 2.7 X Track quality 100.0 % Test CRC 39292AB7 Copy CRC 39292AB7 Accurately ripped (confidence 8) [5598BA1A] (AR v2) Copy OK
Track 5
Filename D:\EAC rips\Ray Brown - Something for Lester (1978) [CD] [FLAC] (1989) {OJCCD-412-2 (S-7641)}\05 - Georgia on My Mind.wav
Pre-gap length 0:00:01.40
Peak level 95.0 % Extraction speed 2.6 X Track quality 99.9 % Test CRC 66D2E3C2 Copy CRC 66D2E3C2 Accurately ripped (confidence 8) [DF87AD26] (AR v2) Copy OK
Track 6
Filename D:\EAC rips\Ray Brown - Something for Lester (1978) [CD] [FLAC] (1989) {OJCCD-412-2 (S-7641)}\06 - Little Girl Blue.wav
Pre-gap length 0:00:03.07
Peak level 64.2 % Extraction speed 3.2 X Track quality 100.0 % Test CRC 80DD2A13 Copy CRC 80DD2A13 Accurately ripped (confidence 8) [3D973C27] (AR v2) Copy OK
Track 7
Filename D:\EAC rips\Ray Brown - Something for Lester (1978) [CD] [FLAC] (1989) {OJCCD-412-2 (S-7641)}\07 - Sister Sadie.wav
Pre-gap length 0:00:03.12
Peak level 54.2 % Extraction speed 3.3 X Track quality 100.0 % Test CRC A96EEE0F Copy CRC A96EEE0F Accurately ripped (confidence 8) [7FB171FF] (AR v2) Copy OK
All tracks accurately ripped
No errors occurred
End of status report
---- CUETools DB Plugin V2.1.6
[CTDB TOCID: hbdU7mhGdkrgfHyEDqrjaDr50_Y-] foundSubmit result: hbdU7mhGdkrgfHyEDqrjaDr50_Y- has been confirmedTrack | CTDB Status 1 | (6/6) Accurately ripped 2 | (6/6) Accurately ripped 3 | (6/6) Accurately ripped 4 | (6/6) Accurately ripped 5 | (6/6) Accurately ripped 6 | (6/6) Accurately ripped 7 | (6/6) Accurately ripped
==== Log checksum 1D2B8D2DFBAB45942EDCEDC27117A6EEEA9785ABB1B9DDD5FB91AE1BDAE27985 ====

Содержание индексной карты (.CUE)

REM GENRE JazzREM DATE 1977REM DISCID 5B09B307REM COMMENT "ExactAudioCopy v1.3"PERFORMER "Ray Brown"TITLE "Something for Lester"FILE "01 - Ojos de Rojo.wav" WAVE  TRACK 01 AUDIO    TITLE "Ojos de Rojo"    PERFORMER "Ray Brown"    INDEX 01 00:00:00  TRACK 02 AUDIO    TITLE "Slippery"    PERFORMER "Ray Brown"    INDEX 00 05:13:70FILE "02 - Slippery.wav" WAVE    INDEX 01 00:00:00  TRACK 03 AUDIO    TITLE "Something in Common"    PERFORMER "Ray Brown"    INDEX 00 07:23:23FILE "03 - Something in Common.wav" WAVE    INDEX 01 00:00:00  TRACK 04 AUDIO    TITLE "Love Walked In"    PERFORMER "Ray Brown"    INDEX 00 04:46:50FILE "04 - Love Walked In.wav" WAVE    INDEX 01 00:00:00  TRACK 05 AUDIO    TITLE "Georgia on My Mind"    PERFORMER "Ray Brown"    INDEX 00 05:22:15FILE "05 - Georgia on My Mind.wav" WAVE    INDEX 01 00:00:00  TRACK 06 AUDIO    TITLE "Little Girl Blue"    PERFORMER "Ray Brown"    INDEX 00 07:09:35FILE "06 - Little Girl Blue.wav" WAVE    INDEX 01 00:00:00  TRACK 07 AUDIO    TITLE "Sister Sadie"    PERFORMER "Ray Brown"    INDEX 00 06:15:68FILE "07 - Sister Sadie.wav" WAVE    INDEX 01 00:00:00

Отчет CUETools

[CUETools log; Date: 15.03.2019 3:35:44; Version: 2.1.6][CTDB TOCID: hbdU7mhGdkrgfHyEDqrjaDr50_Y-] found.Track | CTDB Status  1   | (14/14) Accurately ripped  2   | (14/14) Accurately ripped  3   | (14/14) Accurately ripped  4   | (14/14) Accurately ripped  5   | (14/14) Accurately ripped  6   | (13/14) Accurately ripped  7   | (14/14) Accurately ripped[AccurateRip ID: 000b6e16-0044b729-5b09b307] found.Track   [  CRC   |   V2   ] Status 01     [101f588e|cea921e8] (00+10/14) Accurately ripped 02     [c3c7986a|2d5de179] (00+10/14) Accurately ripped 03     [a06ab097|5a36375f] (00+10/14) Accurately ripped 04     [d68b52b7|5598ba1a] (00+11/15) Accurately ripped 05     [14af5166|df87ad26] (00+11/15) Accurately ripped 06     [d052f9e1|3d973c27] (00+11/14) Accurately ripped 07     [ded04109|7fb171ff] (00+11/14) Accurately rippedOffsetted by -187: 01     [3d773d43] (00/14) No match (V2 was not tested) 02     [eff296a4] (00/14) No match (V2 was not tested) 03     [9892e8bd] (00/14) No match (V2 was not tested) 04     [a83e6cd2] (00/15) No match (V2 was not tested) 05     [65750801] (00/15) No match (V2 was not tested) 06     [0a781e13] (00/14) No match (V2 was not tested) 07     [a57e2656] (00/14) No match (V2 was not tested)
Track Peak [ CRC32 ] [W/O NULL] [ LOG ] -- 95,0 [591E97CC] [68DA85A9] 01 68,9 [006CE316] [C9260F43] CRC32 02 48,4 [B2B33A7C] [F88FE263] CRC32 03 58,9 [A94B2D28] [71EAD7DE] CRC32 04 59,2 [39292AB7] [7DB94B43] CRC32 05 95,0 [66D2E3C2] [0E0960A5] CRC32 06 64,2 [80DD2A13] [248961B6] CRC32 07 54,2 [A96EEE0F] [CCC0B450] CRC32

AllMusic Review by Scott Yanow

This excellent trio session forms a sort of transition between bassist Ray Brown's work with the Oscar Peterson Trio and his own small-group sessions of the '80s and '90s. With pianist Cedar Walton and drummer Elvin Jones, Brown explores seven strong melodies (four standards, two by Walton, and the bassist's "Slippery") in typically swinging and bluish fashion.

If you like the topic, please click share to help develop our site.

To download the file disable ad blocking, and reload the page.

disable adblock How to disable ad blocking?

Download by magnet link 209 MB Download Torrent

Login using:

Similar topics



   
Current time is: 20-Jun 18:14 :: All times are UTC + 3