Seven Reizh / L'Albatross
Жанр: SymphoProg / Folk-Rock
Носитель: CD
Страна-производитель диска (релиза): France
Год издания: 2018
Издатель (лейбл): Seven Reizh
Страна исполнителя (группы): France
Аудиокодек: WavPack (*.wv)
Тип рипа: iso.wv
Битрейт аудио: lossless
Продолжительность: 1:05:37
Источник: свой рип
Наличие сканов в содержимом раздачи: да
Треклист:
1. Le Pavillon Chinois (3:59)
2. Brizh (14:48)
3. Tiqit Weman (5:52)
4. Dalc'h Mad (6:55)
5. Klasker-bara (4:40)
6. Kriz (9:27)
7. Lostmarc'h (9:59)
8. Er Lein (9:30)
Доп. информация: Очень интересный тандем, добряки: композитор-мультиинструменталист и писатель-новеллист...
Результат заслуживает внимания любого прог-фана.
Кстати, выкладывается исключительно для добряка 116323

Лог создания рипа

Exact Audio Copy V1.3 from 2. September 2016
EAC extraction logfile from 12. March 2019, 17:18
Seven Reizh / L'Albatross
Used drive : HL-DT-STBD-RE WH16NS40 Adapter: 1 ID: 0
Read mode : SecureUtilize accurate stream : YesDefeat audio cache : YesMake use of C2 pointers : No
Read offset correction : 6Overread into Lead-In and Lead-Out : NoFill up missing offset samples with silence : YesDelete leading and trailing silent blocks : NoNull samples used in CRC calculations : YesUsed interface : Native Win32 interface for Win NT & 2000
Used output format : User Defined EncoderSelected bitrate : 768 kBit/sQuality : HighAdd ID3 tag : NoCommand line compressor : C:\Program Files (x86)\Exact Audio Copy\Wavpack\wavpack.exeAdditional command line options : -hm %source% %dest%
TOC of the extracted CD
Track | Start | Length | Start sector | End sector --------------------------------------------------------- 1 | 0:00.00 | 4:00.08 | 0 | 18007 2 | 4:00.08 | 14:49.19 | 18008 | 84701 3 | 18:49.27 | 5:52.16 | 84702 | 111117 4 | 24:41.43 | 6:57.72 | 111118 | 142464 5 | 31:39.40 | 4:41.56 | 142465 | 163595 6 | 36:21.21 | 9:27.34 | 163596 | 206154 7 | 45:48.55 | 9:51.69 | 206155 | 250548 8 | 55:40.49 | 9:56.02 | 250549 | 295250
Range status and errors
Selected range
Filename E:\_NL+_\_CD\Seven Reizh - L'Albatross.wav
Peak level 100.0 % Extraction speed 1.7 X Range quality 100.0 % Test CRC 20678E16 Copy CRC 20678E16 Copy OK
No errors occurred
AccurateRip summary
Track 1 cannot be verified as accurate (confidence 2) [1699ECD3], AccurateRip returned [22B18B56] (AR v2)Track 2 cannot be verified as accurate (confidence 2) [B26AE613], AccurateRip returned [F752C6B5] (AR v2)Track 3 cannot be verified as accurate (confidence 2) [F0765456], AccurateRip returned [095590A8] (AR v2)Track 4 cannot be verified as accurate (confidence 2) [AF69E7DF], AccurateRip returned [374B382B] (AR v2)Track 5 cannot be verified as accurate (confidence 2) [E273A6E4], AccurateRip returned [69DD7998] (AR v2)Track 6 cannot be verified as accurate (confidence 2) [E2C53245], AccurateRip returned [478DAF0B] (AR v2)Track 7 cannot be verified as accurate (confidence 2) [B5D77FDB], AccurateRip returned [80674FD2] (AR v2)Track 8 cannot be verified as accurate (confidence 2) [6DA5A71D], AccurateRip returned [C453F1C1] (AR v2)
No tracks could be verified as accurateYou may have a different pressing from the one(s) in the database
End of status report
---- CUETools DB Plugin V2.1.6
[CTDB TOCID: nMev2irJmjqo1Kx9Z9HWAfxOEF0-] foundSubmit result: nMev2irJmjqo1Kx9Z9HWAfxOEF0- has been confirmedTrack | CTDB Status 1 | (5/5) Accurately ripped 2 | (5/5) Accurately ripped 3 | (5/5) Accurately ripped 4 | (5/5) Accurately ripped 5 | (5/5) Accurately ripped 6 | (5/5) Accurately ripped 7 | (5/5) Accurately ripped 8 | (5/5) Accurately ripped
==== Log checksum E05EB24F0BFBE222A8875228028C4E330208B0A9A3B65BDBD3C9DB7CE4E180FC ====

Содержание индексной карты (.CUE)

REM GENRE "Progressive Rock"REM DATE 2018REM DISCID 530F6008REM COMMENT "ExactAudioCopy v1.3"REM LABEL "Seven Reizh"PERFORMER "Seven Reizh"TITLE L'AlbatrossFILE "Seven Reizh - L'Albatross.wv" WAVE  TRACK 01 AUDIO    TITLE "Le pavillion chinois"    PERFORMER "Seven Reizh"    INDEX 01 00:00:00  TRACK 02 AUDIO    TITLE Brizh    PERFORMER "Seven Reizh"    INDEX 01 04:00:08  TRACK 03 AUDIO    TITLE "Tiqit weman"    PERFORMER "Seven Reizh"    INDEX 01 18:49:27  TRACK 04 AUDIO    TITLE "Dalc'h mad"    PERFORMER "Seven Reizh"    INDEX 01 24:41:43  TRACK 05 AUDIO    TITLE Klasker-Bara    PERFORMER "Seven Reizh"    INDEX 01 31:39:40  TRACK 06 AUDIO    TITLE Kriz    PERFORMER "Seven Reizh"    INDEX 01 36:21:21  TRACK 07 AUDIO    TITLE Lostmarc'h    PERFORMER "Seven Reizh"    INDEX 01 45:48:55  TRACK 08 AUDIO    TITLE "Er lein"    PERFORMER "Seven Reizh"    INDEX 01 55:40:49

Лог проверки качества

REM GENRE "Progressive Rock"REM DATE 2018REM DISCID 530F6008REM COMMENT "ExactAudioCopy v1.3"REM LABEL "Seven Reizh"PERFORMER "Seven Reizh"TITLE L'AlbatrossFILE "Seven Reizh - L'Albatross.wv" WAVE  TRACK 01 AUDIO    TITLE "Le pavillion chinois"    PERFORMER "Seven Reizh"    INDEX 01 00:00:00  TRACK 02 AUDIO    TITLE Brizh    PERFORMER "Seven Reizh"    INDEX 01 04:00:08  TRACK 03 AUDIO    TITLE "Tiqit weman"    PERFORMER "Seven Reizh"    INDEX 01 18:49:27  TRACK 04 AUDIO    TITLE "Dalc'h mad"    PERFORMER "Seven Reizh"    INDEX 01 24:41:43  TRACK 05 AUDIO    TITLE Klasker-Bara    PERFORMER "Seven Reizh"    INDEX 01 31:39:40  TRACK 06 AUDIO    TITLE Kriz    PERFORMER "Seven Reizh"    INDEX 01 36:21:21  TRACK 07 AUDIO    TITLE Lostmarc'h    PERFORMER "Seven Reizh"    INDEX 01 45:48:55  TRACK 08 AUDIO    TITLE "Er lein"    PERFORMER "Seven Reizh"    INDEX 01 55:40:49

Скриншот спектра частот

Лог DRM

foobar2000 1.4 / Dynamic Range Meter 1.1.1log date: 2019-03-12 17:22:10
--------------------------------------------------------------------------------Analyzed: Seven Reizh / L'Albatross--------------------------------------------------------------------------------
DR Peak RMS Duration Track--------------------------------------------------------------------------------DR8 -0.01 dB -12.20 dB 4:00 01-Le pavillion chinoisDR5 0.00 dB -8.54 dB 14:49 02-BrizhDR9 0.00 dB -11.39 dB 5:52 03-Tiqit wemanDR9 0.00 dB -10.72 dB 6:58 04-Dalc'h madDR8 -0.02 dB -11.55 dB 4:42 05-Klasker-BaraDR8 0.00 dB -10.90 dB 9:27 06-KrizDR9 0.00 dB -12.48 dB 9:52 07-Lostmarc'hDR8 0.00 dB -11.71 dB 9:56 08-Er lein--------------------------------------------------------------------------------
Number of tracks: 8Official DR value: DR8
Samplerate: 44100 HzChannels: 2Bits per sample: 16Bitrate: 796 kbpsCodec: WavPack================================================================================

Content of the Container .ISO.WV [432.86 MB (453 885 804 B)]

Seven Reizh - L'Albatross.wv [374.18 MB (392 351 157 B)]artist.jpg [164.50 KB (168 453 B)]back.jpg [54.68 KB (55 995 B)]cd.jpg [60.37 KB (61 816 B)]front.jpg [131.63 KB (134 794 B)]info.txt [7.76 KB (7 950 B)]Seven Reizh - L'Albatross.cue [0.94 KB (958 B)]Seven Reizh - L'Albatross.log [6.85 KB (7 014 B)]Seven Reizh.sig [0.01 KB (14 B)]checkers [1.29 MB (1 353 984 B)]    EAC.jpg [259.46 KB (265 684 B)]    foo_dr.txt [1.18 KB (1 204 B)]    matrix.jpg [635.36 KB (650 605 B)]    Seven Reizh - L'Albatross.wv.auCDtect.txt [1.17 KB (1 198 B)]    spectrum.jpg [264.55 KB (270 897 B)]    wave.jpg [160.54 KB (164 396 B)]readme [7.64 KB (7 820 B)]    [ENG] README No unpacking needed to play or burn this release.txt [3.35 KB (3 430 B)]    [RUS] README No unpacking needed to play or burn this release.txt [4.29 KB (4 390 B)]scans [56.97 MB (59 735 849 B)]    back.png [9.30 MB (9 752 246 B)]    cd.png [6.48 MB (6 790 427 B)]    front.png [17.50 MB (18 348 284 B)]    inlay.png [8.85 MB (9 280 257 B)]    inside.png [14.84 MB (15 564 635 B)]
Report created by CUE Corrector v. 8.3.5 / b. 906 (Mar. 02, 2019)

Состав

- Claude Mignon / composer, arrangements, electric, lap steel & acoustic guitars, piano, synths
- Gérard Le Dortz / lyrics & novel writer
With:
- Farid Aït Siameur / Kabyle vocals
- Laurène Bourvon / English & French vocals
- Bleunwenn Mével / Breton vocals
- Stefanie Théobald / French & German vocals
- Louis Mével / harmony vocals
- Olivier Salmon / electric & acoustic guitars
- Ronan Hilaireau / piano
- Régis Huiban / accordion
- Bernard Le Dréau / tenor saxophone, clarinet
- Ewan Le Gallic / Scottish bagpipes
- Loïc Bléjan / Uillean pipes
- Bro An Aberioù / pipe band led by Goulwen Bono
- Gwenaël Mével / whistles, bombard
- Gwendal Mével / concert flute
- Michel Hoffmann / oboe
- Philippe Durand / horn
- Cyrille Bonneau / duduk
- Sébastien Charlier / harmonica
- Shane Lestideau / violin
- Jonathan Dour / violin
- François Pernel / Celtic harp
- Marcel Aubré / ehru
- Mihai Trestian / cimbalom
- Olivier Carole / basses
- Thierry Runarvot / double bass
- Gurvan Mével / drums, percussion
Что такое iso.wv? Инструкция по эксплуатации

If you like the topic, please click share to help develop our site.

To download the file disable ad blocking, and reload the page.

disable adblock How to disable ad blocking?

Download by magnet link 433 MB Download Torrent

Login using:

Similar topics



   
Current time is: 16-Jun 00:13 :: All times are UTC + 3