Not for Pussies / Into the East
Жанр: Progressive Rock
Носитель: WEB
Год издания: 2019
Страна исполнителя (группы): UK
Аудиокодек: FLAC (*.flac)
Тип рипа: tracks
Битрейт аудио: lossless
Продолжительность: 51:05
Источник: собственная покупка
Наличие сканов в содержимом раздачи: нет

01. Dem Sonnengott (Through fire we live) [00:05:07]
02. No Signal (Is anybody there?) [00:04:49]
03. Gothique (Reading Angela Carter) [00:06:34]
04. Human nature (The false dichotomy) [00:07:01]
05. Flow (For the love of water) [00:12:46]
06. The women (Birth, death and daily bread) [00:09:40]
07. Into the East (Back to the source) [00:05:06]
Released February 2, 2019

Состав

Brian Kidd: Guitars, Guitar Synthesizers, Ebows, Synthesizer Sequencing, Sequencer Programming, Drumbox Programming, Percussion, Mandolin, Microkorg, Organ Loop, Trumpet, Finger Piano, Harmonica Treated Vocals
Janette Kidd: Lead, Backing and Harmony Vocals, Bass Guitar, Fretless Bass Guitar, Piano, Organ

Лог проверки качества

-----------------------
DON'T MODIFY THIS FILE
-----------------------
PERFORMER: auCDtect Task Manager, ver. 1.6.0 RC1 build 1.6.0.1Copyright (c) 2008-2010 y-soft. All rights reservedhttp://y-soft.org
ANALYZER: auCDtect: CD records authenticity detector, version 0.8.2Copyright (c) 2004 Oleg Berngardt. All rights reserved.Copyright (c) 2004 Alexander Djourik. All rights reserved.
FILE: Not for Pussies - Into the East - 07 Into the East (Back to the source).flac Size: 26817778 Hash: E1F349002B107B9E8ED8ADEB78B24F1F Accuracy: -m0 Conclusion: CDDA 99% Signature: D379701F4B1F5555F9BF1F20CEAFB2D84B2092B8FILE: Not for Pussies - Into the East - 06 The women (Birth, death and daily bread).flac Size: 51086737 Hash: 1A7DA56D3A9DCBEC45324D51B0B57F53 Accuracy: -m0 Conclusion: CDDA 100% Signature: 992A44B5518368583FB13C2ECE2EA4BFB396B5B4FILE: Not for Pussies - Into the East - 05 Flow (For the love of water).flac Size: 66348766 Hash: D83223753F6F932C46F79A1470EA942E Accuracy: -m0 Conclusion: CDDA 100% Signature: 96F03DCEEF80C8F1663580831A080D1E513C00CDFILE: Not for Pussies - Into the East - 04 Human nature (The false dichotomy).flac Size: 49199687 Hash: B8870197D61BDCCA4AC4DDF0DA160230 Accuracy: -m0 Conclusion: CDDA 100% Signature: 92E4B3A330EF04D95E17DB1229429AF755A3369CFILE: Not for Pussies - Into the East - 03 Gothique (Reading Angela Carter).flac Size: 37409123 Hash: 332DF2A4395B01F0C8111F1CE5E5E1EE Accuracy: -m0 Conclusion: CDDA 100% Signature: 40CF09D8B0B753029F1B954DC5BA97F58EB3BAD4FILE: Not for Pussies - Into the East - 02 No Signal (Is anybody there-).flac Size: 29188644 Hash: 10909F10C168C81DAC8377C051486FE1 Accuracy: -m0 Conclusion: CDDA 100% Signature: 0593F1BB26F3CDA531F805BA4A3AF334A5438434FILE: Not for Pussies - Into the East - 01 Dem Sonnengott (Through fire we live).flac Size: 30416049 Hash: FFF90BC779A5412E112A8DE72123AB3E Accuracy: -m0 Conclusion: CDDA 99% Signature: C47429DA0676BFD6CD595BA46D2291D026B3033D

DRM log

foobar2000 1.3.12 / Dynamic Range Meter 1.1.1log date: 2019-03-16 17:51:18
--------------------------------------------------------------------------------Analyzed: Not for Pussies / Into the East--------------------------------------------------------------------------------
DR Peak RMS Duration Track--------------------------------------------------------------------------------DR10 0.00 dB -12.64 dB 5:07 01-Dem Sonnengott (Through fire we live)DR10 0.00 dB -12.78 dB 4:50 02-No Signal (Is anybody there?)DR6 -0.30 dB -9.82 dB 6:34 03-Gothique (Reading Angela Carter)DR5 0.00 dB -7.05 dB 7:01 04-Human nature (The false dichotomy)DR9 -0.10 dB -13.42 dB 12:46 05-Flow (For the love of water)DR6 0.00 dB -10.68 dB 9:41 06-The women (Birth, death and daily bread)DR8 0.00 dB -11.35 dB 5:07 07-Into the East (Back to the source)--------------------------------------------------------------------------------
Number of tracks: 7Official DR value: DR8
Samplerate: 44100 HzChannels: 2Bits per sample: 16Bitrate: 695 kbpsCodec: FLAC================================================================================

If you like the topic, please click share to help develop our site.

To download the file disable ad blocking, and reload the page.

disable adblock How to disable ad blocking?

Download by magnet link 278 MB Download Torrent

Login using:

Similar topics

(Progressive Rock) Peroxid - Rocket Girl - 2019, MP3, 320 kbps
 126 MB   0 | 0   09-Jun-19 21:30   0


   
Current time is: 20-Jun 18:01 :: All times are UTC + 3