Foreigner / Live At The Rainbow ‘78
Жанр: Classic Rock | Hard Rock | Arena Rock | AOR
Носитель: WEB
Год издания: 2019
Издатель (лейбл): Rhino
Страна исполнителя (группы): USA
Аудиокодек: FLAC (*.flac)
Тип рипа: tracks
Битрейт аудио: lossless
Продолжительность: 01:13:46
Источник: qobuz.com
Наличие сканов в содержимом раздачи: нет
Треклист:
01. Long, Long Way From Home (Live at the Rainbow Theatre, London, 4/27/78) (3:04)
02. I Need You (Live at the Rainbow Theatre, London, 4/27/78) (6:44)
03. Woman Oh Woman (Live at the Rainbow Theatre, London, 4/27/78) (4:16)
04. Hot Blooded (Live at the Rainbow Theatre, London, 4/27/78) (5:17)
05. Damage Is Done (Live at the Rainbow Theatre, London, 4/27/78) (5:36)
06. Cold As Ice (Live at the Rainbow Theatre, London, 4/27/78) (5:01)
07. Starrider (Live at the Rainbow Theatre, London, 4/27/78) (12:13)
08. Double Vision (Live at the Rainbow Theatre, London, 4/27/78) (4:14)
09. Feels Like the First Time (Live at the Rainbow Theatre, London, 4/27/78) (5:25)
10. Fool for You Anyway (Live at the Rainbow Theatre, London, 4/27/78) (4:34)
11. At War With the World (Live at the Rainbow Theatre, London, 4/27/78) (5:31)
12. Headknocker (Live at the Rainbow Theatre, London, 4/27/78) (11:59)

Лог проверки качества

-----------------------
DON'T MODIFY THIS FILE
-----------------------
PERFORMER: auCDtect Task Manager, ver. 1.6.0 RC1 build 1.6.0.1Copyright (c) 2008-2010 y-soft. All rights reservedhttp://y-soft.org
ANALYZER: auCDtect: CD records authenticity detector, version 0.8.2Copyright (c) 2004 Oleg Berngardt. All rights reserved.Copyright (c) 2004 Alexander Djourik. All rights reserved.
FILE: 12 - Headknocker (Live at the Rainbow Theatre, London, 4_27_78).flac Size: 83802180 Hash: FF9BA1430005AF3FA7B75264938EF2EC Accuracy: -m0 Conclusion: CDDA 100% Signature: CA98F0D39D1DE5E6A1133A6136AB72DFD681504CFILE: 11 - At War With the World (Live at the Rainbow Theatre, London, 4_27_78).flac Size: 37259876 Hash: 773E904429AF5EE2EDF12590AFEC339D Accuracy: -m0 Conclusion: CDDA 100% Signature: 84DD5839B2F1952F4756A8C64092075FA01A5E45FILE: 10 - Fool for You Anyway (Live at the Rainbow Theatre, London, 4_27_78).flac Size: 27566023 Hash: 03CA99141C8834DB8AC45E88CCA7731E Accuracy: -m0 Conclusion: CDDA 100% Signature: AA10B5CE3A1D5DB493F87827FA742957F266F577FILE: 09 - Feels Like the First Time (Live at the Rainbow Theatre, London, 4_27_78).flac Size: 36854251 Hash: E470707B59BEF1DAE5E423451687D8C1 Accuracy: -m0 Conclusion: CDDA 100% Signature: E0740D8A00E545506039B866C2CE2387780B553DFILE: 08 - Double Vision (Live at the Rainbow Theatre, London, 4_27_78).flac Size: 28330811 Hash: F0FDB86874AC67C13EDC8473C347243D Accuracy: -m0 Conclusion: CDDA 100% Signature: F23B3E28EB1FC93AF49194E0042246C57E7F7BD8FILE: 07 - Starrider (Live at the Rainbow Theatre, London, 4_27_78).flac Size: 73187701 Hash: 5852B159FC1F0AE2AD3FDC305AB69D56 Accuracy: -m0 Conclusion: CDDA 100% Signature: 9919EFC463EC6651E150F8BCEA058CA45156C4E8FILE: 06 - Cold As Ice (Live at the Rainbow Theatre, London, 4_27_78).flac Size: 31623950 Hash: 043F8FCD86FD6D7E8AC29492B4449070 Accuracy: -m0 Conclusion: CDDA 100% Signature: 5E178EF86F81D39E07C492128082A5094C0110D6FILE: 05 - Damage Is Done (Live at the Rainbow Theatre, London, 4_27_78).flac Size: 33822512 Hash: 9EC0C097A54FD8C6FB096F668B5855F6 Accuracy: -m0 Conclusion: CDDA 100% Signature: B7640871D594D771251D004AC55CF0646A69C473FILE: 04 - Hot Blooded (Live at the Rainbow Theatre, London, 4_27_78).flac Size: 36586432 Hash: B0996C8C35E73D16915D1AD602164D7E Accuracy: -m0 Conclusion: CDDA 100% Signature: E16EB0C5665F84399BCE24530B27E34C483DE6A6FILE: 03 - Woman Oh Woman (Live at the Rainbow Theatre, London, 4_27_78).flac Size: 25792039 Hash: F778EEE8D7709E1DFAC8715BF69B1930 Accuracy: -m0 Conclusion: CDDA 100% Signature: E4A89FE4E47D8CAFF2F9C7EA340F6930F9391ACEFILE: 02 - I Need You (Live at the Rainbow Theatre, London, 4_27_78).flac Size: 42957398 Hash: A7A8F08204EF2B1C888986A5D44BB4C1 Accuracy: -m0 Conclusion: CDDA 100% Signature: E161B29AD22D23124F6F58973DD4C41FF1C1F6A8FILE: 01 - Long, Long Way From Home (Live at the Rainbow Theatre, London, 4_27_78).flac Size: 20150174 Hash: E0D55E378FC89299D8CB3D8575CD9B04 Accuracy: -m0 Conclusion: CDDA 100% Signature: 96AAAB9DA82C540869424CB6AE2D8C6C361C2D24

Лог DRM

foobar2000 1.2.9 / Dynamic Range Meter 1.1.1log date: 2019-03-15 22:30:11
--------------------------------------------------------------------------------Analyzed: Foreigner / Live At The Rainbow ‘78--------------------------------------------------------------------------------
DR Peak RMS Duration Track--------------------------------------------------------------------------------DR9 -2.50 dB -13.31 dB 3:04 01-Long, Long Way From Home (Live at the Rainbow Theatre, London, 4/27/78)DR9 -2.49 dB -13.61 dB 6:44 02-I Need You (Live at the Rainbow Theatre, London, 4/27/78)DR8 -2.50 dB -12.61 dB 4:16 03-Woman Oh Woman (Live at the Rainbow Theatre, London, 4/27/78)DR8 -2.47 dB -11.88 dB 5:17 04-Hot Blooded (Live at the Rainbow Theatre, London, 4/27/78)DR9 -2.50 dB -13.98 dB 5:36 05-Damage Is Done (Live at the Rainbow Theatre, London, 4/27/78)DR9 -4.30 dB -15.14 dB 5:01 06-Cold As Ice (Live at the Rainbow Theatre, London, 4/27/78)DR8 -2.48 dB -13.43 dB 12:13 07-Starrider (Live at the Rainbow Theatre, London, 4/27/78)DR8 -2.45 dB -12.46 dB 4:14 08-Double Vision (Live at the Rainbow Theatre, London, 4/27/78)DR8 -3.38 dB -12.84 dB 5:25 09-Feels Like the First Time (Live at the Rainbow Theatre, London, 4/27/78)DR8 -2.50 dB -12.97 dB 4:34 10-Fool for You Anyway (Live at the Rainbow Theatre, London, 4/27/78)DR8 -2.49 dB -12.52 dB 5:31 11-At War With the World (Live at the Rainbow Theatre, London, 4/27/78)DR8 -2.31 dB -13.32 dB 11:59 12-Headknocker (Live at the Rainbow Theatre, London, 4/27/78)--------------------------------------------------------------------------------
Number of tracks: 12Official DR value: DR8
Samplerate: 44100 HzChannels: 2Bits per sample: 16Bitrate: 932 kbpsCodec: FLAC================================================================================

If you like the topic, please click share to help develop our site.

To download the file disable ad blocking, and reload the page.

disable adblock How to disable ad blocking?

Download by magnet link 457 MB Download Torrent

Login using:

Similar topics



   
Current time is: 20-Jun 18:51 :: All times are UTC + 3