Dido
Жанр: Pop, Singer/Songwriter | Страна: England | Год издания: 1999-2019
Аудио кодек: AAC | Тип рипа: tracks | Битрейт аудио: 256 kbps
Продолжительность: 09:15:18 | Вшитые тексты: Нет | Наличие сканов: Digital Booklet
Studio albums:

1999 - No Angel

-
  Time  Track title01   4:16   
02 3:58
03 4:33 Don't Think of Me04 4:28 My Lover's Gone05 3:54 All You Want06 3:38
07 4:38 Honestly Ok08 4:53 Slide09 3:55 Isobel10 3:56 I'm No Angel11 3:01 My Life12 6:43 Take My Hand

2003 - Life for Rent (Deluxe Edition)

-
  Time  Track title01   4:01   
02 5:56 Stoned03 3:42
04 3:42 Mary's In India05 5:21 See You When You're 4006 3:47
07 4:21 Who Makes You Feel08 5:00
09 3:56 Do You Have a Little Time10 3:47 This Land Is Mine11 5:06 See the Sun12 3:23 Paris13 11:47 Stoned (Deep Dish Stoner Dub)14 3:56 Don't Leave Home 15 3:47 White Flag 16 5:06 Sand In My Shoes 17 3:23 Life for Rent 18 3:31 Closer (Bonus Track)

Don't Leave Home

Media Info

GeneralComplete name                    : D:\Downloads\Dido\Albums\2003 - Life for Rent (Deluxe Edition)\14 Don't Leave Home.m4vFormat                           : MPEG-4Codec ID                         : M4VFile size                        : 50.1 MiBDuration                         : 3mn 52sOverall bit rate                 : 1 809 KbpsMovie name                       : Don't Leave HomeAlbum                            : Life for Rent (Deluxe Edition)Part/Position                    : 1Part/Total                       : 1Track name/Position              : 14Track name/Total                 : 18Performer                        : DidoGenre                            : PopEncoded date                     : UTC 2008-11-28 08:00:00Tagged date                      : UTC 2013-03-04 09:32:05Writing library                  : Apple QuickTimeCover                            : YesapID                             : [email protected]                             : 299105249rtng                             : 0atID                             : 5438609plID                             : 299104957geID                             : 1614sfID                             : 143444akID                             : 0stik                             : 6purd                             : 2011-02-26 04:43:04xid                              : SonyBMG:isrc:GB1100400150iTunMOVI                         :  /  /  /  /  asset-info /   /   file-size /   52547091 /   flavor /   6:640x480LC-256 /   /  /
VideoID : 1Format : AVCFormat/Info : Advanced Video CodecFormat profile : [email protected] settings, CABAC : NoFormat settings, ReFrames : 1 frameCodec ID : avc1Codec ID/Info : Advanced Video CodingDuration : 3mn 52sBit rate mode : VariableBit rate : 1 518 KbpsWidth : 640 pixelsHeight : 466 pixelsDisplay aspect ratio : 1.373Frame rate mode : ConstantFrame rate : 25.000 fpsColor space : YUVChroma subsampling : 4:2:0Bit depth : 8 bitsScan type : ProgressiveBits/(Pixel*Frame) : 0.204Stream size : 42.0 MiB (84%)Language : EnglishEncoded date : UTC 2009-01-29 16:48:27Tagged date : UTC 2009-01-29 16:48:31Color primaries : BT.601-6 525, BT.1358 525, BT.1700 NTSC, SMPTE 170MTransfer characteristics : BT.709-5, BT.1361Matrix coefficients : BT.601-6 525, BT.1358 525, BT.1700 NTSC, SMPTE 170M
AudioID : 2Format : AACFormat/Info : Advanced Audio CodecFormat version : Version 4Format profile : LCCodec ID : 40Duration : 3mn 52sBit rate mode : ConstantBit rate : 256 KbpsChannel(s) : 2 channelsChannel positions : Front: L RSampling rate : 44.1 KHzStream size : 6.93 MiB (14%)Language : EnglishEncoded date : UTC 2009-01-29 16:48:27Tagged date : UTC 2013-03-04 09:32:05
MenuID : 3Language : EnglishEncoded date : UTC 2009-01-29 16:48:31Tagged date : UTC 2009-01-29 16:48:31

White Flag

Media Info

GeneralComplete name                    : D:\Downloads\Dido\Albums\2003 - Life for Rent (Deluxe Edition)\15 White Flag.m4vFormat                           : MPEG-4Codec ID                         : M4VFile size                        : 47.3 MiBDuration                         : 3mn 40sOverall bit rate                 : 1 797 KbpsMovie name                       : White FlagAlbum                            : Life for Rent (Deluxe Edition)Part/Position                    : 1Part/Total                       : 1Track name/Position              : 15Track name/Total                 : 18Performer                        : DidoGenre                            : PopEncoded date                     : UTC 2008-11-28 08:00:00Tagged date                      : UTC 2013-03-04 09:32:07Writing library                  : Apple QuickTimeCover                            : YesapID                             : [email protected]                             : 299105335rtng                             : 0atID                             : 1752198plID                             : 299104957geID                             : 1614sfID                             : 143444akID                             : 0stik                             : 6purd                             : 2011-02-26 04:43:04xid                              : SonyBMG:isrc:GB1100300720iTunMOVI                         :  /  /  /  /  asset-info /   /   file-size /   49623211 /   flavor /   6:640x480LC-256 /   screen-format /   widescreen /   /  /
VideoID : 1Format : AVCFormat/Info : Advanced Video CodecFormat profile : [email protected] settings, CABAC : NoFormat settings, ReFrames : 1 frameCodec ID : avc1Codec ID/Info : Advanced Video CodingDuration : 3mn 40sBit rate mode : VariableBit rate : 1 502 KbpsWidth : 640 pixelsHeight : 334 pixelsDisplay aspect ratio : 1.916Frame rate mode : ConstantFrame rate : 25.000 fpsColor space : YUVChroma subsampling : 4:2:0Bit depth : 8 bitsScan type : ProgressiveBits/(Pixel*Frame) : 0.281Stream size : 39.6 MiB (84%)Language : EnglishEncoded date : UTC 2009-01-29 16:47:34Tagged date : UTC 2009-01-29 16:47:39Color primaries : BT.601-6 525, BT.1358 525, BT.1700 NTSC, SMPTE 170MTransfer characteristics : BT.709-5, BT.1361Matrix coefficients : BT.601-6 525, BT.1358 525, BT.1700 NTSC, SMPTE 170M
AudioID : 2Format : AACFormat/Info : Advanced Audio CodecFormat version : Version 4Format profile : LCCodec ID : 40Duration : 3mn 40sBit rate mode : ConstantBit rate : 256 KbpsChannel(s) : 2 channelsChannel positions : Front: L RSampling rate : 44.1 KHzStream size : 6.62 MiB (14%)Language : EnglishEncoded date : UTC 2009-01-29 16:47:34Tagged date : UTC 2013-03-04 09:32:07
MenuID : 3Language : EnglishEncoded date : UTC 2009-01-29 16:47:39Tagged date : UTC 2009-01-29 16:47:39

Sand In My Shoes

Media Info

GeneralComplete name                    : D:\Downloads\Dido\Albums\2003 - Life for Rent (Deluxe Edition)\16 Sand In My Shoes.m4vFormat                           : MPEG-4Codec ID                         : M4VFile size                        : 48.3 MiBDuration                         : 3mn 42sOverall bit rate                 : 1 818 KbpsMovie name                       : Sand In My ShoesAlbum                            : Life for Rent (Deluxe Edition)Part/Position                    : 1Part/Total                       : 1Track name/Position              : 16Track name/Total                 : 18Performer                        : DidoGenre                            : PopEncoded date                     : UTC 2008-11-28 08:00:00Tagged date                      : UTC 2013-03-04 09:32:08Writing library                  : Apple QuickTimeCover                            : YesapID                             : [email protected]                             : 299105382rtng                             : 0atID                             : 24014plID                             : 299104957geID                             : 1614sfID                             : 143444akID                             : 0stik                             : 6purd                             : 2011-01-22 06:37:22xid                              : SonyBMG:isrc:GB1100400620iTunMOVI                         :  /  /  /  /  asset-info /   /   file-size /   50624449 /   flavor /   6:640x480LC-256 /   /  /
VideoID : 1Format : AVCFormat/Info : Advanced Video CodecFormat profile : [email protected] settings, CABAC : NoFormat settings, ReFrames : 1 frameFormat settings, GOP : M=1, N=32Codec ID : avc1Codec ID/Info : Advanced Video CodingDuration : 3mn 42sBit rate mode : VariableBit rate : 1 522 KbpsWidth : 640 pixelsHeight : 480 pixelsDisplay aspect ratio : 4:3Frame rate mode : ConstantFrame rate : 29.970 fpsColor space : YUVChroma subsampling : 4:2:0Bit depth : 8 bitsScan type : ProgressiveBits/(Pixel*Frame) : 0.165Stream size : 40.4 MiB (84%)Language : EnglishEncoded date : UTC 2008-12-03 23:06:59Tagged date : UTC 2008-12-03 23:07:04Color primaries : BT.601-6 525, BT.1358 525, BT.1700 NTSC, SMPTE 170MTransfer characteristics : BT.709-5, BT.1361Matrix coefficients : BT.601-6 525, BT.1358 525, BT.1700 NTSC, SMPTE 170M
AudioID : 2Format : AACFormat/Info : Advanced Audio CodecFormat version : Version 4Format profile : LCCodec ID : 40Duration : 3mn 42sBit rate mode : ConstantBit rate : 256 KbpsChannel(s) : 2 channelsChannel positions : Front: L RSampling rate : 44.1 KHzStream size : 6.73 MiB (14%)Language : EnglishEncoded date : UTC 2008-12-03 23:06:59Tagged date : UTC 2013-03-04 09:32:08
MenuID : 3Language : EnglishEncoded date : UTC 2008-12-03 23:07:04Tagged date : UTC 2008-12-03 23:07:04

Life for Rent

Media Info

GeneralComplete name                    : D:\Downloads\Dido\Albums\2003 - Life for Rent (Deluxe Edition)\17 Life for Rent.m4vFormat                           : MPEG-4Codec ID                         : M4VFile size                        : 49.2 MiBDuration                         : 3mn 41sOverall bit rate                 : 1 868 KbpsMovie name                       : Life for RentAlbum                            : Life for Rent (Deluxe Edition)Part/Position                    : 1Part/Total                       : 1Track name/Position              : 17Track name/Total                 : 18Performer                        : DidoGenre                            : PopEncoded date                     : UTC 2008-11-28 08:00:00Tagged date                      : UTC 2013-03-04 09:32:11Writing library                  : Apple QuickTimeCover                            : YesapID                             : [email protected]                             : 299105459rtng                             : 0atID                             : 20646plID                             : 299104957geID                             : 1614sfID                             : 143444akID                             : 0stik                             : 6purd                             : 2011-02-26 04:43:04xid                              : SonyBMG:isrc:GB1100300770iTunMOVI                         :  /  /  /  /  asset-info /   /   file-size /   51627689 /   flavor /   6:640x480LC-256 /   screen-format /   widescreen /   /  /
VideoID : 1Format : AVCFormat/Info : Advanced Video CodecFormat profile : [email protected] settings, CABAC : NoFormat settings, ReFrames : 1 frameCodec ID : avc1Codec ID/Info : Advanced Video CodingDuration : 3mn 41sBit rate mode : VariableBit rate : 1 573 KbpsWidth : 640 pixelsHeight : 374 pixelsDisplay aspect ratio : 16:9Frame rate mode : ConstantFrame rate : 25.000 fpsColor space : YUVChroma subsampling : 4:2:0Bit depth : 8 bitsScan type : ProgressiveBits/(Pixel*Frame) : 0.263Stream size : 41.5 MiB (84%)Language : EnglishEncoded date : UTC 2009-01-29 16:46:23Tagged date : UTC 2009-01-29 16:46:27Color primaries : BT.601-6 525, BT.1358 525, BT.1700 NTSC, SMPTE 170MTransfer characteristics : BT.709-5, BT.1361Matrix coefficients : BT.601-6 525, BT.1358 525, BT.1700 NTSC, SMPTE 170M
AudioID : 2Format : AACFormat/Info : Advanced Audio CodecFormat version : Version 4Format profile : LCCodec ID : 40Duration : 3mn 41sBit rate mode : ConstantBit rate : 256 KbpsChannel(s) : 2 channelsChannel positions : Front: L RSampling rate : 44.1 KHzStream size : 6.62 MiB (13%)Language : EnglishEncoded date : UTC 2009-01-29 16:46:23Tagged date : UTC 2013-03-04 09:32:11
MenuID : 3Language : EnglishEncoded date : UTC 2009-01-29 16:46:27Tagged date : UTC 2009-01-29 16:46:27

2008 - No Angel (Bonus Video Version)

-
  Time  Track title01   4:16   Here With Me02   3:58   Hunter03   4:33   Don't Think of Me04   4:28   My Lover's Gone05   3:54   
06 3:39 Thank You07 4:39 Honestly Ok08 4:53 Slide09 3:55 Isobel10 3:56 I'm No Angel11 3:10 My Life12 6:43 Take My Hand13 4:32 Worthless (Bonus Track)14 9:30 Thank You (Deep Dish Vocal) [Bonus Track]

Thank You

Media Info

GeneralComplete name                    : D:\Downloads\Dido\Albums\2008 - No Angel (Bonus Video Version)\15 Thank You.m4vFormat                           : MPEG-4Codec ID                         : M4VFile size                        : 40.7 MiBDuration                         : 3mn 13sOverall bit rate                 : 1 762 KbpsMovie name                       : Thank YouAlbum                            : No Angel (Bonus Video Version)Part/Position                    : 1Part/Total                       : 1Track name/Position              : 6Track name/Total                 : 14Performer                        : DidoScreenplay by                    : P. Herman & Dido ArmstrongGenre                            : PopEncoded date                     : UTC 2008-11-11 12:00:00Tagged date                      : UTC 2013-02-28 09:14:15Writing library                  : Apple QuickTimeCover                            : YescnID                             : 298141400apID                             : [email protected]                             : 2013-01-20 11:55:06stik                             : 1tvsn                             : 0tves                             : 0
VideoID : 1Format : AVCFormat/Info : Advanced Video CodecFormat profile : [email protected] settings, CABAC : NoFormat settings, ReFrames : 1 frameCodec ID : avc1Codec ID/Info : Advanced Video CodingDuration : 3mn 13sBit rate mode : VariableBit rate : 1 501 KbpsWidth : 640 pixelsHeight : 464 pixelsDisplay aspect ratio : 1.379Frame rate mode : ConstantFrame rate : 29.970 fpsColor space : YUVChroma subsampling : 4:2:0Bit depth : 8 bitsScan type : ProgressiveBits/(Pixel*Frame) : 0.169Stream size : 34.6 MiB (85%)Language : EnglishEncoded date : UTC 2010-12-14 00:43:41Tagged date : UTC 2010-12-14 00:43:45Color primaries : BT.601-6 525, BT.1358 525, BT.1700 NTSC, SMPTE 170MTransfer characteristics : BT.709-5, BT.1361Matrix coefficients : BT.601-6 525, BT.1358 525, BT.1700 NTSC, SMPTE 170M
AudioID : 2Format : AACFormat/Info : Advanced Audio CodecFormat version : Version 4Format profile : LCCodec ID : 40Duration : 3mn 13sBit rate mode : ConstantBit rate : 256 KbpsChannel(s) : 2 channelsChannel positions : Front: L RSampling rate : 44.1 KHzStream size : 5.80 MiB (14%)Language : EnglishEncoded date : UTC 2010-12-14 00:43:41Tagged date : UTC 2013-02-28 09:14:15
MenuID : 3Language : EnglishEncoded date : UTC 2010-12-14 00:43:45Tagged date : UTC 2010-12-14 00:43:45

Here With Me

Media Info

GeneralComplete name                    : D:\Downloads\Dido\Albums\2008 - No Angel (Bonus Video Version)\16 Here With Me.m4vFormat                           : MPEG-4Codec ID                         : M4VFile size                        : 51.9 MiBDuration                         : 4mn 5sOverall bit rate                 : 1 777 KbpsMovie name                       : Here With MeAlbum                            : No Angel (Bonus Video Version)Part/Position                    : 1Part/Total                       : 1Track name/Position              : 1Track name/Total                 : 14Performer                        : DidoScreenplay by                    : Paul Statham, Dido Armstrong & P. GabrielGenre                            : PopEncoded date                     : UTC 2008-11-11 12:00:00Tagged date                      : UTC 2013-02-28 09:14:16Writing library                  : Apple QuickTimeCover                            : YescnID                             : 298141382apID                             : [email protected]                             : 2013-01-20 11:55:06stik                             : 1tvsn                             : 0tves                             : 0
VideoID : 1Format : AVCFormat/Info : Advanced Video CodecFormat profile : [email protected] settings, CABAC : NoFormat settings, ReFrames : 1 frameFormat settings, GOP : M=1, N=8Codec ID : avc1Codec ID/Info : Advanced Video CodingDuration : 4mn 5sBit rate mode : VariableBit rate : 1 516 KbpsWidth : 640 pixelsHeight : 464 pixelsDisplay aspect ratio : 1.379Frame rate mode : ConstantFrame rate : 29.970 fpsColor space : YUVChroma subsampling : 4:2:0Bit depth : 8 bitsScan type : ProgressiveBits/(Pixel*Frame) : 0.170Stream size : 44.3 MiB (85%)Language : EnglishEncoded date : UTC 2010-12-14 00:46:24Tagged date : UTC 2010-12-14 00:46:29Color primaries : BT.601-6 525, BT.1358 525, BT.1700 NTSC, SMPTE 170MTransfer characteristics : BT.709-5, BT.1361Matrix coefficients : BT.601-6 525, BT.1358 525, BT.1700 NTSC, SMPTE 170M
AudioID : 2Format : AACFormat/Info : Advanced Audio CodecFormat version : Version 4Format profile : LCCodec ID : 40Duration : 4mn 5sBit rate mode : ConstantBit rate : 256 KbpsChannel(s) : 2 channelsChannel positions : Front: L RSampling rate : 44.1 KHzStream size : 7.39 MiB (14%)Language : EnglishEncoded date : UTC 2010-12-14 00:46:24Tagged date : UTC 2013-02-28 09:14:16
MenuID : 3Language : EnglishEncoded date : UTC 2010-12-14 00:46:29Tagged date : UTC 2010-12-14 00:46:29

All You Want

Media Info

GeneralComplete name                    : D:\Downloads\Dido\Albums\2008 - No Angel (Bonus Video Version)\17 All You Want.m4vFormat                           : MPEG-4Codec ID                         : M4VFile size                        : 52.8 MiBDuration                         : 4mn 6sOverall bit rate                 : 1 798 KbpsMovie name                       : All You WantAlbum                            : No Angel (Bonus Video Version)Part/Position                    : 1Part/Total                       : 1Track name/Position              : 5Track name/Total                 : 14Performer                        : DidoScreenplay by                    : R. Armstrong, P. Herman & Dido ArmstrongGenre                            : PopEncoded date                     : UTC 2008-11-11 12:00:00Tagged date                      : UTC 2013-02-28 09:14:17Writing library                  : Apple QuickTimeCover                            : YescnID                             : 298141398apID                             : [email protected]                             : 2013-01-20 11:55:06stik                             : 1tvsn                             : 0tves                             : 0
VideoID : 1Format : AVCFormat/Info : Advanced Video CodecFormat profile : [email protected] settings, CABAC : NoFormat settings, ReFrames : 1 frameFormat settings, GOP : N=1Codec ID : avc1Codec ID/Info : Advanced Video CodingDuration : 4mn 6sBit rate mode : VariableBit rate : 1 538 KbpsWidth : 640 pixelsHeight : 464 pixelsDisplay aspect ratio : 1.379Frame rate mode : ConstantFrame rate : 29.970 fpsColor space : YUVChroma subsampling : 4:2:0Bit depth : 8 bitsScan type : ProgressiveBits/(Pixel*Frame) : 0.173Stream size : 45.2 MiB (86%)Language : EnglishEncoded date : UTC 2010-12-14 02:19:11Tagged date : UTC 2010-12-14 02:19:15Color primaries : BT.601-6 525, BT.1358 525, BT.1700 NTSC, SMPTE 170MTransfer characteristics : BT.709-5, BT.1361Matrix coefficients : BT.601-6 525, BT.1358 525, BT.1700 NTSC, SMPTE 170M
AudioID : 2Format : AACFormat/Info : Advanced Audio CodecFormat version : Version 4Format profile : LCCodec ID : 40Duration : 4mn 6sBit rate mode : ConstantBit rate : 256 KbpsChannel(s) : 2 channelsChannel positions : Front: L RSampling rate : 44.1 KHzStream size : 7.39 MiB (14%)Language : EnglishEncoded date : UTC 2010-12-14 02:19:11Tagged date : UTC 2013-02-28 09:14:17
MenuID : 3Language : EnglishEncoded date : UTC 2010-12-14 02:19:15Tagged date : UTC 2010-12-14 02:19:15

Hunter

Media Info

GeneralComplete name                    : D:\Downloads\Dido\Albums\2008 - No Angel (Bonus Video Version)\18 Hunter.m4vFormat                           : MPEG-4Codec ID                         : M4VFile size                        : 49.8 MiBDuration                         : 3mn 55sOverall bit rate                 : 1 773 KbpsMovie name                       : HunterAlbum                            : No Angel (Bonus Video Version)Part/Position                    : 1Part/Total                       : 1Track name/Position              : 2Track name/Total                 : 14Performer                        : DidoScreenplay by                    : R. Armstrong & Dido ArmstrongGenre                            : PopEncoded date                     : UTC 2008-11-11 12:00:00Tagged date                      : UTC 2013-02-28 09:14:20Writing library                  : Apple QuickTimeCover                            : YescnID                             : 298141385apID                             : [email protected]                             : 2013-01-20 11:55:06stik                             : 1tvsn                             : 0tves                             : 0
VideoID : 1Format : AVCFormat/Info : Advanced Video CodecFormat profile : [email protected] settings, CABAC : NoFormat settings, ReFrames : 1 frameCodec ID : avc1Codec ID/Info : Advanced Video CodingDuration : 3mn 55sBit rate mode : VariableBit rate : 1 512 KbpsWidth : 640 pixelsHeight : 304 pixelsDisplay aspect ratio : 2.2:1Frame rate mode : ConstantFrame rate : 25.000 fpsColor space : YUVChroma subsampling : 4:2:0Bit depth : 8 bitsScan type : ProgressiveBits/(Pixel*Frame) : 0.311Stream size : 42.5 MiB (85%)Language : EnglishEncoded date : UTC 2010-12-14 00:36:02Tagged date : UTC 2010-12-14 00:36:06Color primaries : BT.601-6 525, BT.1358 525, BT.1700 NTSC, SMPTE 170MTransfer characteristics : BT.709-5, BT.1361Matrix coefficients : BT.601-6 525, BT.1358 525, BT.1700 NTSC, SMPTE 170M
AudioID : 2Format : AACFormat/Info : Advanced Audio CodecFormat version : Version 4Format profile : LCCodec ID : 40Duration : 3mn 55sBit rate mode : ConstantBit rate : 256 KbpsChannel(s) : 2 channelsChannel positions : Front: L RSampling rate : 44.1 KHzStream size : 7.09 MiB (14%)Language : EnglishEncoded date : UTC 2010-12-14 00:36:02Tagged date : UTC 2013-02-28 09:14:20
MenuID : 3Language : EnglishEncoded date : UTC 2010-12-14 00:36:06Tagged date : UTC 2010-12-14 00:36:06

2008 - Safe Trip Home (Deluxe Version)

-
  Time  Track title01   3:53   
02 3:18 Quiet Times03 3:36 Never Want to Say It's Love04 5:58 Grafton Street05 3:28 It Comes and It Goes06 3:14 Look No Further07 4:50 Us 2 Little Gods08 4:14 The Day Before the Day09 4:10 Let's Do the Things We Normally Do10 4:12 Burnin Love11 8:56 Northern Skies12 5:42 For One Day13 3:53 Summer14 5:54 Northern Skies (Remix) Digital Booklet - Safe Trip Home

2013 - Girl Who Got Away (Deluxe)

-
  Time  Track title01   3:17   No Freedom02   3:24   Girl Who Got Away03   4:11   Let Us Move On (feat. Kendrick Lamar)04   4:10   Blackbird05   3:59   End of Night06   3:19   Sitting On the Roof of the World07   4:37   Love To Blame08   4:25   Go Dreaming09   3:30   Happy New Year10   3:06   Loveless Hearts11   5:13   Day Before We Went To War12   4:33   Let Us Move On (feat. Kendrick Lamar) [prod. Jeff Bhasker and Plain Pat]13   3:45   All I See (feat. Pete Miser)14   3:36   Just Say Yes15   4:24   Let's Runaway16   5:56   Everything To Lose (Armin Van Buuren Remix)17   4:18   Lost18   5:59   No Freedom (Benny Bennasi Remix)

2019 - Still on My Mind [00:45:34] (Mastered for iTunes)

-
  Time  Track title01   5:17   Hurricanes02   3:22   Give You Up03   3:28   Hell After This04   3:32   You Don't Need a God05   5:06   Take You Home06   4:42   Some Kind of Love07   3:05   Still on My Mind08   2:52   Mad Love09   4:31   Walking By10   3:24   Friends11   3:32   Chances12   2:44   Have to Stay
Compilation album:

2013 - Greatest Hits (Deluxe)

-
  • CD 1
  Time  Track title01   4:17   Here with Me02   3:38   Thank You03   3:58   Hunter04   4:02   White Flag05   3:43   Life for Rent06   3:49   Don't Leave Home07   5:01   Sand in My Shoes08   3:55   Don't Believe in Love09   3:19   Quiet Times10   5:58   Grafton Street11   4:34   Everything to Lose12   4:12   Let Us Move On (feat. Kendrick Lamar)13   3:18   
14 4:00
15 3:27 One Step Too Far (feat. Dido) [Radio Edit]16 6:46 Stan (feat. Dido)17 4:40 If I Rise18 4:02 NYC
  • CD 2
  Time  Track title01   5:17   Here with Me (Chillin with the Family Mix)02   4:12   Thank You (Deep Dish Radio Edit)03   6:09   Hunter (MJ Cole Remix)04   3:31   White Flag (Timbaland Remix)05   4:56   Life for Rent (Skinny 4 Rent Mix)06   3:22   Sand in My Shoes (Above & Beyond Radio Edit)07   4:15   Don't Leave Home (Gabriel & Dresden Radio Mix)08   4:33   Don't Believe in Love (Dennis Ferrer's Objektivity Radio Mix)09   6:21   No Freedom (DJ Cobra Mix)10   5:54   End of Night (Cedric Gervais Remix)11   4:32   Go Dreaming (Mantronix Remix)12   6:47   Blackbird (Moguai Remix)13   5:54   Northern Skies (Rollo Remix)
Extended plays:

2013 - End of Night (Remixes) - EP

-
  Time  Track title01   3:28   End of Night (Radio Edit)02   3:41   End of Night (JR Mix)03   6:05   End of Night (Vince Clarke Remix)04   5:53   End of Night (Cedric Gervais Remix)

2013 - Let Us Move On (feat. Kendrick Lamar) - Single

-
  Time  Track title01   4:32   Let Us Move On (feat. Kendrick Lamar)

2013 - No Freedom - EP

-
  Time  Track title01   3:19   No Freedom02   6:02   No Freedom (Benny Benassi Remix)03   5:49   No Freedom (Tom Swoon Remix)04   3:10   Quiet Times (Acoustic)

If you like the topic, please click share to help develop our site.

To download the file disable ad blocking, and reload the page.

disable adblock How to disable ad blocking?

Download by magnet link 1.47 GB Download Torrent

Login using:

Similar topics

(Поп-музыка) KAZKA - KARMA - 2018, AAC (tracks), 256 kbps (WEB)
 69 MB   0 | 0   05-May-18 03:10   142
(Pop) Bazzi - COSMIC - 2018, AAC (tracks), 256 kbps (WEB)
 88 MB   0 | 0   22-Apr-18 14:55   66
(Dance) Bob Sinclar - Disco Crash - 2012, AAC (tracks), 256 kbps (WEB)
 157 MB   0 | 0   19-Feb-18 18:55   47


   
Current time is: 20-Jun 18:06 :: All times are UTC + 3