Janet Seidel - Little Jazz Bird
Жанр: Vocal Jazz
Носитель: CD
Страна-производитель диска (релиза): Австралия
Год издания: 1994
Издатель (лейбл): La Brava Music
Номер по каталогу: LB0001
Аудиокодек: FLAC (*.flac)
Тип рипа: tracks+.cue
Битрейт аудио: lossless
Продолжительность: 01:01:23
Источник: C0LL3CT1V
Наличие сканов в содержимом раздачи: нет
Треклист:
01. September in the Rain (Dubin-Warren) - 2:29
02. 42nd Street (Dubin-Warren) - 3:12
03. Embraceable You (Gershwin-Gershwin) - 4:00
04. Skylark (Mercer-Carmichael) - 4:22
05. Willow Weep for Me (Ronell) - 4:33
06. Slow Hot Wind (Mancini-Gimbel) - 3:18
07. My Ship (Gershwin-Weill) - 5:11
08. Cheek to Cheek (Berlin) - 4:07
09. Them There Eyes (Tracey-Tauber-Pinkard) - 2:34
10. Like Someone in Love (Van Heusen-Burke) - 3:34
11. Lush Life (Strayhorn) - 5:00
12. I'm Old Fashioned (Kern-Mercer) - 3:18
13. Sooner or Later (Sondheim) - 3:47
14. That Old Black Magic (Arlen-Mercer) - 3:01
15. In the Wee Small Hours of the Morning (Mann-Hilliard) - 3:43
16. Come Back to Me (Lane-Lerner) - 2:22
17. Little Jazz Bird (Gershwin-Gershwin) - 2:52

Лог создания рипа

Exact Audio Copy V1.3 from 2. September 2016
EAC extraction logfile from 18. July 2018, 6:33
Janet Seidel / Little Jazz Bird
Used drive : PIONEER DVD-RW DVR-112D Adapter: 1 ID: 0
Read mode : SecureUtilize accurate stream : YesDefeat audio cache : YesMake use of C2 pointers : No
Read offset correction : 48Overread into Lead-In and Lead-Out : NoFill up missing offset samples with silence : YesDelete leading and trailing silent blocks : NoNull samples used in CRC calculations : YesUsed interface : Native Win32 interface for Win NT & 2000Gap handling : Appended to previous track
Used output format : User Defined EncoderSelected bitrate : 1024 kBit/sQuality : HighAdd ID3 tag : NoCommand line compressor : C:\Program Files (x86)\FLAC Frontend\tools\flac.exeAdditional command line options : -8 -e -p -V -T "ARTIST=%artist%" -T "TITLE=%title%" -T "ALBUM=%albumtitle%" -T "DATE=%year%" -T "TRACKNUMBER=%tracknr%" -T "GENRE=%genre%" -T "PERFORMER=%albuminterpret%" -T "COMPOSER=%composer%" %haslyrics%--tag-from-file=LYRICS="%lyricsfile%"%haslyrics% -T "ALBUMARTIST=%albumartist%" -T "DISCNUMBER=%cdnumber%" -T "TOTALDISCS=%totalcds%" -T "TOTALTRACKS=%numtracks%" -T "COMMENT=%comment%" %source% -o %dest%
TOC of the extracted CD
Track | Start | Length | Start sector | End sector --------------------------------------------------------- 1 | 0:00.00 | 2:28.50 | 0 | 11149 2 | 2:28.50 | 3:12.32 | 11150 | 25581 3 | 5:41.07 | 4:00.13 | 25582 | 43594 4 | 9:41.20 | 4:21.70 | 43595 | 63239 5 | 14:03.15 | 4:32.52 | 63240 | 83691 6 | 18:35.67 | 3:18.08 | 83692 | 98549 7 | 21:54.00 | 5:10.62 | 98550 | 121861 8 | 27:04.62 | 4:07.20 | 121862 | 140406 9 | 31:12.07 | 2:33.55 | 140407 | 151936 10 | 33:45.62 | 3:33.55 | 151937 | 167966 11 | 37:19.42 | 4:59.58 | 167967 | 190449 12 | 42:19.25 | 3:17.57 | 190450 | 205281 13 | 45:37.07 | 3:47.05 | 205282 | 222311 14 | 49:24.12 | 3:01.15 | 222312 | 235901 15 | 52:25.27 | 3:42.73 | 235902 | 252624 16 | 56:08.25 | 2:22.12 | 252625 | 263286 17 | 58:30.37 | 2:52.05 | 263287 | 276191
Track 1
Filename C:\C0LL3CT1V\Janet Seidel - Little Jazz Bird [Album][La Brava Music][0001][FLAC]\01 - September in the Rain.wav
Pre-gap length 0:00:02.00
Peak level 88.8 % Extraction speed 4.1 X Track quality 100.0 % Test CRC 7EAB7D3D Copy CRC 7EAB7D3D Cannot be verified as accurate (confidence 4) [1DFAB01E], AccurateRip returned [9ADD4311] (AR v2) Copy OK
Track 2
Filename C:\C0LL3CT1V\Janet Seidel - Little Jazz Bird [Album][La Brava Music][0001][FLAC]\02 - 42nd Street.wav
Peak level 89.9 % Extraction speed 4.7 X Track quality 100.0 % Test CRC ED330A3F Copy CRC ED330A3F Cannot be verified as accurate (confidence 4) [DC33BA87], AccurateRip returned [F3FE646F] (AR v2) Copy OK
Track 3
Filename C:\C0LL3CT1V\Janet Seidel - Little Jazz Bird [Album][La Brava Music][0001][FLAC]\03 - Embraceable You.wav
Peak level 92.1 % Extraction speed 5.2 X Track quality 100.0 % Test CRC C54B15F5 Copy CRC C54B15F5 Cannot be verified as accurate (confidence 4) [D63D1047], AccurateRip returned [AF8A1AB6] (AR v2) Copy OK
Track 4
Filename C:\C0LL3CT1V\Janet Seidel - Little Jazz Bird [Album][La Brava Music][0001][FLAC]\04 - Skylark.wav
Peak level 79.0 % Extraction speed 5.1 X Track quality 99.9 % Test CRC DFFC3526 Copy CRC DFFC3526 Cannot be verified as accurate (confidence 4) [C6D8C28D], AccurateRip returned [0CFF9C21] (AR v2) Copy OK
Track 5
Filename C:\C0LL3CT1V\Janet Seidel - Little Jazz Bird [Album][La Brava Music][0001][FLAC]\05 - Willow Weep for Me.wav
Peak level 89.1 % Extraction speed 6.1 X Track quality 100.0 % Test CRC CC335582 Copy CRC CC335582 Cannot be verified as accurate (confidence 4) [44F53A00], AccurateRip returned [B9F58754] (AR v2) Copy OK
Track 6
Filename C:\C0LL3CT1V\Janet Seidel - Little Jazz Bird [Album][La Brava Music][0001][FLAC]\06 - Slow Hot Wind.wav
Peak level 81.9 % Extraction speed 6.1 X Track quality 100.0 % Test CRC 8094F9BC Copy CRC 8094F9BC Cannot be verified as accurate (confidence 4) [2B2B0617], AccurateRip returned [66AF2A85] (AR v2) Copy OK
Track 7
Filename C:\C0LL3CT1V\Janet Seidel - Little Jazz Bird [Album][La Brava Music][0001][FLAC]\07 - My Ship.wav
Peak level 97.7 % Extraction speed 6.8 X Track quality 100.0 % Test CRC 348265FE Copy CRC 348265FE Cannot be verified as accurate (confidence 4) [D97A5A8C], AccurateRip returned [0F1A50B1] (AR v2) Copy OK
Track 8
Filename C:\C0LL3CT1V\Janet Seidel - Little Jazz Bird [Album][La Brava Music][0001][FLAC]\08 - Cheek to Cheek.wav
Peak level 97.7 % Extraction speed 6.1 X Track quality 99.9 % Test CRC EC6F124D Copy CRC EC6F124D Cannot be verified as accurate (confidence 4) [586C0980], AccurateRip returned [2EC5A352] (AR v2) Copy OK
Track 9
Filename C:\C0LL3CT1V\Janet Seidel - Little Jazz Bird [Album][La Brava Music][0001][FLAC]\09 - Them There Eyes.wav
Peak level 89.6 % Extraction speed 6.5 X Track quality 100.0 % Test CRC E7714E5D Copy CRC E7714E5D Cannot be verified as accurate (confidence 4) [1361DC7D], AccurateRip returned [45338BB2] (AR v2) Copy OK
Track 10
Filename C:\C0LL3CT1V\Janet Seidel - Little Jazz Bird [Album][La Brava Music][0001][FLAC]\10 - Like Someone in Love.wav
Peak level 90.3 % Extraction speed 7.2 X Track quality 100.0 % Test CRC 5DA89175 Copy CRC 5DA89175 Cannot be verified as accurate (confidence 4) [FCEBCF49], AccurateRip returned [EE8591C5] (AR v2) Copy OK
Track 11
Filename C:\C0LL3CT1V\Janet Seidel - Little Jazz Bird [Album][La Brava Music][0001][FLAC]\11 - Lush Life.wav
Peak level 89.3 % Extraction speed 7.0 X Track quality 99.9 % Test CRC 4C93D604 Copy CRC 4C93D604 Cannot be verified as accurate (confidence 4) [3F5B8A3D], AccurateRip returned [7A116F53] (AR v2) Copy OK
Track 12
Filename C:\C0LL3CT1V\Janet Seidel - Little Jazz Bird [Album][La Brava Music][0001][FLAC]\12 - I'm Old Fashioned.wav
Peak level 90.3 % Extraction speed 7.6 X Track quality 100.0 % Test CRC 4F4D4EE1 Copy CRC 4F4D4EE1 Cannot be verified as accurate (confidence 4) [BA5616A8], AccurateRip returned [6B308897] (AR v2) Copy OK
Track 13
Filename C:\C0LL3CT1V\Janet Seidel - Little Jazz Bird [Album][La Brava Music][0001][FLAC]\13 - Sooner or Later.wav
Peak level 96.5 % Extraction speed 7.0 X Track quality 99.9 % Test CRC 2686ECE7 Copy CRC 2686ECE7 Cannot be verified as accurate (confidence 4) [4F225DC0], AccurateRip returned [577795FA] (AR v2) Copy OK
Track 14
Filename C:\C0LL3CT1V\Janet Seidel - Little Jazz Bird [Album][La Brava Music][0001][FLAC]\14 - That Old Black Magic.wav
Peak level 97.7 % Extraction speed 7.8 X Track quality 100.0 % Test CRC 69B2A4A9 Copy CRC 69B2A4A9 Cannot be verified as accurate (confidence 4) [B4E3E01F], AccurateRip returned [27C7C579] (AR v2) Copy OK
Track 15
Filename C:\C0LL3CT1V\Janet Seidel - Little Jazz Bird [Album][La Brava Music][0001][FLAC]\15 - In the Wee Small Hours of the Morning.wav
Peak level 97.7 % Extraction speed 8.3 X Track quality 100.0 % Test CRC 8C9989E6 Copy CRC 8C9989E6 Cannot be verified as accurate (confidence 4) [62495C3F], AccurateRip returned [F962637E] (AR v2) Copy OK
Track 16
Filename C:\C0LL3CT1V\Janet Seidel - Little Jazz Bird [Album][La Brava Music][0001][FLAC]\16 - Come Back to Me.wav
Peak level 90.0 % Extraction speed 7.7 X Track quality 100.0 % Test CRC 670D6D63 Copy CRC 670D6D63 Cannot be verified as accurate (confidence 4) [F4FBB068], AccurateRip returned [FD0CEADD] (AR v2) Copy OK
Track 17
Filename C:\C0LL3CT1V\Janet Seidel - Little Jazz Bird [Album][La Brava Music][0001][FLAC]\17 - Little Jazz Bird.wav
Peak level 97.7 % Extraction speed 8.3 X Track quality 100.0 % Test CRC 520B5C17 Copy CRC 520B5C17 Cannot be verified as accurate (confidence 4) [4861C797], AccurateRip returned [C321F5AA] (AR v2) Copy OK
No tracks could be verified as accurateYou may have a different pressing from the one(s) in the database
No errors occurred
End of status report
---- CUETools DB Plugin V2.1.6
[CTDB TOCID: yZMKYd9MRFPY4bjRUhmo4AzFpyE-] foundSubmit result: yZMKYd9MRFPY4bjRUhmo4AzFpyE- has been confirmedTrack | CTDB Status 1 | (11/11) Accurately ripped 2 | (11/11) Accurately ripped 3 | (11/11) Accurately ripped 4 | (11/11) Accurately ripped 5 | (11/11) Accurately ripped 6 | (11/11) Accurately ripped 7 | (11/11) Accurately ripped 8 | (11/11) Accurately ripped 9 | (11/11) Accurately ripped 10 | (11/11) Accurately ripped 11 | (11/11) Accurately ripped 12 | (11/11) Accurately ripped 13 | (11/11) Accurately ripped 14 | (11/11) Accurately ripped 15 | (11/11) Accurately ripped 16 | (11/11) Accurately ripped 17 | (11/11) Accurately ripped
==== Log checksum 62E319522178A96BD5421E1728EB159CE5E6035BF7F865F5BAA761F6AF02EFFC ====

Содержание индексной карты (.CUE)

REM GENRE JazzREM DATE 1994REM DISCID DE0E6211REM COMMENT "ExactAudioCopy v1.3"PERFORMER "Janet Seidel"TITLE "Little Jazz Bird"FILE "01 - September in the Rain.wav" WAVE  TRACK 01 AUDIO    TITLE "September in the Rain"    PERFORMER "Janet Seidel"    INDEX 01 00:00:00FILE "02 - 42nd Street.wav" WAVE  TRACK 02 AUDIO    TITLE "42nd Street"    PERFORMER "Janet Seidel"    INDEX 01 00:00:00FILE "03 - Embraceable You.wav" WAVE  TRACK 03 AUDIO    TITLE "Embraceable You"    PERFORMER "Janet Seidel"    INDEX 01 00:00:00FILE "04 - Skylark.wav" WAVE  TRACK 04 AUDIO    TITLE "Skylark"    PERFORMER "Janet Seidel"    INDEX 01 00:00:00FILE "05 - Willow Weep for Me.wav" WAVE  TRACK 05 AUDIO    TITLE "Willow Weep for Me"    PERFORMER "Janet Seidel"    INDEX 01 00:00:00FILE "06 - Slow Hot Wind.wav" WAVE  TRACK 06 AUDIO    TITLE "Slow Hot Wind"    PERFORMER "Janet Seidel"    INDEX 01 00:00:00FILE "07 - My Ship.wav" WAVE  TRACK 07 AUDIO    TITLE "My Ship"    PERFORMER "Janet Seidel"    INDEX 01 00:00:00FILE "08 - Cheek to Cheek.wav" WAVE  TRACK 08 AUDIO    TITLE "Cheek to Cheek"    PERFORMER "Janet Seidel"    INDEX 01 00:00:00FILE "09 - Them There Eyes.wav" WAVE  TRACK 09 AUDIO    TITLE "Them There Eyes"    PERFORMER "Janet Seidel"    INDEX 01 00:00:00FILE "10 - Like Someone in Love.wav" WAVE  TRACK 10 AUDIO    TITLE "Like Someone in Love"    PERFORMER "Janet Seidel"    INDEX 01 00:00:00FILE "11 - Lush Life.wav" WAVE  TRACK 11 AUDIO    TITLE "Lush Life"    PERFORMER "Janet Seidel"    INDEX 01 00:00:00FILE "12 - I'm Old Fashioned.wav" WAVE  TRACK 12 AUDIO    TITLE "I'm Old Fashioned"    PERFORMER "Janet Seidel"    INDEX 01 00:00:00FILE "13 - Sooner or Later.wav" WAVE  TRACK 13 AUDIO    TITLE "Sooner or Later"    PERFORMER "Janet Seidel"    INDEX 01 00:00:00FILE "14 - That Old Black Magic.wav" WAVE  TRACK 14 AUDIO    TITLE "That Old Black Magic"    PERFORMER "Janet Seidel"    INDEX 01 00:00:00FILE "15 - In the Wee Small Hours of the Morning.wav" WAVE  TRACK 15 AUDIO    TITLE "In the Wee Small Hours of the Morning"    PERFORMER "Janet Seidel"    INDEX 01 00:00:00FILE "16 - Come Back to Me.wav" WAVE  TRACK 16 AUDIO    TITLE "Come Back to Me"    PERFORMER "Janet Seidel"    INDEX 01 00:00:00FILE "17 - Little Jazz Bird.wav" WAVE  TRACK 17 AUDIO    TITLE "Little Jazz Bird"    PERFORMER "Janet Seidel"    INDEX 01 00:00:00

Отчет CUETools

[CUETools log; Date: 17.03.2019 17:41:22; Version: 2.1.6][CTDB TOCID: yZMKYd9MRFPY4bjRUhmo4AzFpyE-] found.Track | CTDB Status  1   | (15/15) Accurately ripped  2   | (15/15) Accurately ripped  3   | (15/15) Accurately ripped  4   | (15/15) Accurately ripped  5   | (15/15) Accurately ripped  6   | (15/15) Accurately ripped  7   | (15/15) Accurately ripped  8   | (15/15) Accurately ripped  9   | (15/15) Accurately ripped 10   | (15/15) Accurately ripped 11   | (15/15) Accurately ripped 12   | (15/15) Accurately ripped 13   | (15/15) Accurately ripped 14   | (15/15) Accurately ripped 15   | (15/15) Accurately ripped 16   | (15/15) Accurately ripped 17   | (15/15) Accurately ripped[AccurateRip ID: 0026f8b0-01efa0d6-de0e6211] found.Track   [  CRC   |   V2   ] Status 01     [b0ae2752|1dfab01e] (0+0/6) No match 02     [e5dfb0da|dc33ba87] (0+0/6) No match 03     [cf2a6fc1|d63d1047] (0+0/6) No match 04     [ec6a1b6b|c6d8c28d] (0+0/6) No match 05     [3ce5feff|44f53a00] (0+0/6) No match 06     [61e124b1|2b2b0617] (0+0/6) No match 07     [e5b885ed|d97a5a8c] (0+0/6) No match 08     [59bff8c5|586c0980] (0+0/6) No match 09     [0a71b86d|1361dc7d] (0+0/6) No match 10     [e70ae00e|fcebcf49] (0+0/6) No match 11     [c27e0c6b|3f5b8a3d] (0+0/6) No match 12     [4692185a|ba5616a8] (0+0/6) No match 13     [27f201bb|4f225dc0] (0+0/6) No match 14     [627aa9b6|b4e3e01f] (0+0/6) No match 15     [40eb0a44|62495c3f] (0+0/6) No match 16     [eb5c6d93|f4fbb068] (0+0/6) No match 17     [9652cb5c|4861c797] (0+0/6) No matchOffsetted by -667: 01     [d3c61ab6] (0/6) No match (V2 was not tested) 02     [4332cd2c] (0/6) No match (V2 was not tested) 03     [d125724b] (0/6) No match (V2 was not tested) 04     [241a7f37] (0/6) No match (V2 was not tested) 05     [b35a39c0] (0/6) No match (V2 was not tested) 06     [d752bf5b] (0/6) No match (V2 was not tested) 07     [bf85b53e] (0/6) No match (V2 was not tested) 08     [8ced3958] (0/6) No match (V2 was not tested) 09     [ec277b1d] (0/6) No match (V2 was not tested) 10     [62b30806] (0/6) No match (V2 was not tested) 11     [93595330] (0/6) No match (V2 was not tested) 12     [91323e12] (0/6) No match (V2 was not tested) 13     [744434e9] (0/6) No match (V2 was not tested) 14     [a99511bb] (0/6) No match (V2 was not tested) 15     [8e9fed3c] (0/6) No match (V2 was not tested) 16     [02a7f736] (0/6) No match (V2 was not tested) 17     [b7d30ad4] (0/6) No match (V2 was not tested)Offsetted by -7: 01     [2c32b9b3] (0/6) No match (V2 was not tested) 02     [fbe92b07] (0/6) No match (V2 was not tested) 03     [a63b70d3] (0/6) No match (V2 was not tested) 04     [302a538b] (0/6) No match (V2 was not tested) 05     [af5d6dc4] (0/6) No match (V2 was not tested) 06     [9b882403] (0/6) No match (V2 was not tested) 07     [185dcb82] (0/6) No match (V2 was not tested) 08     [2dc3e6a4] (0/6) No match (V2 was not tested) 09     [3adeb5dd] (0/6) No match (V2 was not tested) 10     [d6af5fe6] (0/6) No match (V2 was not tested) 11     [fa6adb44] (0/6) No match (V2 was not tested) 12     [f59a4cf2] (0/6) No match (V2 was not tested) 13     [2e1e9fa1] (0/6) No match (V2 was not tested) 14     [d3ae5ecf] (0/6) No match (V2 was not tested) 15     [d5e2311c] (0/6) No match (V2 was not tested) 16     [f22158c2] (0/6) No match (V2 was not tested) 17     [0f724ce4] (0/6) No match (V2 was not tested)
Track Peak [ CRC32 ] [W/O NULL] [ LOG ] -- 97,7 [DCBAB915] [4A2E1A17] 01 88,8 [7EAB7D3D] [C5974CA2] CRC32 02 89,9 [ED330A3F] [6BE7806E] CRC32 03 92,1 [C54B15F5] [46AF284E] CRC32 04 79,0 [DFFC3526] [36B61240] CRC32 05 89,1 [CC335582] [BC906444] CRC32 06 81,9 [8094F9BC] [B5CCE931] CRC32 07 97,7 [348265FE] [9311D789] CRC32 08 97,7 [EC6F124D] [63884DC7] CRC32 09 89,6 [E7714E5D] [9E338A04] CRC32 10 90,3 [5DA89175] [FDEEE2CD] CRC32 11 89,3 [4C93D604] [8BF9E123] CRC32 12 90,3 [4F4D4EE1] [E4B276CB] CRC32 13 96,5 [2686ECE7] [A58C0F0A] CRC32 14 97,7 [69B2A4A9] [F6CE0224] CRC32 15 97,7 [8C9989E6] [49973CA3] CRC32 16 90,0 [670D6D63] [45D69EF9] CRC32 17 97,7 [520B5C17] [190B4053] CRC32

Состав

Janet Seidel - vocals, piano (#1-4,9-12,16)
Bobby Gebert - piano (#5-8,13-15,17)
David Seidel - bass
Ian Date - guitar (#1-4)
Billy Ross (#1-6,8,17), John Morrison (#7,9-16) - drums
Tom Baker - tenor saxophone (#9-12,16)
Recorded at EMI Studios in 1990 (#5-8,13-15,17) and at Shandar Studio in March-June, 1992 (#1-4,9-12,16).

If you like the topic, please click share to help develop our site.

To download the file disable ad blocking, and reload the page.

disable adblock How to disable ad blocking?

Download by magnet link 351 MB Download Torrent

Login using:

Similar topics



   
Current time is: 16-Jun 00:02 :: All times are UTC + 3